Tags
Language
Tags

Paul Van Nevel, Huelgas Ensemble - Cypriot Advent Antiphons. Anonymous C. 1390 (2009)

Posted By: ArlegZ
Paul Van Nevel, Huelgas Ensemble - Cypriot Advent Antiphons. Anonymous C. 1390 (2009)

Paul Van Nevel, Huelgas Ensemble - Cypriot Advent Antiphons. Anonymous C. 1390 (2009)
EAC | FLAC | Image (Cue & Log) ~ 256 Mb | Total time: 57:08 | Scans included
Classical | Label: Deutsche Harmonia Mundi | # 88697575842 | Recorded: 1989

This cycle of "O" Antiphons is part of the Christmas Vespers ceremony, centered around the Magnificat. In the present case, they are heavily troped, and end with a liturgical motet in a more triumphant mood.
The music itself it thoroughly isorhythmic, and heavily syncopated. The pieces form a true cycle, linked by both a sequence of modality and motivic figures. This is the most elaborate sacred section of the huge Turin manuscript (Torino, Biblioteca Nazionale, MS J. II 9), the one source for the Cypriot repertory.

Performer:
Huelgas Ensemble
Paul Van Nevel, conductor

Track List:
01. Nos demoramur - O Sapientia incarnata
02. Pictor eterne syderum - O Adonay domus Israel
03. Cunti fundent precamina - O radix Yesse splendida
04. Quis igitur aperiet - O clavis David aurea
05. Veni splendor mirabilis - Lucis eterne splendor
06. Quis possit dignexprimere - O rex virtuum gloria
07. Magne virtutum conditor - O Emanuel rex noster
08. Tu nati nata suscipe - O sacra virgo virginum
09. Homo mortalis firmiter - Hodie puer nascitur


Exact Audio Copy V1.3 from 2. September 2016

EAC extraction logfile from 14. June 2020, 17:16

Huelgas Ensemble / Cypriot Advent Antiphons . Huelgas Ensemble

Used drive : HL-DT-STDVD+-RW GT10N Adapter: 1 ID: 1

Read mode : Secure
Utilize accurate stream : Yes
Defeat audio cache : Yes
Make use of C2 pointers : No

Read offset correction : 102
Overread into Lead-In and Lead-Out : No
Fill up missing offset samples with silence : Yes
Delete leading and trailing silent blocks : No
Null samples used in CRC calculations : Yes
Used interface : Native Win32 interface for Win NT & 2000

Used output format : User Defined Encoder
Selected bitrate : 1024 kBit/s
Quality : High
Add ID3 tag : No
Command line compressor : C:\Program Files (x86)\Exact Audio Copy\FLAC\FLAC.EXE
Additional command line options : -6 -V -T "ARTIST=%artist%" -T "TITLE=%title%" -T "ALBUM=%albumtitle%" -T "DATE=%year%" -T "TRACKNUMBER=%tracknr%" -T "GENRE=%genre%" -T "COMMENT=%comment%" -T "BAND=%albuminterpret%" -T "ALBUMARTIST=%albuminterpret%" -T "COMPOSER=%composer%" %haslyrics%–tag-from-file=LYRICS="%lyricsfile%"%haslyrics% -T "DISCNUMBER=%cdnumber%" -T "TOTALDISCS=%totalcds%" -T "TOTALTRACKS=%numtracks%" %hascover%–picture="%coverfile%"%hascover% %source% -o %dest%


TOC of the extracted CD

Track | Start | Length | Start sector | End sector
––––––––––––––––––––––––––––-
1 | 0:00.00 | 6:41.62 | 0 | 30136
2 | 6:41.62 | 6:34.00 | 30137 | 59686
3 | 13:15.62 | 6:57.00 | 59687 | 90961
4 | 20:12.62 | 5:58.00 | 90962 | 117811
5 | 26:10.62 | 8:38.00 | 117812 | 156661
6 | 34:48.62 | 5:50.00 | 156662 | 182911
7 | 40:38.62 | 5:32.00 | 182912 | 207811
8 | 46:10.62 | 7:13.00 | 207812 | 240286
9 | 53:23.62 | 3:45.48 | 240287 | 257209


Range status and errors

Selected range

Filename C:\_RIPs\Cypriot Advent Antiphons . Huelgas Ensemble\CypriotAdventAntiphons-HuelgasEnsemble.wav

Peak level 100.0 %
Extraction speed 1.9 X
Range quality 99.9 %
Test CRC 2293E72B
Copy CRC 2293E72B
Copy OK

No errors occurred


AccurateRip summary

Track 1 accurately ripped (confidence 3) [61227ED2] (AR v2)
Track 2 accurately ripped (confidence 3) [1A6EB9D5] (AR v2)
Track 3 accurately ripped (confidence 3) [FFE5337E] (AR v2)
Track 4 accurately ripped (confidence 3) [C0DDEA12] (AR v2)
Track 5 accurately ripped (confidence 3) [DD6541B5] (AR v2)
Track 6 accurately ripped (confidence 3) [5BAA1297] (AR v2)
Track 7 accurately ripped (confidence 3) [471754B4] (AR v2)
Track 8 accurately ripped (confidence 3) [F65E57F0] (AR v2)
Track 9 accurately ripped (confidence 3) [D2AB98F2] (AR v2)

All tracks accurately ripped

End of status report

–– CUETools DB Plugin V2.1.6

[CTDB TOCID: 4kD6oQXEYoMmQj0l626bv3faOg0-] found
Submit result: 4kD6oQXEYoMmQj0l626bv3faOg0- has been confirmed
Track | CTDB Status
1 | (18/19) Accurately ripped
2 | (18/19) Accurately ripped
3 | (18/19) Accurately ripped
4 | (18/19) Accurately ripped
5 | (18/19) Accurately ripped
6 | (18/19) Accurately ripped
7 | (18/19) Accurately ripped
8 | (18/19) Accurately ripped
9 | (18/19) Accurately ripped


==== Log checksum B08C761AEC23175A8B4DD0ED6904A66C5A7181AF7225704B026E318D89D9B39C ====

Paul Van Nevel, Huelgas Ensemble - Cypriot Advent Antiphons. Anonymous C. 1390 (2009)

Thanks to the original releaser