Tags
Language
Tags

Paul Van Nevel, Huelgas Ensemble - Jacobus Gallus: Opus Musicum, Missa super "Santa Maria" (1994)

Posted By: ArlegZ
Paul Van Nevel, Huelgas Ensemble - Jacobus Gallus: Opus Musicum, Missa super "Santa Maria" (1994)

Paul Van Nevel, Huelgas Ensemble - Jacobus Gallus: Opus Musicum, Missa super "Santa Maria" (1994)
EAC | FLAC | Image (Cue & Log) ~ 309 Mb | Total time: 73:49 | Scans included
Classical | Label: Sony Classical | # SK 64 305 | Recorded: 1994

Though born a Slovene, Jacobus Gallus centered his entire work around Vienna, Prague and the diocesan city of Olomouc (Olmutz). The surpris-ing mobility of Gallus's truly Renaissance career shows him as a model of the sixteenth-century composer. Gallus was active at both abbey and court, though at times for only a brief period before moving on: Melk, Brno (Brunn), Wroclaw (Breslau), Legnica (Lieg-nitz), Gorlitz, Zwettl, and elsewhere. Mis cosmopolitan spirit is reflected, moreover, in the numerous variations of his name: Handl, Petelin, Haehn, Handelius, Coq, Kohoutek. Jakob Handl, who sometimes used the latinized form of his name, Jacobus Gallus, in the printed editions of his works, was born in 1550 in the Slovenian town of Ribnida (Reifniz) near Ljubljana (Laibach). Little is known of his childhood. He probably received his early formal education at the Cistercian monastery at Sticna (Sittich). His compositional style, clearly influenced by the Venetian polychoral idiom, may indicate that he studied in Trieste or Fiume, but this is only speculation. It is, however, known that Gallus left his native country sometime between 1564 and 1566 - perhaps because the pressures of the Reformation, which was on the foremarch, were becoming too strong for him. In this context, it is significant that years later he condemned Protestantism in the preface to the tirst volume of his Opus musicwn (Prague 1586). The publication of the twenty masses turned the itinerant composer of merely local significance into a figure that would soon range among the greats. Soon Gallus's works were being copied into the choirbooks of Germany, Austria, Silesia, Bohemia and Moravia.

Performer:
Huelgas Ensemble
Paul Van Nevel, director

Track List:
Jacobus Gallus (1550-1591)
01. Venite ascendamus à 8
02. Obsecro Domine à 4
03. Tribus miraculis à 12
04. Mirabile misterium à 5
05. Ab oriente venerung magi à 4
06. Pater noster à 8
07. Lamentatur Jacob à 6
08. Eripe me à 5
09. Versa est in luctum cithara mea à 5
10. Quo mihi crude dolor à 8
11. O beata Trinitas à 8
12. Planxit David à 8
13. Jesu dulcis memoria à 6
14. Domine Deus exaudi orationem à 16
Missa super "Sancta Maria"
15. Kyrie
16. Gloria
17. Credo
18. Sanctus
19. Agnus Dei


Exact Audio Copy V1.3 from 2. September 2016

EAC extraction logfile from 12. November 2021, 23:14

Huelgas Ensemble / Gallus . Opus Musicum & Missa Super Sancta Maria

Used drive : HL-DT-STDVD+-RW GT10N Adapter: 1 ID: 1

Read mode : Secure
Utilize accurate stream : Yes
Defeat audio cache : Yes
Make use of C2 pointers : No

Read offset correction : 102
Overread into Lead-In and Lead-Out : No
Fill up missing offset samples with silence : Yes
Delete leading and trailing silent blocks : No
Null samples used in CRC calculations : Yes
Used interface : Native Win32 interface for Win NT & 2000

Used output format : User Defined Encoder
Selected bitrate : 1024 kBit/s
Quality : High
Add ID3 tag : No
Command line compressor : C:\Program Files (x86)\Exact Audio Copy\FLAC\FLAC.EXE
Additional command line options : -6 -V -T "ARTIST=%artist%" -T "TITLE=%title%" -T "ALBUM=%albumtitle%" -T "DATE=%year%" -T "TRACKNUMBER=%tracknr%" -T "GENRE=%genre%" -T "COMMENT=%comment%" -T "BAND=%albuminterpret%" -T "ALBUMARTIST=%albuminterpret%" -T "COMPOSER=%composer%" %haslyrics%–tag-from-file=LYRICS="%lyricsfile%"%haslyrics% -T "DISCNUMBER=%cdnumber%" -T "TOTALDISCS=%totalcds%" -T "TOTALTRACKS=%numtracks%" %hascover%–picture="%coverfile%"%hascover% %source% -o %dest%


TOC of the extracted CD

Track | Start | Length | Start sector | End sector
––––––––––––––––––––––––––––-
1 | 0:00.00 | 3:12.37 | 0 | 14436
2 | 3:12.37 | 2:07.00 | 14437 | 23961
3 | 5:19.37 | 2:48.65 | 23962 | 36626
4 | 8:08.27 | 3:32.53 | 36627 | 52579
5 | 11:41.05 | 2:13.70 | 52580 | 62624
6 | 13:55.00 | 3:31.25 | 62625 | 78474
7 | 17:26.25 | 6:33.55 | 78475 | 108004
8 | 24:00.05 | 4:32.00 | 108005 | 128404
9 | 28:32.05 | 3:38.05 | 128405 | 144759
10 | 32:10.10 | 3:43.65 | 144760 | 161549
11 | 35:54.00 | 2:30.05 | 161550 | 172804
12 | 38:24.05 | 4:19.45 | 172805 | 192274
13 | 42:43.50 | 3:26.25 | 192275 | 207749
14 | 46:10.00 | 4:42.00 | 207750 | 228899
15 | 50:52.00 | 3:35.60 | 228900 | 245084
16 | 54:27.60 | 4:25.17 | 245085 | 264976
17 | 58:53.02 | 8:16.38 | 264977 | 302214
18 | 67:09.40 | 4:22.60 | 302215 | 321924
19 | 71:32.25 | 2:17.12 | 321925 | 332211


Range status and errors

Selected range

Filename C:\_RIPs\Gallus . Opus Musicum & Missa Super Sancta Maria . Huelgas Ensemble\Gallus-Opus_Musicum_&_Missa-Huelgas_Ensemble.wav

Peak level 95.4 %
Extraction speed 2.2 X
Range quality 99.9 %
Test CRC A3CD4951
Copy CRC A3CD4951
Copy OK

No errors occurred


AccurateRip summary

Track 1 accurately ripped (confidence 9) [30604670] (AR v2)
Track 2 accurately ripped (confidence 9) [A226821E] (AR v2)
Track 3 accurately ripped (confidence 9) [A8965B66] (AR v2)
Track 4 accurately ripped (confidence 9) [805E3724] (AR v2)
Track 5 accurately ripped (confidence 9) [FDBE1F1A] (AR v2)
Track 6 accurately ripped (confidence 9) [D14C6733] (AR v2)
Track 7 accurately ripped (confidence 9) [EECC2177] (AR v2)
Track 8 accurately ripped (confidence 9) [7586BDCB] (AR v2)
Track 9 accurately ripped (confidence 9) [ABE9D04C] (AR v2)
Track 10 accurately ripped (confidence 9) [F1EEA503] (AR v2)
Track 11 accurately ripped (confidence 9) [6CA48883] (AR v2)
Track 12 accurately ripped (confidence 9) [417D69F9] (AR v2)
Track 13 accurately ripped (confidence 9) [36C50C81] (AR v2)
Track 14 accurately ripped (confidence 8) [0D03A656] (AR v2)
Track 15 accurately ripped (confidence 9) [3290E7F0] (AR v2)
Track 16 accurately ripped (confidence 9) [360C2B5E] (AR v2)
Track 17 accurately ripped (confidence 9) [8408CEFF] (AR v2)
Track 18 accurately ripped (confidence 9) [754F87ED] (AR v2)
Track 19 accurately ripped (confidence 9) [49123F77] (AR v2)

All tracks accurately ripped

End of status report

–– CUETools DB Plugin V2.1.6

[CTDB TOCID: FHwu3uGQmweyV0.47WcPR2rjfXk-] found
Submit result: FHwu3uGQmweyV0.47WcPR2rjfXk- has been confirmed
Track | CTDB Status
1 | (56/56) Accurately ripped
2 | (56/56) Accurately ripped
3 | (56/56) Accurately ripped
4 | (56/56) Accurately ripped
5 | (56/56) Accurately ripped
6 | (56/56) Accurately ripped
7 | (56/56) Accurately ripped
8 | (56/56) Accurately ripped
9 | (56/56) Accurately ripped
10 | (56/56) Accurately ripped
11 | (56/56) Accurately ripped
12 | (56/56) Accurately ripped
13 | (56/56) Accurately ripped
14 | (55/56) Accurately ripped
15 | (56/56) Accurately ripped
16 | (56/56) Accurately ripped
17 | (56/56) Accurately ripped
18 | (56/56) Accurately ripped
19 | (56/56) Accurately ripped


==== Log checksum 40E80026F0C6E60F40AD02BE736290A137A2E12A46D6D2A32F5A1ED9A0866540 ====

Paul Van Nevel, Huelgas Ensemble - Jacobus Gallus: Opus Musicum, Missa super "Santa Maria" (1994)

Thanks to the original releaser