Tags
Language
Tags

Paul Van Nevel, Huelgas Ensemble - The Treasures of Claude Le Jeune (2014)

Posted By: ArlegZ
Paul Van Nevel, Huelgas Ensemble - The Treasures of Claude Le Jeune (2014)

Paul Van Nevel, Huelgas Ensemble - The Treasures of Claude Le Jeune (2014)
EAC | FLAC | Image (Cue & Log) ~ 252 Mb | Total time: 65:18 | Scans included
Classical | Label: Deutsche Harmonia Mundi | # 88843022442 | Recorded: 2013

Le Jeune’s distinctive contribution to the French chanson marks him out as one of the genre’s essential figures. He is best known for having given musical voice to the concept of the vers mesure a l’antique. The pioneer of this poetic style, Antoine du Baif, sought to return to the simplicity of Greek verse with its clear rules of scansion. The Protestant Le Jeune responded with polyphonic settings in which melismas are abolished in favour of long or short notes of constant duration, corresponding to the strong/weak accentual patterns of the words. In his hands this seemingly daunting restriction is remarkably flexible, and other composers experimented with it, if only briefly (as in Lassus’s lovely Une puce).
In this selection of songs, Van Nevel combines voices and instruments perhaps more felicitously than in the past, and his experiments with a ‘layered’ presentation of the voices over several strophes (also featured on the album devoted to Pipelare, see page 96) works particularly well, since the polyphonic component in these songs has been reduced to a minimum. Personally, I find that a whole hour of vers mesure can be a bit daunting, but the Huelgas Ensemble sound so fresh and beguiling that switching off is never an option. And as always with Paul Van Nevel, the extensive accompanying essay offers a sympathetic and informed way into an influential and under-recorded strand of the chanson.'
–Fabrice Fitch

Performer:
Huelgas Ensemble
Paul Van Nevel, direction

Track List:
Claude Le Jeune (1528-1600)
01. Emendemus in melius
02. Quell'eau, quel air, quel feu
03. Sta costante cor mio
04. Tu ne l'enten pas
05. Philomena praevia
06. Mille affani
07. Debat la noste trill
08. Viv' in dolor
09. Arreste un peu mon coeur
10. Ergo nos supplicantes tibi
11. Quando lo gallo
12. Povre coeur entourné


Exact Audio Copy V1.3 from 2. September 2016

EAC extraction logfile from 15. November 2021, 20:07

Huelgas Ensemble / Le Jeune . The Treasures of Claude Le Jeune

Used drive : HL-DT-STDVD+-RW GT10N Adapter: 1 ID: 1

Read mode : Secure
Utilize accurate stream : Yes
Defeat audio cache : Yes
Make use of C2 pointers : No

Read offset correction : 102
Overread into Lead-In and Lead-Out : No
Fill up missing offset samples with silence : Yes
Delete leading and trailing silent blocks : No
Null samples used in CRC calculations : Yes
Used interface : Native Win32 interface for Win NT & 2000

Used output format : User Defined Encoder
Selected bitrate : 1024 kBit/s
Quality : High
Add ID3 tag : No
Command line compressor : C:\Program Files (x86)\Exact Audio Copy\FLAC\FLAC.EXE
Additional command line options : -6 -V -T "ARTIST=%artist%" -T "TITLE=%title%" -T "ALBUM=%albumtitle%" -T "DATE=%year%" -T "TRACKNUMBER=%tracknr%" -T "GENRE=%genre%" -T "COMMENT=%comment%" -T "BAND=%albuminterpret%" -T "ALBUMARTIST=%albuminterpret%" -T "COMPOSER=%composer%" %haslyrics%–tag-from-file=LYRICS="%lyricsfile%"%haslyrics% -T "DISCNUMBER=%cdnumber%" -T "TOTALDISCS=%totalcds%" -T "TOTALTRACKS=%numtracks%" %hascover%–picture="%coverfile%"%hascover% %source% -o %dest%


TOC of the extracted CD

Track | Start | Length | Start sector | End sector
––––––––––––––––––––––––––––-
1 | 0:00.00 | 6:40.00 | 0 | 29999
2 | 6:40.00 | 4:38.00 | 30000 | 50849
3 | 11:18.00 | 5:26.00 | 50850 | 75299
4 | 16:44.00 | 2:22.00 | 75300 | 85949
5 | 19:06.00 | 4:46.00 | 85950 | 107399
6 | 23:52.00 | 5:25.00 | 107400 | 131774
7 | 29:17.00 | 2:21.00 | 131775 | 142349
8 | 31:38.00 | 5:41.00 | 142350 | 167924
9 | 37:19.00 | 5:03.00 | 167925 | 190649
10 | 42:22.00 | 3:13.00 | 190650 | 205124
11 | 45:35.00 | 4:45.00 | 205125 | 226499
12 | 50:20.00 | 4:58.00 | 226500 | 248849


Range status and errors

Selected range

Filename C:\_RIPs\Le Jeune . The Treasures of Claude Le Jeune . Huelgas Ensemble\Treasures_ClaudeLeJeune-Huelgas_Ensemble.wav

Peak level 96.9 %
Extraction speed 1.8 X
Range quality 99.9 %
Test CRC 1B88E423
Copy CRC 1B88E423
Copy OK

No errors occurred


AccurateRip summary

Track 1 accurately ripped (confidence 15) [E5FC20A6] (AR v2)
Track 2 accurately ripped (confidence 15) [A5B71125] (AR v2)
Track 3 accurately ripped (confidence 15) [1B590BED] (AR v2)
Track 4 accurately ripped (confidence 15) [0920E0A6] (AR v2)
Track 5 accurately ripped (confidence 15) [3ED50271] (AR v2)
Track 6 accurately ripped (confidence 15) [E81C8A49] (AR v2)
Track 7 accurately ripped (confidence 15) [99C14F36] (AR v2)
Track 8 accurately ripped (confidence 15) [093777F7] (AR v2)
Track 9 accurately ripped (confidence 15) [3C025447] (AR v2)
Track 10 accurately ripped (confidence 15) [9138174D] (AR v2)
Track 11 accurately ripped (confidence 15) [B5B54524] (AR v2)
Track 12 accurately ripped (confidence 15) [D9EC4764] (AR v2)

All tracks accurately ripped

End of status report

–– CUETools DB Plugin V2.1.6

[CTDB TOCID: x.3oeVD8UEngnXMXAN330eejIWQ-] found
Submit result: x.3oeVD8UEngnXMXAN330eejIWQ- has been confirmed
Track | CTDB Status
1 | (26/26) Accurately ripped
2 | (26/26) Accurately ripped
3 | (26/26) Accurately ripped
4 | (26/26) Accurately ripped
5 | (26/26) Accurately ripped
6 | (26/26) Accurately ripped
7 | (26/26) Accurately ripped
8 | (26/26) Accurately ripped
9 | (26/26) Accurately ripped
10 | (26/26) Accurately ripped
11 | (26/26) Accurately ripped
12 | (26/26) Accurately ripped


==== Log checksum CC91CB56BF350DD24582999CFF89505B9D7F30F7A4601A8D1743B209B6B04DC3 ====

Paul Van Nevel, Huelgas Ensemble - The Treasures of Claude Le Jeune (2014)

Thanks to the original releaser