Subcategories

Pet Shop Boys - Inner Sanctum: Live 2018 (2019) [BDRip 1080p]

Posted By: juanchito
Pet Shop Boys - Inner Sanctum: Live 2018 (2019) [BDRip 1080p]

Pet Shop Boys - Inner Sanctum: Live 2018 (2019)
BDRip 1080p | MKV | 1920 x 1008 , x264 2PASS @ 9294 kbps | Audio: English DTS 5.1 @ 1.509 kbps
Genre: Synthpop | Length: 105 minutes | 8.13 GB


The iconic duo's acclaimed production, first presented at the Royal Opera House in 2016 over four sold-out shows, was reprised at the venue for a further four nights in July 2018 as part of their 'Super' tour. Staged by long-term PSB designer Es Devlin and choreographer/director Lynne Page, the show was filmed by director David Barnard. Filmed on 27 and 28 July 2018, the full-length film on DVD and Blu-ray is accompanied by two CDs of the complete audio of the live show plus a bonus feature of PSB live at Rock in Rio, which was recorded on 17 September 2017 at the Brazilian festival.

Pet Shop Boys - Inner Sanctum: Live 2018 (2019) [BDRip 1080p]

Pet Shop Boys - Inner Sanctum: Live 2018 (2019) [BDRip 1080p]

Pet Shop Boys - Inner Sanctum: Live 2018 (2019) [BDRip 1080p]

Pet Shop Boys - Inner Sanctum: Live 2018 (2019) [BDRip 1080p]

Pet Shop Boys - Inner Sanctum: Live 2018 (2019) [BDRip 1080p]


Tracklist:
1. Inner sanctum
2. Opportunities (let's make lots of money)
3. The Pop Kids/In the night/Burn
4. Love is a bourgeois construct
5. New York City boy
6. Se a vida é (That's the way life is)
7. Love comes quickly
8. Love etc.
9. The dictator decides/Inside a dream
10. West End girls
11. Home and dry/The Enigma
12. Vocal/The Sodom and Gomorrah Show
13. It's a sin
14. Left to my own devices
15. Heart/Go West
16. Domino dancing
17. Always on my mind
18. The pop kids (reprise)


General
Unique ID : 206455880623120559295048024174439589749 (0x9B51F4CE065F9F07BFCC605085B66775)
Complete name : A:\Roberto Cumbreta\Pet.Shop.Boys.Inner.Sanctum.2018.1080p.MBLURAY.x264-MBLURAYFANS\pet.shop.boys.inner.sanctum.2018.1080p.mkv
Format : Matroska
Format version : Version 4
File size : 7.94 GiB
Duration : 1 h 45 min
Overall bit rate : 10.8 Mb/s
Encoded date : UTC 2019-04-14 05:33:39
Writing application : mkvmerge v7.9.0 ('Birds') 64bit
Writing library : libebml v1.3.1 + libmatroska v1.4.2

Video
ID : 1
Format : AVC
Format/Info : Advanced Video Codec
Format profile : High@L4.1
Format settings : CABAC / 4 Ref Frames
Format settings, CABAC : Yes
Format settings, Reference frames : 4 frames
Codec ID : V_MPEG4/ISO/AVC
Duration : 1 h 45 min
Bit rate : 9 294 kb/s
Width : 1 920 pixels
Height : 1 008 pixels
Display aspect ratio : 1.905
Frame rate mode : Constant
Frame rate : 23.976 (24000/1001) FPS
Color space : YUV
Chroma subsampling : 4:2:0
Bit depth : 8 bits
Scan type : Progressive
Bits/(Pixel*Frame) : 0.200
Stream size : 6.83 GiB (86%)
Writing library : x264 core 157 r2969 d4099dd
Encoding settings : cabac=1 / ref=4 / deblock=1:0:0 / analyse=0x3:0x133 / me=umh / subme=7 / psy=1 / psy_rd=1.00:0.00 / mixed_ref=1 / me_range=16 / chroma_me=1 / trellis=2 / 8x8dct=1 / cqm=0 / deadzone=21,11 / fast_pskip=0 / chroma_qp_offset=-2 / threads=18 / lookahead_threads=3 / sliced_threads=0 / nr=0 / decimate=1 / interlaced=0 / bluray_compat=0 / constrained_intra=0 / bframes=3 / b_pyramid=2 / b_adapt=1 / b_bias=0 / direct=3 / weightb=1 / open_gop=0 / weightp=2 / keyint=250 / keyint_min=23 / scenecut=40 / intra_refresh=0 / rc_lookahead=50 / rc=2pass / mbtree=1 / bitrate=9294 / ratetol=1.0 / qcomp=0.60 / qpmin=0 / qpmax=69 / qpstep=4 / cplxblur=20.0 / qblur=0.5 / ip_ratio=1.40 / aq=1:1.00
Language : English
Default : Yes
Forced : No

Audio
ID : 2
Format : DTS
Format/Info : Digital Theater Systems
Codec ID : A_DTS
Duration : 1 h 45 min
Bit rate mode : Constant
Bit rate : 1 509 kb/s
Channel(s) : 6 channels
Channel layout : C L R Ls Rs LFE
Sampling rate : 48.0 kHz
Frame rate : 93.750 FPS (512 SPF)
Bit depth : 24 bits
Compression mode : Lossy
Stream size : 1.11 GiB (14%)
Title : dts
Language : English
Default : Yes
Forced : No

Menu
00:00:00.000 : en:00:00:00.000
00:04:35.692 : en:00:04:35.692
00:07:27.447 : en:00:07:27.447
00:18:40.119 : en:00:18:40.119
00:25:22.020 : en:00:25:22.020
00:29:03.575 : en:00:29:03.575
00:33:19.998 : en:00:33:19.998
00:38:58.836 : en:00:38:58.836
00:42:46.981 : en:00:42:46.981
00:52:07.791 : en:00:52:07.791
00:57:10.385 : en:00:57:10.385
01:04:48.259 : en:01:04:48.259
01:13:46.088 : en:01:13:46.088
01:19:29.181 : en:01:19:29.181
01:24:54.715 : en:01:24:54.715
01:32:54.194 : en:01:32:54.194
01:37:50.490 : en:01:37:50.490
01:42:06.704 : en:01:42:06.704
01:43:37.128 : en:01:43:37.128


Thanks to the original uploader