Tags
Language
Tags
February 2023
Su Mo Tu We Th Fr Sa
29 30 31 1 2 3 4
5 6 7 8 9 10 11
12 13 14 15 16 17 18
19 20 21 22 23 24 25
26 27 28 1 2 3 4

Peter Green - The Very Best Of Peter Green (1998)

Posted By: v3122
Peter Green  - The Very Best Of  Peter Green (1998)

Peter Green - The Very Best Of Peter Green (1998)
EAC | Flac(Image) + Cue + Log & MP3 CBR 320Kbps
Wise Buy, WB 886002 | ~ 382 or 167 Mb | Scans
Blues Rock

Peter Green is regarded by some fans as the greatest white blues guitarist ever, Eric Clapton notwithstanding. Born Peter Greenbaum but calling himself Peter Green by age 15, he grew up in London's working-class East End. Green's early musical influences were Hank Marvin of the Shadows, Muddy Waters, B.B. King, Freddie King, and traditional Jewish music. He originally played bass before being invited in 1966 by keyboardist Peter Bardens to play lead in the Peter B's, whose drummer was a lanky chap named Mick Fleetwood. The 19-year-old Green was with Bardens just three months before joining John Mayall's Bluesbreakers, whose rapidly shifting personnel included bassist John McVie and drummer Aynsley Dunbar. A keen fan of Clapton, Green badgered Mayall to give him a chance when the Bluesbreakers guitarist split for an indefinite vacation in Greece. Green sounded great and, as Mayall recalls, was not amused when Clapton returned after a handful of gigs, and Green was out.

When Clapton left the band for good six months later to form Cream, Mayall cajoled Green back. Fans were openly hostile because Green was not God, although they appreciated Clapton's replacement in time. Producer Mike Vernon was aghast when the Bluesbreakers showed up without Clapton to record the album A Hard Road in late 1966, but was won over by Green's playing. On many tracks you'd be hard-pressed to tell it wasn't Clapton playing. With an eerie Green instrumental called "The Supernatural," he demonstrated the beginning of his trademark fluid, haunting style so reminiscent of B.B. King.

When Green left Mayall in 1967, he took McVie and Fleetwood to found Peter Green's Fleetwood Mac. Jeremy Spencer and Danny Kirwan shortly afterward gave Fleetwood Mac an unusual three-guitar front line. Green was at his peak for the albums Mr. Wonderful, English Rose, Then Play On, and a live Boston Tea Party recording. His instrumental "Albatross" was the band's first British number one single and "Black Magic Woman" was later a huge hit for Carlos Santana. But Green had been experimenting with acid and his behavior became increasingly irrational, especially after he disappeared for three days of rampant drug use in Munich. He became very religious, appearing on-stage wearing crucifixes and flowing robes. His bandmates resisted Green's suggestion to donate most of their money to charity, and he left in mid-1970 after writing a harrowing biographical tune called "The Green Manalishi."

After a bitter, rambling solo album called The End of the Game, Green saddened fans when he hung up his guitar, except for helping the Mac complete a tour when Spencer suddenly joined the Children of God in Los Angeles and quit the band. Green's chaotic odyssey of almost a decade included rumors that he was a gravedigger, a bartender in Cornwall, a hospital orderly, and a member of an Israeli commune. When an accountant sent him an unwanted royalty check, Green confronted his tormentor with a gun, although it was unloaded. Green went to jail briefly before being transferred to an asylum.

Green emerged in the late '70s and early '80s with albums In the Skies, Little Dreamer, White Sky, and Kolors, featuring at times Bardens, Robin Trower drummer Reg Isidore, and Fairport Convention drummer Dave Mattacks. He reprised the Then Play On Mac standard "Rattlesnake Shake" on Fleetwood's solo 1981 album, The Visitor. British author Martin Celmins wrote Green's biography in 1995. Psychologically troubled, on medication, and hardly playing the guitar for most of the '90s, the reclusive Green resumed sporadic recording in the second half of the decade. He surfaces unexpectedly from time to time, most prominently January 12, 1998, when Fleetwood Mac was inducted into the Rock & Roll Hall of Fame. In a rare, perfect moment, Green jammed with fellow inductee Santana on "Black Magic Woman."

by Mark Allan, AMG
Peter Green  - The Very Best Of  Peter Green (1998)


Peter Green - The Very Best Of Peter Green (1998):

Peter Green  - The Very Best Of  Peter Green (1998)

Tracklist:

01. In The Skies 3:50
02. Slabo Day 5:06
03. Apostle 3:12
04. Loser Two Times 4:32
05. Baby When The Sun Goes Down 5:36
06. One Woman Love 5:32
07. Time For Me To Go 3:55
08. The Clown 6:04
09. Proud Pinto 3:43
10. Bullet In The Sky 3:24
11. Last Train To San Antone 5:33
12. Watcha Gonna Do 3:50
13. Woman Don't 5:03
14. Bandit 2:57

Exact Audio Copy V1.0 beta 6 from 9. April 2015

EAC extraction logfile from 1. June 2015, 17:53

Peter Green / The Very Best Of Peter Green (WB 886002)

Used drive : PLEXTOR DVDR PX-891SA Adapter: 1 ID: 0

Read mode : Secure
Utilize accurate stream : Yes
Defeat audio cache : Yes
Make use of C2 pointers : No

Read offset correction : 6
Overread into Lead-In and Lead-Out : No
Fill up missing offset samples with silence : Yes
Delete leading and trailing silent blocks : No
Null samples used in CRC calculations : Yes
Used interface : Native Win32 interface for Win NT & 2000

Used output format : User Defined Encoder
Selected bitrate : 1024 kBit/s
Quality : High
Add ID3 tag : No
Command line compressor : C:\Program Files\Exact Audio Copy\Flac\flac.exe
Additional command line options : -V -8 -T "Genre=%genre%" -T "Artist=%artist%" -T "Title=%title%" -T "Album=%albumtitle%" -T "Date=%year%" -T "Tracknumber=%tracknr%" -T "Comment=%comment%" %source%


TOC of the extracted CD

Track | Start | Length | Start sector | End sector
––––––––––––––––––––––––––––-
1 | 0:00.32 | 3:49.50 | 32 | 17256
2 | 3:50.07 | 5:06.12 | 17257 | 40218
3 | 8:56.19 | 3:12.03 | 40219 | 54621
4 | 12:08.22 | 4:31.42 | 54622 | 74988
5 | 16:39.64 | 5:36.02 | 74989 | 100190
6 | 22:15.66 | 5:32.31 | 100191 | 125121
7 | 27:48.22 | 3:54.50 | 125122 | 142721
8 | 31:42.72 | 6:04.00 | 142722 | 170021
9 | 37:46.72 | 3:42.43 | 170022 | 186714
10 | 41:29.40 | 3:23.39 | 186715 | 201978
11 | 44:53.04 | 5:33.00 | 201979 | 226953
12 | 50:26.04 | 3:50.23 | 226954 | 244226
13 | 54:16.27 | 5:03.22 | 244227 | 266973
14 | 59:19.49 | 2:56.53 | 266974 | 280226


Range status and errors

Selected range

Filename H:\dafnaplus\Peter Green - The Very Best Of Peter Green\Peter Green - The Very Best Of Peter Green (WB 886002).wav

Peak level 98.3 %
Extraction speed 8.5 X
Range quality 99.9 %
Test CRC 2803DB5A
Copy CRC 2803DB5A
Copy OK

No errors occurred


AccurateRip summary

Track 1 accurately ripped (confidence 1) [1B58745A] (AR v2)
Track 2 accurately ripped (confidence 1) [9D343455] (AR v2)
Track 3 accurately ripped (confidence 1) [9EC4BBC4] (AR v2)
Track 4 accurately ripped (confidence 1) [0BA122AC] (AR v2)
Track 5 accurately ripped (confidence 1) [C6F29CDE] (AR v2)
Track 6 accurately ripped (confidence 1) [5AB0787C] (AR v2)
Track 7 accurately ripped (confidence 1) [05E60348] (AR v2)
Track 8 accurately ripped (confidence 1) [AE988C65] (AR v2)
Track 9 accurately ripped (confidence 1) [9F1C8F05] (AR v2)
Track 10 accurately ripped (confidence 1) [9ECD14FF] (AR v2)
Track 11 accurately ripped (confidence 1) [934E3472] (AR v2)
Track 12 accurately ripped (confidence 1) [3D4225E6] (AR v2)
Track 13 accurately ripped (confidence 1) [71EA9DDB] (AR v2)
Track 14 accurately ripped (confidence 1) [DB82808D] (AR v2)

All tracks accurately ripped

End of status report

–– CUETools DB Plugin V2.1.6

[CTDB TOCID: WCk31TAqzjq2wUNeoMosMaW5IAE-] found
Submit result: already submitted
Track | CTDB Status
1 | (2/2) Accurately ripped
2 | (2/2) Accurately ripped
3 | (2/2) Accurately ripped
4 | (2/2) Accurately ripped
5 | (2/2) Accurately ripped
6 | (2/2) Accurately ripped
7 | (2/2) Accurately ripped
8 | (2/2) Accurately ripped
9 | (2/2) Accurately ripped
10 | (2/2) Accurately ripped
11 | (2/2) Accurately ripped
12 | (2/2) Accurately ripped
13 | (2/2) Accurately ripped
14 | (2/2) Accurately ripped


==== Log checksum E2CE67B32971F793349115C3BE584D1855E057C89F6662446942C45540955B42 ====

foobar2000 1.2.9 / Dynamic Range Meter 1.1.1
log date: 2015-06-01 21:16:24

––––––––––––––––––––––––––––––––––––––––
Analyzed: Peter Green / The Very Best Of Peter Green (WB 886002)
––––––––––––––––––––––––––––––––––––––––

DR Peak RMS Duration Track
––––––––––––––––––––––––––––––––––––––––
DR13 -0.76 dB -17.05 dB 3:50 01-In The Skies
DR15 -0.75 dB -18.51 dB 5:06 02-Slabo Day
DR14 -8.59 dB -27.96 dB 3:12 03-Apostle
DR13 -0.46 dB -16.10 dB 4:32 04-Loser Two Times
DR13 -1.27 dB -16.41 dB 5:36 05- Baby When The Sun Goes Down
DR15 -0.19 dB -18.36 dB 5:32 06-One Woman Love
DR13 -2.07 dB -17.33 dB 3:55 07-Time For Me To Go
DR13 -2.09 dB -19.50 dB 6:04 08-The Clown
DR14 -3.51 dB -20.09 dB 3:43 09-Proud Pinto
DR17 -0.14 dB -19.85 dB 3:24 10-Bullet In The Sky
DR15 -1.37 dB -19.88 dB 5:33 11-Last Train To San Antone
DR14 -5.27 dB -21.50 dB 3:50 12-Watcha Gonna Do
DR13 -5.72 dB -20.22 dB 5:03 13-Woman Don't
DR14 -2.76 dB -20.10 dB 2:57 14-Bandit
––––––––––––––––––––––––––––––––––––––––

Number of tracks: 14
Official DR value: DR14

Samplerate: 44100 Hz
Channels: 2
Bits per sample: 16
Bitrate: 763 kbps
Codec: FLAC

[CUETools log; Date: 01.06.2015 21:10:09; Version: 2.1.4]
Pregap length 00:00:32.
[CTDB TOCID: WCk31TAqzjq2wUNeoMosMaW5IAE-] found.
Track | CTDB Status
1 | (2/2) Accurately ripped
2 | (2/2) Accurately ripped
3 | (2/2) Accurately ripped
4 | (2/2) Accurately ripped
5 | (2/2) Accurately ripped
6 | (2/2) Accurately ripped
7 | (2/2) Accurately ripped
8 | (2/2) Accurately ripped
9 | (2/2) Accurately ripped
10 | (2/2) Accurately ripped
11 | (2/2) Accurately ripped
12 | (2/2) Accurately ripped
13 | (2/2) Accurately ripped
14 | (2/2) Accurately ripped
[AccurateRip ID: 0020891c-015c4bf1-b50e980e] found.
Track [ CRC | V2 ] Status
01 [95dff883|1b58745a] (0+1/1) Accurately ripped
02 [3dbdae10|9d343455] (0+1/1) Accurately ripped
03 [a643f8f2|9ec4bbc4] (0+1/1) Accurately ripped
04 [3d725874|0ba122ac] (0+1/1) Accurately ripped
05 [3f0d01d0|c6f29cde] (0+1/1) Accurately ripped
06 [beb10e47|5ab0787c] (0+1/1) Accurately ripped
07 [e71dee88|05e60348] (0+1/1) Accurately ripped
08 [8b71a008|ae988c65] (0+1/1) Accurately ripped
09 [10c53d8c|9f1c8f05] (0+1/1) Accurately ripped
10 [f8b2a8dc|9ecd14ff] (0+1/1) Accurately ripped
11 [c5ca9506|934e3472] (0+1/1) Accurately ripped
12 [515b4aa8|3d4225e6] (0+1/1) Accurately ripped
13 [ed9d7499|71ea9ddb] (0+1/1) Accurately ripped
14 [7deba89b|db82808d] (0+1/1) Accurately ripped

Track Peak [ CRC32 ] [W/O NULL] [ LOG ]
– 98,3 [2803DB5A] [A2148E65] CRC32
01 91,6 [B13BE57A] [93D4BCAA]
02 91,7 [63E17AD4] [928F2BE5]
03 37,2 [3F4C213F] [F3B6FBE1]
04 94,8 [EEF2C09D] [8BD40234]
05 86,4 [1E19A81F] [C5792F93]
06 97,8 [9FAA1C60] [D345B174]
07 78,7 [29C67A84] [0E989454]
08 78,6 [B591F68D] [EDB7FFDB]
09 66,7 [CC848811] [B445CE42]
10 98,3 [9CCB525D] [574ECB0B]
11 85,4 [9A6839B1] [71604482]
12 54,5 [C1BC5D42] [110A93F1]
13 51,7 [1F209A5F] [11F92D9A]
14 72,8 [C470CAEB] [4C53205C]

Peter Green  - The Very Best Of  Peter Green (1998)

All thanks go to dafnaplus

More Peter Green in my Blog

Download Peter Green - The Very Best Of Peter Green (1998):