Subcategories

Petra - Washes Whiter Than (1979) & Never Say Die (1981) [Reissue 1988]

Posted By: gribovar
Petra - Washes Whiter Than (1979) & Never Say Die (1981) [Reissue 1988]

Petra - Washes Whiter Than (1979) & Never Say Die (1981) [Reissue 1988]
EAC Rip | FLAC (image+.cue+log) - 455 MB | MP3 CBR 320 kbps (LAME 3.93) - 184 MB | Covers (15 MB) included
Genre: Pop Rock, Hard Rock, Christian Rock | RAR 3% Rec. | Label: Star Song (SSD 8016)

Petra is one of the most successful Christian rock bands ever, a veritable institution whose name (taken from the Greek word for "rock") has come to reflect not only their music, but their staying power as well, even in spite of Christian radio's reluctance to program their brand of loud, slick arena rock.
"Washes Whiter Than" (1979) is the earlier of this two albums and it shows. There are glimpses of the changes to come. The album varies from ballads to funk to jazz and rock with the gospel message. "Never Say Die" (1981) is the start of the "classic" era of Petra with their more straight ahead rock. From the opening crooner "The Coloring Song" we move into some classic Petra rock with "Chameleon". The album could be described as easy listening rock and finishes with the worship anthem "Praise Ye The Lord".
Tracklist:

Washes Whiter Than (1979):
01. I'm Thankful
02. Why Should the Father Bother?
03. Morning Star
04. Magic Mirror
05. Mary's Song
06. Yahweh Love
07. Taste and See
08. Deep Love

Never Say Die (1981):
09. The Coloring Song
10. Chameleon
11. Angel of Light
12. Killing My Old Man
13. Without Him We Can Do Nothing
14. Never Say Die
15. I Can be Friends With You
16. For Annie
17. Father of Lights
18. Praise Ye the Lord

Total time: 01:11:35

Exact Audio Copy V1.0 beta 3 from 29. August 2011

EAC extraction logfile from 1. May 2014, 22:02

Petra / Washes Whiter Than - Never Say Die

Used drive : SlimtypeDVD A DS8A5SH Adapter: 0 ID: 1

Read mode : Secure
Utilize accurate stream : Yes
Defeat audio cache : Yes
Make use of C2 pointers : No

Read offset correction : 6
Overread into Lead-In and Lead-Out : No
Fill up missing offset samples with silence : Yes
Delete leading and trailing silent blocks : No
Null samples used in CRC calculations : Yes
Used interface : Native Win32 interface for Win NT & 2000

Used output format : User Defined Encoder
Selected bitrate : 320 kBit/s
Quality : High
Add ID3 tag : No
Command line compressor : C:\Program Files (x86)\Exact Audio Copy\Flac\flac.exe
Additional command line options : -V -8 -T "Date=%year%" -T "Genre=%genre%" %source%


TOC of the extracted CD

Track | Start | Length | Start sector | End sector
––––––––––––––––––––––––––––-
1 | 0:00.00 | 2:53.45 | 0 | 13019
2 | 2:53.45 | 3:51.30 | 13020 | 30374
3 | 6:45.00 | 4:52.12 | 30375 | 52286
4 | 11:37.12 | 3:35.55 | 52287 | 68466
5 | 15:12.67 | 4:02.20 | 68467 | 86636
6 | 19:15.12 | 5:41.33 | 86637 | 112244
7 | 24:56.45 | 3:27.57 | 112245 | 127826
8 | 28:24.27 | 3:59.48 | 127827 | 145799
9 | 32:24.00 | 2:55.12 | 145800 | 158936
10 | 35:19.12 | 5:49.43 | 158937 | 185154
11 | 41:08.55 | 4:22.02 | 185155 | 204806
12 | 45:30.57 | 3:48.10 | 204807 | 221916
13 | 49:18.67 | 3:29.40 | 221917 | 237631
14 | 52:48.32 | 3:43.10 | 237632 | 254366
15 | 56:31.42 | 4:14.18 | 254367 | 273434
16 | 60:45.60 | 4:26.15 | 273435 | 293399
17 | 65:12.00 | 3:04.07 | 293400 | 307206
18 | 68:16.07 | 3:18.58 | 307207 | 322114


Range status and errors

Selected range

Filename D:\My Music\Petra - 1979 Washes Whiter Than - 1981 Never Say Die\Petra - Washes Whiter Than - Never Say Die.wav

Peak level 100.0 %
Extraction speed 5.1 X
Range quality 100.0 %
Test CRC A2BC2420
Copy CRC A2BC2420
Copy OK

No errors occurred


AccurateRip summary

Track 1 accurately ripped (confidence 4) [7377A781] (AR v2)
Track 2 accurately ripped (confidence 4) [0BB454FB] (AR v2)
Track 3 accurately ripped (confidence 4) [E8151F67] (AR v2)
Track 4 accurately ripped (confidence 4) [EAA6DF23] (AR v2)
Track 5 accurately ripped (confidence 4) [EE7E000E] (AR v2)
Track 6 accurately ripped (confidence 4) [717D3E1E] (AR v2)
Track 7 accurately ripped (confidence 4) [CC2282DD] (AR v2)
Track 8 accurately ripped (confidence 4) [ADD37BC5] (AR v2)
Track 9 accurately ripped (confidence 4) [2CEEBF05] (AR v2)
Track 10 accurately ripped (confidence 4) [44DB92D0] (AR v2)
Track 11 accurately ripped (confidence 4) [9F4A091F] (AR v2)
Track 12 accurately ripped (confidence 4) [21B9E94C] (AR v2)
Track 13 accurately ripped (confidence 4) [3B3B774E] (AR v2)
Track 14 accurately ripped (confidence 4) [4F6F5FC4] (AR v2)
Track 15 accurately ripped (confidence 4) [673FAA77] (AR v2)
Track 16 accurately ripped (confidence 4) [11930DAE] (AR v2)
Track 17 accurately ripped (confidence 4) [99F9F749] (AR v2)
Track 18 cannot be verified as accurate (confidence 5) [9DB61FB0], AccurateRip returned [1D11B73B] (AR v2)

17 трек(и) скопированы точно
1 трек(и) не удалось проверить на точность

Some tracks could not be verified as accurate

End of status report

==== Log checksum 26959B50966610B2615524156961BF9A67508FF484F410722D672260DC72DA36 ====

[CUETools log; Date: 07.04.2020 22:52:49; Version: 2.1.4]
[CTDB TOCID: HqTPFPltaeGcCUtQx8BFxo4jXIM-] found.
Track | CTDB Status
1 | (7/9) Accurately ripped
2 | (8/9) Accurately ripped
3 | (8/9) Accurately ripped
4 | (8/9) Accurately ripped
5 | (9/9) Accurately ripped
6 | (9/9) Accurately ripped
7 | (9/9) Accurately ripped
8 | (9/9) Accurately ripped
9 | (9/9) Accurately ripped
10 | (9/9) Accurately ripped
11 | (9/9) Accurately ripped
12 | (9/9) Accurately ripped
13 | (9/9) Accurately ripped
14 | (9/9) Accurately ripped
15 | (8/9) Accurately ripped
16 | (8/9) Accurately ripped
17 | (8/9) Accurately ripped
18 | (0/9) No match
[AccurateRip ID: 002f3c4e-02783682-1010c612] found.
Track [ CRC | V2 ] Status
01 [8ec3e2f8|7377a781] (05+08/16) Accurately ripped
02 [7c0a3cb1|0bb454fb] (05+08/16) Accurately ripped
03 [78908ea3|e8151f67] (05+08/16) Accurately ripped
04 [836925d8|eaa6df23] (05+08/16) Accurately ripped
05 [3714c8b9|ee7e000e] (05+08/16) Accurately ripped
06 [1f8b39d6|717d3e1e] (05+08/16) Accurately ripped
07 [68347353|cc2282dd] (05+08/16) Accurately ripped
08 [74108f39|add37bc5] (05+08/16) Accurately ripped
09 [17c5b0bf|2ceebf05] (05+08/16) Accurately ripped
10 [95ec1cd7|44db92d0] (05+08/16) Accurately ripped
11 [d14451d8|9f4a091f] (05+08/16) Accurately ripped
12 [3c238be9|21b9e94c] (05+08/16) Accurately ripped
13 [bdaaa2ec|3b3b774e] (05+08/16) Accurately ripped
14 [50f554af|4f6f5fc4] (05+08/16) Accurately ripped
15 [66345da4|673faa77] (05+08/16) Accurately ripped
16 [6d3a1270|11930dae] (05+08/16) Accurately ripped
17 [27dfa283|99f9f749] (05+08/16) Accurately ripped
18 [38f0cb99|9db61fb0] (00+00/16) No match
Offsetted by -664:
01 [89c15600] (00/16) No match (V2 was not tested)
02 [abb42aa1] (00/16) No match (V2 was not tested)
03 [47a0d1eb] (00/16) No match (V2 was not tested)
04 [c6203770] (00/16) No match (V2 was not tested)
05 [3ba6d4f1] (00/16) No match (V2 was not tested)
06 [0595c8c6] (00/16) No match (V2 was not tested)
07 [609b3303] (00/16) No match (V2 was not tested)
08 [012d6789] (00/16) No match (V2 was not tested)
09 [12703b67] (00/16) No match (V2 was not tested)
10 [6a7cc37f] (00/16) No match (V2 was not tested)
11 [1eb8cc78] (00/16) No match (V2 was not tested)
12 [8eba28a9] (00/16) No match (V2 was not tested)
13 [f6618abc] (00/16) No match (V2 was not tested)
14 [c88af9ef] (00/16) No match (V2 was not tested)
15 [763eb22c] (00/16) No match (V2 was not tested)
16 [16660410] (00/16) No match (V2 was not tested)
17 [fd4d7fdb] (00/16) No match (V2 was not tested)
18 [0edaa662] (00/16) No match (V2 was not tested)

Track Peak [ CRC32 ] [W/O NULL] [ LOG ]
– 100,0 [A2BC2420] [4398E401] CRC32
01 99,7 [AF76B031] [0569088C]
02 87,7 [9EA35494] [1C8B5188]
03 98,8 [3F4AE880] [C26AF778]
04 100,0 [71DAE0DC] [61D3771E]
05 74,7 [9BE62FDD] [42B4A5B5]
06 92,0 [14C5217F] [43B313D9]
07 94,7 [A7D9094E] [EBA5AEB2]
08 91,6 [1B4E6BE4] [1A94DCE8]
09 61,7 [8255767A] [7AB5EC15]
10 98,8 [33549836] [AF73CDF1]
11 100,0 [111D86EE] [31877035]
12 78,1 [DF477C6D] [CE4397C2]
13 84,9 [29E72E19] [5B4358FA]
14 97,2 [BA51A786] [D2695B4F]
15 95,4 [F1936B88] [B86ED92F]
16 68,4 [3E43EA57] [CC35118D]
17 85,0 [79D01BCC] [E73DDE3F]
18 95,2 [88CAD8F4] [FB0CB59F]

Thanks to kolushew

See also:
Petra - Come And Join Us (1977) [Reissue 1995]