Subcategories

Phil Keaggy - Phil Keaggy And Sunday's Child (1988)

Posted By: Andi_Deris
Phil Keaggy - Phil Keaggy And Sunday's Child (1988)

Phil Keaggy - Phil Keaggy And Sunday's Child (1988)
EAC Rip | FLAC: Tracks+Cue+Log | 404 Mb | MP3 CBR 320 kbps | 142 Mb | Scans | 72 Mb | Time: 52:48
Myrrh | 7016876616
Pop Rock, Contemporary Christian, Guitar Virtuoso

Phil Keaggy and Sunday's Child is the title of a 1988 album by guitarist Phil Keaggy, released on Myrrh Records and A&M Records simultaneously. The record, which includes an all-star list of guest musicians and vocalists, is in many ways a tribute to 1960s pop/rock music like The Byrds, The Beatles, and others.

Phil Keaggy - Phil Keaggy And Sunday's Child (1988)




Track Listing

01. Tell Me How You Feel (03:22)
02. Sunday's Child (04:00)
03. I Always Do (04:53)
04. I'm Gonna Get You Now (03:49)
05. Blessed Be The Ties (04:04)
06. This Could Be The Moment (03:52)
07. Ain't Got No (03:32)
08. Somebody Loves You (04:08)
09. Big Eraser (04:36)
10. Everything Is Alright (04:19)
11. I've Just Begun (Again) (03:42)
12. Walk In Two Worlds (03:41)
13. Talk About Suffering (04:51)

Produced by L. Arthur Nichols

Personnel

• Phil Keaggy: lead vocals, guitars and bass guitars
• Robbie Buchanan: Hammond B3 organ
• Lenny Castro: percussion
• Rick Cua: bass guitars
• Derri Daugherty: backing vocals
• Mark Heard: guitars, keyboards and backing vocals
• James Hollihan: guitars
• Mike Mead: drums
• Lynn Nichols: backing vocals and guitars
• Jimmie Lee Sloas: backing vocals
• Randy Stonehill: vocals
• Russ Taff: backing vocals
• Steve Taylor: "hand claps"
• Alwyn Wall: backing vocals
• Rudy Valentine: megaphone

Notes

Constantly compared to Paul McCartney during his career, why not just do a Beatles album?

What was actually supposed to be a possible semi-regular group, Phil Keaggy & Sunday’s Child only ever released this one album. But what an album they created! Making up the rest of “Sunday’s Child” are Rick Cua on bass, Mike Mead on drums and Lynn Nichols on guitar and vocals. It also may go down in CCM history as the single nicest group of musicians to record a record together.

The album kicks off with the mid-tempo rocker, “Tell Me How You Feel”. This tone setter reveals what will follow with the head side bopping beat and Keaggy’s higher end vocals at times reminiscent of McCartney with abandon. But there is also a clear nod to the Byrds here and throughout.


Exact Audio Copy V0.99 prebeta 5 from 4. May 2009

EAC extraction logfile from 25. February 2011, 10:48

Phil Keaggy and Sunday's Child / Sunday's Child (US Myrrh 7016876616)

Used drive : ATAPI DVD D DH16D2S Adapter: 3 ID: 0

Read mode : Secure
Utilize accurate stream : Yes
Defeat audio cache : Yes
Make use of C2 pointers : No

Read offset correction : 6
Overread into Lead-In and Lead-Out : No
Fill up missing offset samples with silence : Yes
Delete leading and trailing silent blocks : No
Null samples used in CRC calculations : Yes
Used interface : Native Win32 interface for Win NT & 2000
Gap handling : Appended to previous track

Used output format : User Defined Encoder
Selected bitrate : 1024 kBit/s
Quality : High
Add ID3 tag : No
Command line compressor : C:\Program Files\Exact Audio Copy\FLAC\FLAC.EXE
Additional command line options : -8 -V -T "ARTIST=%a" -T "TITLE=%t" -T "ALBUM=%g" -T "DATE=%y" -T "TRACKNUMBER=%n" -T "GENRE=%m" -T "COMMENT=%e" %s -o %d


TOC of the extracted CD

Track | Start | Length | Start sector | End sector
––––––––––––––––––––––––––––-
1 | 0:00.00 | 3:22.10 | 0 | 15159
2 | 3:22.10 | 4:00.17 | 15160 | 33176
3 | 7:22.27 | 4:52.35 | 33177 | 55111
4 | 12:14.62 | 3:49.00 | 55112 | 72286
5 | 16:03.62 | 4:03.40 | 72287 | 90551
6 | 20:07.27 | 3:51.65 | 90552 | 107941
7 | 23:59.17 | 3:31.68 | 107942 | 123834
8 | 27:31.10 | 4:08.10 | 123835 | 142444
9 | 31:39.20 | 4:35.32 | 142445 | 163101
10 | 36:14.52 | 4:18.50 | 163102 | 182501
11 | 40:33.27 | 3:41.58 | 182502 | 199134
12 | 44:15.10 | 3:40.72 | 199135 | 215706
13 | 47:56.07 | 4:50.58 | 215707 | 237514


Track 1

Filename D:\Y\y\01 Sunday's Child.wav

Pre-gap length 0:00:02.00

Peak level 78.6 %
Track quality 100.0 %
Test CRC 2CB205FC
Copy CRC 2CB205FC
Copy OK

Track 2

Filename D:\Y\y\02 Blessed Be The Ties.wav

Pre-gap length 0:00:00.48

Peak level 86.8 %
Track quality 100.0 %
Test CRC 79B178E9
Copy CRC 79B178E9
Copy OK

Track 3

Filename D:\Y\y\03 Tell Me How You Feel.wav

Pre-gap length 0:00:02.41

Peak level 78.3 %
Track quality 100.0 %
Test CRC D8127929
Copy CRC D8127929
Copy OK

Track 4

Filename D:\Y\y\04 Talk About Suffering.wav

Pre-gap length 0:00:03.10

Peak level 72.5 %
Track quality 100.0 %
Test CRC 0C1E2C31
Copy CRC 0C1E2C31
Copy OK

Track 5

Filename D:\Y\y\05 I Always Do.wav

Pre-gap length 0:00:01.67

Peak level 91.4 %
Track quality 100.0 %
Test CRC 9B5B13C3
Copy CRC 9B5B13C3
Copy OK

Track 6

Filename D:\Y\y\06 Somebody Loves You.wav

Pre-gap length 0:00:04.12

Peak level 79.0 %
Track quality 100.0 %
Test CRC 11C16A44
Copy CRC 11C16A44
Copy OK

Track 7

Filename D:\Y\y\07 Walk In Two Worlds.wav

Pre-gap length 0:00:03.02

Peak level 81.3 %
Track quality 100.0 %
Test CRC 32E71A77
Copy CRC 32E71A77
Copy OK

Track 8

Filename D:\Y\y\08 Ain't Got No.wav

Pre-gap length 0:00:03.30

Peak level 91.8 %
Track quality 100.0 %
Test CRC A6BA99D7
Copy CRC A6BA99D7
Copy OK

Track 9

Filename D:\Y\y\09 This Could Be Moment.wav

Pre-gap length 0:00:02.08

Peak level 97.7 %
Track quality 100.0 %
Test CRC 2C23C389
Copy CRC 2C23C389
Copy OK

Track 10

Filename D:\Y\y\10 I've Just Begun (Again).wav

Pre-gap length 0:00:02.15

Peak level 97.6 %
Track quality 99.9 %
Test CRC 94C6DD0B
Copy CRC 94C6DD0B
Copy OK

Track 11

Filename D:\Y\y\11 Big Eraser.wav

Pre-gap length 0:00:00.05

Peak level 85.6 %
Track quality 100.0 %
Test CRC E9C4BCEF
Copy CRC E9C4BCEF
Copy OK

Track 12

Filename D:\Y\y\12 I'm Gonna Get You Now.wav

Pre-gap length 0:00:01.48

Peak level 97.7 %
Track quality 100.0 %
Test CRC 690A63B7
Copy CRC 690A63B7
Copy OK

Track 13

Filename D:\Y\y\13 Everything Is Alright.wav

Pre-gap length 0:00:03.47

Peak level 68.5 %
Track quality 100.0 %
Test CRC BAF10A4F
Copy CRC BAF10A4F
Copy OK

No errors occurred

End of status report


Many thanks to the original uploader: neytiri_navi



Glass Harp 1970 Glass Harp [Remastered, 2005]
Glass Harp 1971 Synergy [Remastered, 2005]
Glass Harp 1972 It Makes Me Glad [Remastered, 2005]
Glass Harp 1997 Live! At Carnegie Hall
Glass Harp 2001 Strings Attached [Live] 2CD
Glass Harp 2003 Hourglass
Glass Harp 2004 Stark Raving Jams [Live] 3CD
Glass Harp 2010 Live At The Beachland Ballroom 11.01.08

Greg X. Volz 1986 The River Is Rising
Greg X. Volz 1988 Come Out Fighting
Greg X. Volz 1989 No Room In The Middle
Greg X. Volz 1991 The Exodus

Halo 1990 Halo / 1991 Heaven Calling

John Elefante - Discography (1995-2013)

John Schlitt 1995 Shake
John Schlitt 2012 The Greater Cause

Mastedon - Discography (1989-2009)

Petra 1974 Petra [Reissue 1992]
Petra 1977 Come And Join Us [Reissue 1995]
Petra 1979 Washes Whiter Than / 1981 Never Say Die [Reissue 1988]
Petra 1982 More Power To Ya
Petra 1983 Not Of This World
Petra 1984 Beat The System
Petra 1986 Captured In Time And Space (Live)
Petra 1986 Captured In Time And Space (Live) [DVD]
Petra 1986 Back To The Street
Petra 1987 This Means War!
Petra 1988 On Fire!
Petra 1989 Petra Means Rock [Compilation]
Petra 1989 Petra Praise… The Rock Cries Out
Petra 1990 Beyond Belief
Petra 1990 Beyond Belief [DVD]
Petra 1991 Unseen Power
Petra 1993 Wake-Up Call
Petra 1995 No Doubt
Petra 1997 Petra Praise 2: We Need Jesus
Petra 1998 God Fixation
Petra 2000 Double Take
Petra 2001 Revival
Petra 2003 Jekyll & Hyde
Petra 2003 The Power Of Praise [Compilation]
Petra 2006 Farewell [DVD]
II Guys From Petra 2007 Vertical Expressions
Classic Petra 2010 Back To The Rock

V.A. 1996 Never Say Dinosaur - Tribute To Petra




Password: pass