Subcategories

Phil Perry - One Heart One Love (1998)

Posted By: v3122
Phil Perry - One Heart One Love (1998)

Phil Perry - One Heart One Love (1998)
EAC | Flac(Image) + Cue + Log & MP3 CBR 320Kbps
Private Music, 01005-82163-2 | ~ 326 or 114 Mb | Artwork(jpg) -> 30 Mb
Neo Soul, Soul, Soul-Jazz

"I've worked hard all day," the fifth song opines, "I just wanna relax/Take my shoes off–kick my feet up/Put on an old Marvin Gaye track…" A unwise antecedent to invoke, for over the course of ten pleasantly Peabo'd urban soul slices, Mr. Perry shoots to the vocal stratosphere from his own backyard armed with one neat trick – the women singers who tag-grab his glissandos like stage-two rockets after he falls away from them – for an apogee, of, perhaps, the shoulder blade of the supine mountain range that is Marvin. Marvin will never move again. Marvin can not hold Mr. Perry in the hollow of his hand.

by Andrew Hamlin, allmusic
Phil Perry - One Heart One Love (1998):

Phil Perry - One Heart One Love (1998)

Tracklist:

01. I'm Sorry (4:56)
02. We Belong Together (4:15)
03. Do What Comes Natural (5:04)
04. Pretty Lady (5:41)
05. Do Not Disturb (4:46)
06. One Heart One Love (4:18)
07. Mind Blowah (4:30)
08. Hold On with Your Heart (4:12)
09. Born to Love You (4:36)
10. Let's Stay Together (6:06)

Exact Audio Copy V1.1 from 23. June 2015

EAC extraction logfile from 4. February 2019, 22:05

Phil Perry / One Heart, One Love

Used drive : ASUS DRW-24D5MT Adapter: 1 ID: 0

Read mode : Secure
Utilize accurate stream : Yes
Defeat audio cache : Yes
Make use of C2 pointers : No

Read offset correction : 6
Overread into Lead-In and Lead-Out : No
Fill up missing offset samples with silence : Yes
Delete leading and trailing silent blocks : No
Null samples used in CRC calculations : Yes
Used interface : Native Win32 interface for Win NT & 2000
Gap handling : Appended to previous track

Used output format : User Defined Encoder
Selected bitrate : 768 kBit/s
Quality : High
Add ID3 tag : No
Command line compressor : F:\Программы\Exact Audio Copy\FLAC\FLAC.EXE
Additional command line options : -8 -V -T "ARTIST=%artist%" -T "TITLE=%title%" -T "ALBUM=%albumtitle%" -T "DATE=%year%" -T "TRACKNUMBER=%tracknr%" -T "GENRE=%genre%" -T "COMMENT=Ripped by grandsrt8" %source%


TOC of the extracted CD

Track | Start | Length | Start sector | End sector
––––––––––––––––––––––––––––-
1 | 0:00.00 | 4:56.07 | 0 | 22206
2 | 4:56.07 | 4:15.13 | 22207 | 41344
3 | 9:11.20 | 5:03.60 | 41345 | 64129
4 | 14:15.05 | 5:41.37 | 64130 | 89741
5 | 19:56.42 | 4:45.48 | 89742 | 111164
6 | 24:42.15 | 4:18.30 | 111165 | 130544
7 | 29:00.45 | 4:30.37 | 130545 | 150831
8 | 33:31.07 | 4:11.40 | 150832 | 169696
9 | 37:42.47 | 4:36.13 | 169697 | 190409
10 | 42:18.60 | 6:06.12 | 190410 | 217871


Track 1

Filename F:\Rips grandsrt8\01 I'm Sorry.wav

Pre-gap length 0:00:02.00

Peak level 93.2 %
Extraction speed 1.0 X
Track quality 100.0 %
Test CRC CE3693E7
Copy CRC CE3693E7
Accurately ripped (confidence 15) [66457178] (AR v2)
Copy OK

Track 2

Filename F:\Rips grandsrt8\02 We Belong Together.wav

Peak level 98.5 %
Extraction speed 1.2 X
Track quality 100.0 %
Test CRC 22338E39
Copy CRC 22338E39
Accurately ripped (confidence 15) [1F31DDCF] (AR v2)
Copy OK

Track 3

Filename F:\Rips grandsrt8\03 Do What Comes Natural.wav

Peak level 99.7 %
Extraction speed 1.2 X
Track quality 99.9 %
Test CRC 46EA24C6
Copy CRC 46EA24C6
Accurately ripped (confidence 15) [AA730FEE] (AR v2)
Copy OK

Track 4

Filename F:\Rips grandsrt8\04 Pretty Lady.wav

Peak level 94.2 %
Extraction speed 1.4 X
Track quality 100.0 %
Test CRC 6D00CC17
Copy CRC 6D00CC17
Accurately ripped (confidence 15) [0C1636D9] (AR v2)
Copy OK

Track 5

Filename F:\Rips grandsrt8\05 Do Not Disturb.wav

Pre-gap length 0:00:16.25

Peak level 100.0 %
Extraction speed 1.5 X
Track quality 100.0 %
Test CRC 6B9627C7
Copy CRC 6B9627C7
Accurately ripped (confidence 15) [129DE459] (AR v2)
Copy OK

Track 6

Filename F:\Rips grandsrt8\06 One Heart One Love.wav

Peak level 93.1 %
Extraction speed 1.6 X
Track quality 100.0 %
Test CRC 8890F408
Copy CRC 8890F408
Accurately ripped (confidence 15) [1A2D836E] (AR v2)
Copy OK

Track 7

Filename F:\Rips grandsrt8\07 Mind Blowah.wav

Peak level 92.5 %
Extraction speed 1.7 X
Track quality 100.0 %
Test CRC 3F720EDB
Copy CRC 3F720EDB
Accurately ripped (confidence 15) [F29534FD] (AR v2)
Copy OK

Track 8

Filename F:\Rips grandsrt8\08 Hold On With Your Heart.wav

Peak level 93.4 %
Extraction speed 1.8 X
Track quality 100.0 %
Test CRC 3DEFA6FB
Copy CRC 3DEFA6FB
Accurately ripped (confidence 15) [17717FCF] (AR v2)
Copy OK

Track 9

Filename F:\Rips grandsrt8\09 Born To Love You.wav

Peak level 93.6 %
Extraction speed 1.9 X
Track quality 100.0 %
Test CRC F4F69C95
Copy CRC F4F69C95
Accurately ripped (confidence 15) [624DFD72] (AR v2)
Copy OK

Track 10

Filename F:\Rips grandsrt8\10 Let's Stay Together.wav

Pre-gap length 0:00:01.35

Peak level 93.9 %
Extraction speed 1.8 X
Track quality 99.9 %
Test CRC D914581E
Copy CRC D914581E
Accurately ripped (confidence 15) [4A30354C] (AR v2)
Copy OK


All tracks accurately ripped

No errors occurred

End of status report

–– CUETools DB Plugin V2.1.6

[CTDB TOCID: 7istKI3wb04XlDDcKs1gGgIgNqs-] found
Submit result: 7istKI3wb04XlDDcKs1gGgIgNqs- has been confirmed
Track | CTDB Status
1 | (20/20) Accurately ripped
2 | (20/20) Accurately ripped
3 | (20/20) Accurately ripped
4 | (20/20) Accurately ripped
5 | (20/20) Accurately ripped
6 | (20/20) Accurately ripped
7 | (20/20) Accurately ripped
8 | (20/20) Accurately ripped
9 | (20/20) Accurately ripped
10 | (20/20) Accurately ripped


==== Log checksum 6A20209D8E018E0E940714F1DED70E259DEA96FC44DE57544867C6F462DEDEAF ====


[CUETools log; Date: 12.02.2019 6:06:13; Version: 2.1.4]
[AccurateRip ID: 00122069-0090cad2-870b580a] found.
Track [ CRC | V2 ] Status
01 [68d259b7|66457178] (03+15/18) Accurately ripped
02 [f6a700da|1f31ddcf] (03+15/18) Accurately ripped
03 [6a8cf862|aa730fee] (03+15/18) Accurately ripped
04 [4f8bc1ca|0c1636d9] (03+15/18) Accurately ripped
05 [01044591|129de459] (03+15/18) Accurately ripped
06 [de3f2e92|1a2d836e] (03+15/18) Accurately ripped
07 [5b6f83ec|f29534fd] (03+15/18) Accurately ripped
08 [8e85a012|17717fcf] (03+15/18) Accurately ripped
09 [c9e605b2|624dfd72] (03+15/18) Accurately ripped
10 [f47d8b8b|4a30354c] (03+15/18) Accurately ripped
Offsetted by 595:
01 [949969e3] (00/18) No match (V2 was not tested)
02 [a9a1dc7c] (00/18) No match (V2 was not tested)
03 [52bbd513] (00/18) No match (V2 was not tested)
04 [81311bcc] (00/18) No match (V2 was not tested)
05 [96c3989a] (00/18) No match (V2 was not tested)
06 [fa0f624e] (00/18) No match (V2 was not tested)
07 [81b58f25] (00/18) No match (V2 was not tested)
08 [6b9b6e2e] (00/18) No match (V2 was not tested)
09 [63b4f5e0] (00/18) No match (V2 was not tested)
10 [3bb0ca43] (00/18) No match (V2 was not tested)

Track Peak [ CRC32 ] [W/O NULL] [ LOG ]
– 100,0 [246004D3] [A1AC6BFC]
01 93,2 [CE3693E7] [8D2590E3] CRC32
02 98,5 [22338E39] [FE06BA04] CRC32
03 99,7 [46EA24C6] [4399B5E0] CRC32
04 94,2 [6D00CC17] [E2A628C3] CRC32
05 100,0 [6B9627C7] [C0FB366D] CRC32
06 93,1 [8890F408] [48205256] CRC32
07 92,5 [3F720EDB] [1051ECAD] CRC32
08 93,4 [3DEFA6FB] [FB209C05] CRC32
09 93,6 [F4F69C95] [F3208519] CRC32
10 93,9 [D914581E] [B186FF87] CRC32


Phil Perry - One Heart One Love (1998)

All thanks go to grandsrt8

Download Phil Perry - One Heart One Love (1998):