Subcategories

Philharmonischer Chor München, Philharmonie Festiva, Gerd Schaller - Bruckner: Mass 3, Psalm 146, Organ Works (2016)

Posted By: tirexiss
Philharmonischer Chor München, Philharmonie Festiva, Gerd Schaller - Bruckner: Mass 3, Psalm 146, Organ Works (2016)

Philharmonischer Chor München, Philharmonie Festiva, Gerd Schaller - Bruckner: Mass 3, Psalm 146, Organ Works (2016)
EAC | FLAC (image+.cue, log) | Covers Included | 01:57:09 | 575 MB
Genre: Classical, Choral | Label: Profil Edition | Catalog: PH16034

Recordings of Bruckner’s last and greatest Mass are not exactly scarce but this most recent live performance from the celebrated Ebrach festival has claim to being regarded as special, not just for its own considerable merits, but also as it is presented by Profil in a double CD package in tandem with the barely known Psalm 146 and the further bonus of conductor-musicologist and performer Gerd Schaller playing six works on the Eisenbarth organ in the Abteikirche.
The first great merit here is the sound quality: there is an angelic aureola of warmth about it, excellent balance between the mighty forces deployed, tremendous dynamic range and no loss of detail despite the reverberance of the venue. None of the comparable recordings from Jochum, Barenboim and Celibidache can compete for recorded sound: Jochum’s is over fifty years old and fine for its era but decidedly wiry to modern ears; Celibidache’s live recording, although digital, is marred by audience coughing – whereas there is barely a sound here.
Barenboim’s soloists are excellent, but the performance as a whole comes across as rather stolid and plodding; he does not in general achieve the kind of nobility and impact we hear in excelsis from Schaller here. Celibidache’s tempi could of course have seemed lugubrious had he not been able to infuse proceedings with such grandeur and especially fine here is the ethereal Margaret Price. Jochum has perhaps the best soloists of all, but Schaller’s, too, are first class, even though I would have preferred a more robust, pharyngeal tenor rather than Clemens Bieber, who sings feelingly but whose tone can sometimes whine and sound a little windy; Haefliger for Jochum brings more resonance to his sound in the “Credo”. Soprano Ania Vegry is rather more febrile than Price and infuses her every utterance with great emotion. Both the alto and bass are admirable in the strength, depth and steadiness of their singing.
The highlights for me, however, are in the singing of the Philharmonischer Chor at key points such as the impassioned and monumental opening “Kyrie”, which emerges as a genuinely supplicatory in its plea for mercy, and the truly thrilling “Et resurrexit”, central, in every sense of the word, to the Mass. All the performers here seem inspired and galvanised by the occasion, such that at times they are almost too demonstrative, but that involvement underlines the truly dramatic nature of the Catholic liturgy and its emphasis upon salvation . One thinks here of the argument surrounding how visceral and “operatic” Verdi’s Requiem should sound but certainly Bruckner seems here to be embracing the same sense of the dramatic that we hear in the liturgical works of predecessors such as Beethoven’s “Missa solemnis” and Berlioz’ “Requiem and “Te Deum” – works with which Bruckner was familiar.
The “Credo” assumes the sonic landscape characteristic of a battlefield, the choir’s war-cries of “Credo” punctuating the restless, scurrying semiquavers of the underlying instrumental figures; this is Bruckner at his most stirring. Despite the pitiless demands he makes upon his performers in sustained fortissimo passages, there are also moments of repose and tranquillity to be savoured, and I concede all credit to the choir and orchestra that they are able to ratchet down the tension in order to embrace the tenderness of the “Benedictus”; both the singing and instrumental playing display enormous flexibility and virtuosity.
In terms of mere timings, just as he does when performing Bruckner’s symphonies, Schaller finds the juste milieu between others’ extremes. Barenboim and Jochum are more sprightly at 58 minutes and as such not as imposing; Celibidache, at 77 minutes, is to some ears excessively languorous. In my judgement, Schaller finds just the right balance at one hour precisely, conjuring huge weight without undue ponderousness.
The Psalm is a decided rarity. Were it not for the fact that we have Bruckner’s manuscript score, published as recently as 1996, I would defy anyone without foreknowledge of its composer to ascribe it correctly, it is so wholly uncharacteristic of his oeuvre. Indeed, it positively reeks of Mendelssohn’s oratorios at their most blithely insouciant.
Once again, the choral singing is the glory of this piece; the choir’s energy and conviction ensure that instead of regretting the absence of Brucknerian numinosity, the listener revels in the sheer exuberance of the melodies and comforting, richly Romantic harmonies, yet the rhythmic vitality of the counterpoint in the double chorus “Gross ist unser Herr” confirms that the baroque world of Handel and Bach is never far away. Soprano Ania Vegry has a vibrant, sometimes almost over-bright tone and handles the frequent melismata in her music with aplomb. She is well matched in the “Arioso” by Franziska Gottwald’s warm alto, with delightful individual contributions from solo flute, oboe and violin. Especially uplifting is the fugal “Alleluia” concluding the work, introduced by a splendid brass fanfare and extending over nine minutes to provide a spectacularly confident testament to the fruits of Bruckner’s formal studies with Sechter.
The programme is completed by a recital from Gerd Schaller demonstrating Bruckner’s famed improvisatory powers as an organist and his command of fugal form. This is probably music appealing to a more specialised taste than that of the average Bruckner aficionado but Schaller expertly and sensitively exploits the extraordinary range of stops of the mighty Ebrach organ to suit the varying demands of the six pieces here. – Ralph Moore

Philharmonischer Chor München, Philharmonie Festiva, Gerd Schaller - Bruckner: Mass 3, Psalm 146, Organ Works (2016)

Track List:

CD 1:
[1]-[6] Mass No.3 in F minor
for soloists, chorus and orchestra

Exact Audio Copy V1.1 from 23. June 2015

EAC extraction logfile from 16. November 2016, 1:07

Philharmonischer Chor München, Philharmonie Festiva, Gerd Schaller / Bruckner - Mass No.3

Used drive : HL-DT-STDVDRAM GU70N Adapter: 1 ID: 0

Read mode : Secure
Utilize accurate stream : Yes
Defeat audio cache : Yes
Make use of C2 pointers : No

Read offset correction : 48
Overread into Lead-In and Lead-Out : No
Fill up missing offset samples with silence : Yes
Delete leading and trailing silent blocks : No
Null samples used in CRC calculations : Yes
Used interface : Native Win32 interface for Win NT & 2000

Used output format : User Defined Encoder
Selected bitrate : 128 kBit/s
Quality : High
Add ID3 tag : No
Command line compressor : C:\Program Files (x86)\Exact Audio Copy\Flac\flac.exe
Additional command line options : -V -8 -T "Date=%year%" -T "Genre=%genre%" %source%


TOC of the extracted CD

Track | Start | Length | Start sector | End sector
––––––––––––––––––––––––––––-
1 | 0:00.00 | 10:36.14 | 0 | 47713
2 | 10:36.14 | 12:20.18 | 47714 | 103231
3 | 22:56.32 | 19:58.06 | 103232 | 193087
4 | 42:54.38 | 2:27.62 | 193088 | 204174
5 | 45:22.25 | 7:52.59 | 204175 | 239633
6 | 53:15.09 | 7:03.67 | 239634 | 271425


Range status and errors

Selected range

Filename C:\temp\Bruckner - Mass 3; Psalm 146; Organ Works\CD1\Bruckner - Mass No.3.wav

Peak level 97.6 %
Extraction speed 2.1 X
Range quality 100.0 %
Test CRC E7283410
Copy CRC E7283410
Copy OK

No errors occurred


AccurateRip summary

Track 1 not present in database
Track 2 not present in database
Track 3 not present in database
Track 4 not present in database
Track 5 not present in database
Track 6 not present in database

None of the tracks are present in the AccurateRip database

End of status report

==== Log checksum A0052A5B1172064FC7B4EE4A7A60804A744FCF38FE26623C3E98F1199469ECC2 ====

[CUETools log; Date: 23.08.2017 9:31:04; Version: 2.1.5]
[CTDB TOCID: X6H4P8bvzdQ4zFitTq6SHs9WMho-] found.
Track | CTDB Status
1 | (7/7) Accurately ripped
2 | (7/7) Accurately ripped
3 | (7/7) Accurately ripped
4 | (7/7) Accurately ripped
5 | (7/7) Accurately ripped
6 | (6/7) Accurately ripped
[AccurateRip ID: 001029c5-0054798a-5d0e2306] found.
Track [ CRC | V2 ] Status
01 [6dac9ee2|63f47094] (0+2/2) Accurately ripped
02 [0c13f1fc|e5c975ca] (0+2/2) Accurately ripped
03 [2b37ebd5|78e20003] (0+2/2) Accurately ripped
04 [92d119e8|1d2d6d28] (0+2/2) Accurately ripped
05 [80a982ef|f3c60c17] (0+2/2) Accurately ripped
06 [c8c204b3|43ba1c3f] (0+2/2) Accurately ripped

Track Peak [ CRC32 ] [W/O NULL] [ LOG ]
– 97,6 [E7283410] [BA2007D5] CRC32
01 92,4 [9C247281] [3C7BE26D]
02 97,1 [6B0C5410] [DD6AF0EA]
03 97,6 [EB999BDC] [D8783E91]
04 97,0 [2A222A32] [131982D4]
05 96,8 [96456136] [5CD6627F]
06 96,6 [E6D92E0E] [1809E75C]

CD 2:
[1]-[6] Psalm 146 in A major
for soloists, chorus and orchestra
Organ Works
[7] Themes for improvisation,
completed by Erwin Horn
[8] Andante in D minor
[9] Nachspiel in D minor
[10] Präludium und Fuge in C minor
[11] Fuge in D minor
[12] 'Perger' Präludium in C minor

Exact Audio Copy V1.1 from 23. June 2015

EAC extraction logfile from 16. November 2016, 22:09

Philharmonischer Chor München, Philharmonie Festiva, Gerd Schaller / Bruckner - Psalm 146; Organ Works

Used drive : HL-DT-STDVDRAM GU70N Adapter: 1 ID: 0

Read mode : Secure
Utilize accurate stream : Yes
Defeat audio cache : Yes
Make use of C2 pointers : No

Read offset correction : 48
Overread into Lead-In and Lead-Out : No
Fill up missing offset samples with silence : Yes
Delete leading and trailing silent blocks : No
Null samples used in CRC calculations : Yes
Used interface : Native Win32 interface for Win NT & 2000

Used output format : User Defined Encoder
Selected bitrate : 128 kBit/s
Quality : High
Add ID3 tag : No
Command line compressor : C:\Program Files (x86)\Exact Audio Copy\Flac\flac.exe
Additional command line options : -V -8 -T "Date=%year%" -T "Genre=%genre%" %source%


TOC of the extracted CD

Track | Start | Length | Start sector | End sector
––––––––––––––––––––––––––––-
1 | 0:00.00 | 4:56.69 | 0 | 22268
2 | 4:56.69 | 0:41.10 | 22269 | 25353
3 | 5:38.04 | 5:27.07 | 25354 | 49885
4 | 11:05.11 | 8:22.53 | 49886 | 87588
5 | 19:27.64 | 1:42.00 | 87589 | 95238
6 | 21:09.64 | 9:04.73 | 95239 | 136111
7 | 30:14.62 | 8:35.17 | 136112 | 174753
8 | 38:50.04 | 1:49.02 | 174754 | 182930
9 | 40:39.06 | 4:07.36 | 182931 | 201491
10 | 44:46.42 | 5:54.24 | 201492 | 228065
11 | 50:40.66 | 3:58.52 | 228066 | 245967
12 | 54:39.43 | 2:06.66 | 245968 | 255483


Range status and errors

Selected range

Filename C:\temp\Bruckner - Mass 3; Psalm 146; Organ Works\CD2\Bruckner - Psalm 146; Organ Works.wav

Peak level 97.4 %
Extraction speed 2.0 X
Range quality 100.0 %
Test CRC 8AB17DB5
Copy CRC 8AB17DB5
Copy OK

No errors occurred


AccurateRip summary

Track 1 not present in database
Track 2 not present in database
Track 3 not present in database
Track 4 not present in database
Track 5 not present in database
Track 6 not present in database
Track 7 not present in database
Track 8 not present in database
Track 9 not present in database
Track 10 not present in database
Track 11 not present in database
Track 12 not present in database

None of the tracks are present in the AccurateRip database

End of status report

==== Log checksum 759088C5977E3FDCC8EDEC144B0B89504B8E52EA218923E62C98D7E33D1AB2C2 ====

[CUETools log; Date: 23.08.2017 9:31:25; Version: 2.1.5]
[CTDB TOCID: yaJHauF418h9C_Jkb6Em61Nvtag-] found.
Track | CTDB Status
1 | (6/6) Accurately ripped
2 | (6/6) Accurately ripped
3 | (6/6) Accurately ripped
4 | (6/6) Accurately ripped
5 | (6/6) Accurately ripped
6 | (6/6) Accurately ripped
7 | (6/6) Accurately ripped
8 | (6/6) Accurately ripped
9 | (6/6) Accurately ripped
10 | (6/6) Accurately ripped
11 | (6/6) Accurately ripped
12 | (6/6) Accurately ripped
[AccurateRip ID: 001a04b8-00f60589-9f0d4e0c] found.
Track [ CRC | V2 ] Status
01 [0c8b5047|2281e323] (0+2/2) Accurately ripped
02 [6d73255f|2c2caf0d] (0+2/2) Accurately ripped
03 [04c026af|3605c4f5] (0+2/2) Accurately ripped
04 [a5ce3f9f|404337a4] (0+2/2) Accurately ripped
05 [3ae2e081|e24468dd] (0+2/2) Accurately ripped
06 [3b5cf072|2762972d] (0+2/2) Accurately ripped
07 [0e498190|de7bf4c3] (0+2/2) Accurately ripped
08 [71a00d65|6d05b558] (0+2/2) Accurately ripped
09 [82514b88|a9e5e0fc] (0+2/2) Accurately ripped
10 [4e58b7db|96c655a1] (0+2/2) Accurately ripped
11 [03f7749a|453b9729] (0+2/2) Accurately ripped
12 [eb778fc7|63ce86a5] (0+2/2) Accurately ripped

Track Peak [ CRC32 ] [W/O NULL] [ LOG ]
– 97,4 [8AB17DB5] [29C23382] CRC32
01 83,3 [4DFCF873] [FE0E8B5A]
02 49,4 [1D0CE8D3] [EBCA39E4]
03 97,4 [D845526B] [2E101098]
04 76,2 [64EBD373] [FAF68490]
05 36,8 [0493C8DE] [D5D38466]
06 96,7 [79211139] [6D44F530]
07 82,0 [847845FA] [59376613]
08 32,9 [F7808995] [4025E54D]
09 63,0 [7E75D81D] [AA7449D1]
10 53,2 [9F02B75E] [4E11A7A2]
11 34,1 [C89E9734] [29D1FD83]
12 38,1 [E7605A51] [349E3A50]

Performers:
Ania Vegry, soprano
Franziska Gottwald, contralto
Clemens Bieber, tenor
Timo Riihonen, bass

Philharmonischer Chor München
Philharmonie Festiva
Gerd Schaller, conductor, organ

Thanks to the Original ripper A-Z!

Download: