Subcategories

Pierrick Pedron - Jazz sous les Pommiers (2012) [HDTV 1080p]

Posted By: juanchito
Pierrick Pedron - Jazz sous les Pommiers (2012) [HDTV 1080p]

Pierrick Pedron - Jazz sous les Pommiers (2012)
HDTV 1080p | MP4 | 1920x1080 (16:9), 25.00 fps, AVC, 8894 Kbit, 0.170 bits/pixel | 5.11 GB
Audio: 48.0 KHz, AAC-LC, 2 ch, stereo, 128-384 Kbps VBR | Length: 01:18:51
Jazz, Rock fusion | Nitroflare/Filefactory/Bigfile


For "Le Monde" he is a "master of the alto saxophone" – the Frenchman Pierrick Pédron. In his homeland he has long been one of the most respected and in-demand jazz musicians, where he has won the "Concours de la Defense" and other major prizes like the "Prix Django Reinhardt" or the "Prix Boris Vian". Pédron also works internationally with the well-known compatriots the likes of Baptiste Trotignon, Vincent Artaud and the Belmondo brothers, and with the US stars Wynton Marsalis, Mulgrew Miller and Lewis Nash. With strong roots in the spirit of bebop, he is a master of high-energy, breakneck straight-ahead modern jazz, while at the same time daring quite naturally to experiment with rock, fusion and electronic music – and yet always managing to sound entirely like himself.

Pierrick Pedron - Jazz sous les Pommiers 2012
Enregistre au festival Jazz sous les Pommiers le 17 mai 2012

Pierrick Pedron - Jazz sous les Pommiers (2012) [HDTV 1080p]

Pierrick Pedron - Jazz sous les Pommiers (2012) [HDTV 1080p]

Pierrick Pedron - Jazz sous les Pommiers (2012) [HDTV 1080p]

Pierrick Pedron - Jazz sous les Pommiers (2012) [HDTV 1080p]


Tracklist
Intro No 1
Intro No 2
Esox - Lucius
The Cloud
Miss falk's Dog
The Mists Of Time
Nonagone's Dance
2010 White Boots
The Cheerleader's nde
Coupe 3 Toshiko
Val Andre

Band Members
Pierrick Pedron (saxophone)
Chris de Pauw (guitare)
Laurent Cog (piano)
Vincent Artaud (basse)
Fabrice Moreau (batterie)

General
Complete name : C:\Users\ggu\Desktop\ggu\Pierrick Pedron - JslP 2012\Pierrick Pedron - Jazz sous les Pommiers 2012.mp4
Format : MPEG-4
Format profile : Base Media / Version 2
Codec ID : mp42 (mp42/isom)
File size : 5.11 GiB
Duration : 1h 18mn
Overall bit rate mode : Variable
Overall bit rate : 9 282 Kbps
Encoded date : UTC 2013-12-08 12:01:12
Tagged date : UTC 2013-12-08 12:01:12

Video
ID : 2
Format : AVC
Format/Info : Advanced Video Codec
Format profile : Main@L4
Format settings, CABAC : Yes
Format settings, ReFrames : 2 frames
Format settings, GOP : M=3, N=30
Codec ID : avc1
Codec ID/Info : Advanced Video Coding
Duration : 1h 18mn
Source duration : 1h 18mn
Bit rate mode : Variable
Bit rate : 8 894 Kbps
Maximum bit rate : 9 001 Kbps
Width : 1 920 pixels
Height : 1 088 pixels
Original height : 1 080 pixels
Display aspect ratio : 16:9
Frame rate mode : Variable
Frame rate : 25.000 fps
Minimum frame rate : 10.000 fps
Maximum frame rate : 25.000 fps
Original frame rate : 12.500 fps
Color space : YUV
Chroma subsampling : 4:2:0
Bit depth : 8 bits
Scan type : Progressive
Bits/(Pixel*Frame) : 0.170
Stream size : 4.90 GiB (96%)
Source stream size : 4.90 GiB (96%)
Language : English
Encoded date : UTC 2013-12-08 12:01:12
Tagged date : UTC 2013-12-08 12:01:12

Audio
ID : 1
Format : AAC
Format/Info : Advanced Audio Codec
Format profile : LC
Codec ID : 40
Duration : 1h 18mn
Source duration : 1h 18mn
Bit rate mode : Constant
Bit rate : 384 Kbps
Nominal bit rate : 128 Kbps
Channel(s) : 2 channels
Channel positions : Front: L R
Sampling rate : 48.0 KHz
Frame rate : 46.875 fps (1024 spf)
Compression mode : Lossy
Stream size : 217 MiB (4%)
Source stream size : 217 MiB (4%)
Language : English
Encoded date : UTC 2013-12-08 12:01:12
Tagged date : UTC 2013-12-08 12:01:12
mdhd_Duration : 4731619




Thanks to the original uploader