Tags
Language
Tags

Pietari Inkinen, Deutsche Radio Philharmonie - Dvořák: Symphony No.2; Dramatic Overture; Overture of Armida (2019)

Posted By: ArlegZ
Pietari Inkinen, Deutsche Radio Philharmonie - Dvořák: Symphony No.2; Dramatic Overture; Overture of Armida (2019)

Pietari Inkinen, Deutsche Radio Philharmonie - Dvořák: Symphony No.2; Dramatic Overture; Overture of Armida (2019)
EAC | FLAC | Image (Cue & Log) ~ 303 Mb | Total time: 73:09 | Scans included
Classical | Label: SWR Music | SWR19083CD | Recorded: 2018

This release comprises both a symphony and rarely recorded opera overtures by Dvořák. The chief conductor of the orchestra, Finnish maestro Pietari Inkinen, continues the Dvořák Cycle begun under the baton of Karel Mark Chichon. The Second Symphony, composed when Dvořák was 24, was certainly no masterpiece, neither was its revised version. Nevertheless, it is an extraordinary testament to Dvořák’s talent since it clearly bears his stamp, even though it shows the influence of others. “This man has more ideas than all of us put together”, Brahms said in appreciation of Dvořák’s output. This is certainly borne out when listening to the Second Symphony.

Performer:
Deutsche Radio Philharmonie
Pietari Inkinen, conductor

Track List:
Symphony No.2 in B flat major, Op.4
01. I. Allegro con moto
02. II. Poco adagio
03. III. Scherzo. Allegro con brio
04. IV. Finale. Allegro con fuoco
05. Dramatic Overture, Op. Posth. B 16a (Overture of Alfred)
06. Overture of Armida, Op.115


Exact Audio Copy V1.3 from 2. September 2016

EAC extraction logfile from 11. February 2020, 21:13

Deutsche Radio Philharmonie, Pietari Inkinen / Dvořák - Complete Symphonies, Vol.4

Used drive : ASUS SDRW-08U7M-U Adapter: 1 ID: 0

Read mode : Secure
Utilize accurate stream : Yes
Defeat audio cache : Yes
Make use of C2 pointers : No

Read offset correction : 6
Overread into Lead-In and Lead-Out : No
Fill up missing offset samples with silence : Yes
Delete leading and trailing silent blocks : No
Null samples used in CRC calculations : Yes
Used interface : Native Win32 interface for Win NT & 2000

Used output format : User Defined Encoder
Selected bitrate : 128 kBit/s
Quality : High
Add ID3 tag : No
Command line compressor : C:\Program Files (x86)\Exact Audio Copy\Flac\flac.exe
Additional command line options : -V -8 -T "Date=%year%" -T "Genre=%genre%" %source%


TOC of the extracted CD

Track | Start | Length | Start sector | End sector
––––––––––––––––––––––––––––-
1 | 0:00.00 | 13:10.26 | 0 | 59275
2 | 13:10.26 | 14:37.30 | 59276 | 125080
3 | 27:47.56 | 12:48.14 | 125081 | 182694
4 | 40:35.70 | 10:56.66 | 182695 | 231960
5 | 51:32.61 | 14:43.65 | 231961 | 298250
6 | 66:16.51 | 6:51.14 | 298251 | 329089


Range status and errors

Selected range

Filename C:\temp\Dvorak - Complete Symphonies, Vol.4 - Deutsche Radio Philharmonie, Inkinen - 2019\Dvorak - Complete Symphonies, Vol.4.wav

Peak level 99.0 %
Extraction speed 5.2 X
Range quality 100.0 %
Test CRC 701B2097
Copy CRC 701B2097
Copy OK

No errors occurred


AccurateRip summary

Track 1 not present in database
Track 2 not present in database
Track 3 not present in database
Track 4 not present in database
Track 5 not present in database
Track 6 not present in database

None of the tracks are present in the AccurateRip database

End of status report

==== Log checksum 90482DD99A4EA2F903B3A67D73678B9BE1C2DC44C8F212EF9310B5F4834CBB33 ====

Pietari Inkinen, Deutsche Radio Philharmonie - Dvořák: Symphony No.2; Dramatic Overture; Overture of Armida (2019)

Thanks to the original releaser