Subcategories

Elizabeth Wallfisch, The Raglan Baroque Players, Nicholas Kraemer - Pietro Locatelli: Concerti Grossi, Op.1 (1995) Reissue 2014

Posted By: Designol
Elizabeth Wallfisch, The Raglan Baroque Players, Nicholas Kraemer - Pietro Locatelli: Concerti Grossi, Op.1 (1995) Reissue 2014

Pietro Antonio Locatelli - Concerti Grossi, Op.1 (1995) 2CDs, Reissue 2014
The Raglan Baroque Players; Nicholas Kraemer, conductor; Elizabeth Wallfisch, violin

EAC | FLAC | Image (Cue&Log) ~ 547 Mb | Mp3 (CBR320) ~ 261 Mb | Scans included
Genre: Classical | Label: Hyperion | # CDD22066 | Time: 01:53:27

The concerto grosso form was popularized by Corelli, and Locatelli’s Op 1 is a marvellous example of the genre: its solid craftsmanship, imaginative textures and exciting virtuosity bringing it into the top rank. These works are ravishingly performed here by The Raglan Baroque Players, Nicholas Kraemer and soloist Elizabeth Wallfisch.

It's important to realize when it comes to Baroque music, "opus 1" does not mean the first piece of music the composer ever wrote. Rather, it refers to the first music he saw fit to publish. Each published opus consisted of a selection of the best of a large body of manuscript works, many of which would likely have become popular and gained wide circulation prior to appearing in print. Locatelli's Opus 1 concertos are among his very best pieces. They balance instrumental virtuosity with characterful melodic writing better than the Opus 3 concertos, for instance, and they are extremely well played and recorded here.

Review by David Hurwitz

Locatelli’s Op. 3 violin concertos, L’arte del violino, were famous chiefly for their fiendishly tricky caprices for solo violin. Such virtuoso fireworks are largely absent from this youthful set of concerti grossi and Peter Holman, in his booklet notes, warns that listeners may be ‘surprised and perhaps initially disappointed by Op. 1’. I have to admit I remain a little disappointed. It’s not only the Locatelli bravura I miss; where, for example, is the sensuous delicacy of his Op. 2 flute sonatas, the flowing invention of his Op. 6 violin sonatas? There are too few glimpses of such genius here. These 12 concerti grossi were first published in 1721, when Locatelli was just 26. A tribute to Corelli, the work is modelled on the latter’s celebrated Op. 6, with each concerto divided into several brief, contrasting sections. But whereas Corelli was able to knit this diversity into an attractive whole, Locatelli’s music is frustratingly erratic, with longueurs lurking amidst its fleeting charms. The Raglan Baroque Players provide lively, sensitive performances, though I suspect a more inspired advocacy is required. Europa Galante, on their recent Locatelli release (from the Opus 111 label), did bring an extra touch of élan to the music, but that disc included only three of the Op. 1 concertos.

Review by Graham Lock, Allmusic.com

Elizabeth Wallfisch, The Raglan Baroque Players, Nicholas Kraemer - Pietro Locatelli: Concerti Grossi, Op.1 (1995) Reissue 2014



Elizabeth Wallfisch, The Raglan Baroque Players, Nicholas Kraemer - Pietro Locatelli: Concerti Grossi, Op.1 (1995) Reissue 2014



Elizabeth Wallfisch, The Raglan Baroque Players, Nicholas Kraemer - Pietro Locatelli: Concerti Grossi, Op.1 (1995) Reissue 2014



Originally issued on CDA66981/2
Recording details: September 1994
St Michael's Church, Highgate, London, United Kingdom

Tracklist:

CD1:

01. Concerto Grosso No.1 in F major - I. Allegro (02:07)
02. Concerto Grosso No.1 in F major - II. Allegro (01:32)
03. Concerto Grosso No.1 in F major - III. Largo (01:22)
04. Concerto Grosso No.1 in F major - IV. Allegro (02:23)

05. Concerto Grosso No.2 in C minor - I. Adagio (01:50)
06. Concerto Grosso No.2 in C minor - II. Allegro (02:11)
07. Concerto Grosso No.2 in C minor - III. Largo (01:45)
08. Concerto Grosso No.2 in C minor - IV. Allegro (01:15)
09. Concerto Grosso No.2 in C minor - V. Allegro (02:18)

10. Concerto Grosso No.3 in B flat major - I. Adagio (01:54)
11. Concerto Grosso No.3 in B flat major - II. Allegro (01:55)
12. Concerto Grosso No.3 in B flat major - III. Largo (02:00)
13. Concerto Grosso No.3 in B flat major - IV. Vivace (02:15)
14. Concerto Grosso No.3 in B flat major - V. Allegro (02:36)

15. Concerto Grosso No.4 in E minor - I. Adagio (02:08)
16. Concerto Grosso No.4 in E minor - II. Allegro (01:49)
17. Concerto Grosso No.4 in E minor - III. Largo (01:10)
18. Concerto Grosso No.4 in E minor - IV. Allegro (02:07)

19. Concerto Grosso No.5 in D major - I. Largo (01:30)
20. Concerto Grosso No.5 in D major - II. Allegro (01:49)
21. Concerto Grosso No.5 in D major - III. Largo (02:29)
22. Concerto Grosso No.5 in D major - IV. Allegro (02:21)

23. Concerto Grosso No.6 in C minor - I. Adagio (03:25)
24. Concerto Grosso No.6 in C minor - II. Allegro (02:09)
25. Concerto Grosso No.6 in C minor - III. Largo (01:26)
26. Concerto Grosso No.6 in C minor - IV. Allegro (02:32)

CD2:

01. Concerto Grosso No.7 in F major - I. Allegro (01:57)
02. Concerto Grosso No.7 in F major - II. Largo (02:35)
03. Concerto Grosso No.7 in F major - III. Allegro (02:33)

04. Concerto Grosso No.8 in F minor - I. Largo (00:45)
05. Concerto Grosso No.8 in F minor - II. Grave (02:06)
06. Concerto Grosso No.8 in F minor - III. Vivace (01:22)
07. Concerto Grosso No.8 in F minor - IV. Vivace (01:51)
08. Concerto Grosso No.8 in F minor - V. Largo Andante (02:42)
09. Concerto Grosso No.8 in F minor - VI. Andante (01:31)
10. Concerto Grosso No.8 in F minor - VII. Largo Andante (03:04)

11. Concerto Grosso No.9 in D major - I. Allegro (01:58)
12. Concerto Grosso No.9 in D major - II. Largo (00:52)
13. Concerto Grosso No.9 in D major - III. Allemanda (03:17)
14. Concerto Grosso No.9 in D major - IV. Largo (02:23)
15. Concerto Grosso No.9 in D major - V. Allegro (03:08)

16. Concerto Grosso No.10 in C major - I. Largo (02:01)
17. Concerto Grosso No.10 in C major - II. Allemanda (01:41)
18. Concerto Grosso No.10 in C major - III. Largo (03:02)
19. Concerto Grosso No.10 in C major - IV. Vivace (02:21)

20. Concerto Grosso No.11 in C minor - I. Largo (02:38)
21. Concerto Grosso No.11 in C minor - II. Allemanda (02:59)
22. Concerto Grosso No.11 in C minor - III. Sarabanda (02:35)
23. Concerto Grosso No.11 in C minor - IV. Giga Allegro (02:35)

24. Concerto Grosso No.12 in G minor - I. Largo (01:59)
25. Concerto Grosso No.12 in G minor - II. Allemanda Allegro (01:36)
26. Concerto Grosso No.12 in G minor - III. Sarabanda Vivace (01:38)
27. Concerto Grosso No.12 in G minor - IV. Presto (01:19)
28. Concerto Grosso No.12 in G minor - V. Gavotte Allegro (02:13)


Exact Audio Copy V1.1 from 23. June 2015

EAC extraction logfile from 23. August 2016, 21:35

The Raglan Baroque Players, Nicholas Kraemer, Elizabeth Wallfisch / Locatelli - Concerti Grossi, Op.1 - CD1

Used drive : HL-DT-STDVDRAM GU70N Adapter: 1 ID: 0

Read mode : Secure
Utilize accurate stream : Yes
Defeat audio cache : Yes
Make use of C2 pointers : No

Read offset correction : 48
Overread into Lead-In and Lead-Out : No
Fill up missing offset samples with silence : Yes
Delete leading and trailing silent blocks : No
Null samples used in CRC calculations : Yes
Used interface : Native Win32 interface for Win NT & 2000

Used output format : User Defined Encoder
Selected bitrate : 128 kBit/s
Quality : High
Add ID3 tag : No
Command line compressor : C:\Program Files (x86)\Exact Audio Copy\Flac\flac.exe
Additional command line options : -V -8 -T "Date=%year%" -T "Genre=%genre%" %source%


TOC of the extracted CD

Track | Start | Length | Start sector | End sector
––––––––––––––––––––––––––––-
1 | 0:01.00 | 2:07.67 | 75 | 9666
2 | 2:08.67 | 1:32.68 | 9667 | 16634
3 | 3:41.60 | 1:22.37 | 16635 | 22821
4 | 5:04.22 | 2:23.00 | 22822 | 33546
5 | 7:27.22 | 1:50.50 | 33547 | 41846
6 | 9:17.72 | 2:11.08 | 41847 | 51679
7 | 11:29.05 | 1:45.47 | 51680 | 59601
8 | 13:14.52 | 1:15.40 | 59602 | 65266
9 | 14:30.17 | 2:18.35 | 65267 | 75651
10 | 16:48.52 | 1:54.23 | 75652 | 84224
11 | 18:43.00 | 1:55.70 | 84225 | 92919
12 | 20:38.70 | 2:00.25 | 92920 | 101944
13 | 22:39.20 | 2:15.55 | 101945 | 112124
14 | 24:55.00 | 2:36.40 | 112125 | 123864
15 | 27:31.40 | 2:08.00 | 123865 | 133464
16 | 29:39.40 | 1:49.02 | 133465 | 141641
17 | 31:28.42 | 1:10.60 | 141642 | 146951
18 | 32:39.27 | 2:07.73 | 146952 | 156549
19 | 34:47.25 | 1:30.57 | 156550 | 163356
20 | 36:18.07 | 1:49.55 | 163357 | 171586
21 | 38:07.62 | 2:29.13 | 171587 | 182774
22 | 40:37.00 | 2:21.70 | 182775 | 193419
23 | 42:58.70 | 3:25.45 | 193420 | 208839
24 | 46:24.40 | 2:09.12 | 208840 | 218526
25 | 48:33.52 | 1:26.58 | 218527 | 225034
26 | 50:00.35 | 2:32.07 | 225035 | 236441


Range status and errors

Selected range

Filename C:\temp\CDD22066 - Locatelli - Concerti Grossi, Op.1\CD1\Locatelli - Concerti Grossi, Op.1 - CD1.wav

Peak level 91.4 %
Extraction speed 4.7 X
Range quality 100.0 %
Test CRC 9AFB7F8B
Copy CRC 9AFB7F8B
Copy OK

No errors occurred


AccurateRip summary

Track 1 cannot be verified as accurate (confidence 9) [2B16ACA5], AccurateRip returned [7667B3E7] (AR v2)
Track 2 cannot be verified as accurate (confidence 9) [9F094981], AccurateRip returned [A93CD13C] (AR v2)
Track 3 cannot be verified as accurate (confidence 9) [BD9E90C3], AccurateRip returned [5DCD987B] (AR v2)
Track 4 cannot be verified as accurate (confidence 9) [A595BB2A], AccurateRip returned [290FE608] (AR v2)
Track 5 cannot be verified as accurate (confidence 9) [1D663804], AccurateRip returned [BBFF127C] (AR v2)
Track 6 cannot be verified as accurate (confidence 9) [BA091B4B], AccurateRip returned [940A60FE] (AR v2)
Track 7 cannot be verified as accurate (confidence 9) [C4D27D4E], AccurateRip returned [3E8959DF] (AR v2)
Track 8 cannot be verified as accurate (confidence 9) [56A39117], AccurateRip returned [17217A2B] (AR v2)
Track 9 cannot be verified as accurate (confidence 9) [CEC893A1], AccurateRip returned [25AC05D5] (AR v2)
Track 10 cannot be verified as accurate (confidence 9) [81835DD4], AccurateRip returned [ADC697B0] (AR v2)
Track 11 cannot be verified as accurate (confidence 9) [AE46E1F5], AccurateRip returned [8EDD688E] (AR v2)
Track 12 cannot be verified as accurate (confidence 9) [6B6ACBCD], AccurateRip returned [FE84EB00] (AR v2)
Track 13 cannot be verified as accurate (confidence 9) [62B845B6], AccurateRip returned [8A89EF3E] (AR v2)
Track 14 cannot be verified as accurate (confidence 9) [B6FE4F98], AccurateRip returned [676D4CDA] (AR v2)
Track 15 cannot be verified as accurate (confidence 9) [1A6141B7], AccurateRip returned [A84739EF] (AR v2)
Track 16 cannot be verified as accurate (confidence 9) [BA0C373D], AccurateRip returned [B3E181DE] (AR v2)
Track 17 cannot be verified as accurate (confidence 9) [F6F8FFF4], AccurateRip returned [F0B2FD36] (AR v2)
Track 18 cannot be verified as accurate (confidence 9) [8731E563], AccurateRip returned [CE510E3E] (AR v2)
Track 19 cannot be verified as accurate (confidence 9) [4A4A39D3], AccurateRip returned [89D1FAEB] (AR v2)
Track 20 cannot be verified as accurate (confidence 9) [CD3424D7], AccurateRip returned [6225587B] (AR v2)
Track 21 cannot be verified as accurate (confidence 9) [55C2E1DD], AccurateRip returned [9718AC30] (AR v2)
Track 22 cannot be verified as accurate (confidence 9) [CA2EFDA1], AccurateRip returned [7F7ED920] (AR v2)
Track 23 cannot be verified as accurate (confidence 9) [ABCB8BEC], AccurateRip returned [8719413B] (AR v2)
Track 24 cannot be verified as accurate (confidence 9) [A4440AEF], AccurateRip returned [51A9BDCA] (AR v2)
Track 25 cannot be verified as accurate (confidence 9) [857D0AB4], AccurateRip returned [BAB74B60] (AR v2)
Track 26 cannot be verified as accurate (confidence 9) [944E8F38], AccurateRip returned [C7A4BB99] (AR v2)

No tracks could be verified as accurate
You may have a different pressing from the one(s) in the database

End of status report

==== Log checksum 233DE0401E5663D71CA4673F5A2E94D7B411A1AF2F5A01E51EE0D93D2D6BBE59 ====

foobar2000 1.2 / Dynamic Range Meter 1.1.1
log date: 2016-09-05 15:17:32

––––––––––––––––––––––––––––––––––––––––
Analyzed: The Raglan Baroque Players, Nicholas Kraemer, Elizabeth Wallfisch / Locatelli - Concerti Grossi, Op.1 - CD1
––––––––––––––––––––––––––––––––––––––––

DR Peak RMS Duration Track
––––––––––––––––––––––––––––––––––––––––
DR14 -2.94 dB -21.53 dB 2:08 01-Concerto Grosso No.1 in F major - I. Allegro
DR12 -1.65 dB -18.94 dB 1:33 02-Concerto Grosso No.1 in F major - II. Allegro
DR14 -0.78 dB -19.97 dB 1:22 03-Concerto Grosso No.1 in F major - III. Largo
DR13 -2.95 dB -22.33 dB 2:23 04-Concerto Grosso No.1 in F major - IV. Allegro
DR12 -4.21 dB -19.50 dB 1:51 05-Concerto Grosso No.2 in C minor - I. Adagio
DR13 -2.20 dB -19.20 dB 2:11 06-Concerto Grosso No.2 in C minor - II. Allegro
DR12 -7.20 dB -24.44 dB 1:46 07-Concerto Grosso No.2 in C minor - III. Largo
DR11 -4.42 dB -19.02 dB 1:16 08-Concerto Grosso No.2 in C minor - IV. Allegro
DR13 -4.20 dB -23.38 dB 2:18 09-Concerto Grosso No.2 in C minor - V. Allegro
DR13 -3.95 dB -20.46 dB 1:54 10-Concerto Grosso No.3 in B flat major - I. Adagio
DR13 -1.93 dB -20.50 dB 1:56 11-Concerto Grosso No.3 in B flat major - II. Allegro
DR14 -1.50 dB -19.23 dB 2:00 12-Concerto Grosso No.3 in B flat major - III. Largo
DR13 -6.04 dB -22.62 dB 2:16 13-Concerto Grosso No.3 in B flat major - IV. Vivace
DR14 -1.43 dB -20.93 dB 2:37 14-Concerto Grosso No.3 in B flat major - V. Allegro
DR12 -2.43 dB -21.17 dB 2:08 15-Concerto Grosso No.4 in E minor - I. Adagio
DR12 -2.40 dB -19.78 dB 1:49 16-Concerto Grosso No.4 in E minor - II. Allegro
DR13 -2.41 dB -19.91 dB 1:11 17-Concerto Grosso No.4 in E minor - III. Largo
DR13 -2.93 dB -20.26 dB 2:08 18-Concerto Grosso No.4 in E minor - IV. Allegro
DR12 -5.15 dB -20.54 dB 1:31 19-Concerto Grosso No.5 in D major - I. Largo
DR13 -2.27 dB -19.21 dB 1:50 20-Concerto Grosso No.5 in D major - II. Allegro
DR13 -1.42 dB -20.58 dB 2:29 21-Concerto Grosso No.5 in D major - III. Largo
DR13 -1.98 dB -20.78 dB 2:22 22-Concerto Grosso No.5 in D major - IV. Allegro
DR13 -4.33 dB -21.10 dB 3:26 23-Concerto Grosso No.6 in C minor - I. Adagio
DR12 -4.38 dB -19.73 dB 2:09 24-Concerto Grosso No.6 in C minor - II. Allegro
DR11 -4.13 dB -21.69 dB 1:27 25-Concerto Grosso No.6 in C minor - III. Largo
DR14 -5.43 dB -22.66 dB 2:32 26-Concerto Grosso No.6 in C minor - IV. Allegro
––––––––––––––––––––––––––––––––––––––––

Number of tracks: 26
Official DR value: DR13

Samplerate: 44100 Hz
Channels: 2
Bits per sample: 16
Bitrate: 674 kbps
Codec: FLAC
================================================================================


Exact Audio Copy V1.1 from 23. June 2015

EAC extraction logfile from 23. August 2016, 22:10

The Raglan Baroque Players, Nicholas Kraemer, Elizabeth Wallfisch / Locatelli - Concerti Grossi, Op.1 - CD2

Used drive : HL-DT-STDVDRAM GU70N Adapter: 1 ID: 0

Read mode : Secure
Utilize accurate stream : Yes
Defeat audio cache : Yes
Make use of C2 pointers : No

Read offset correction : 48
Overread into Lead-In and Lead-Out : No
Fill up missing offset samples with silence : Yes
Delete leading and trailing silent blocks : No
Null samples used in CRC calculations : Yes
Used interface : Native Win32 interface for Win NT & 2000

Used output format : User Defined Encoder
Selected bitrate : 128 kBit/s
Quality : High
Add ID3 tag : No
Command line compressor : C:\Program Files (x86)\Exact Audio Copy\Flac\flac.exe
Additional command line options : -V -8 -T "Date=%year%" -T "Genre=%genre%" %source%


TOC of the extracted CD

Track | Start | Length | Start sector | End sector
––––––––––––––––––––––––––––-
1 | 0:01.00 | 1:57.65 | 75 | 8914
2 | 1:58.65 | 2:35.35 | 8915 | 20574
3 | 4:34.25 | 2:33.45 | 20575 | 32094
4 | 7:07.70 | 0:45.47 | 32095 | 35516
5 | 7:53.42 | 2:06.73 | 35517 | 45039
6 | 10:00.40 | 1:22.55 | 45040 | 51244
7 | 11:23.20 | 1:51.17 | 51245 | 59586
8 | 13:14.37 | 2:42.38 | 59587 | 71774
9 | 15:57.00 | 1:31.37 | 71775 | 78636
10 | 17:28.37 | 3:04.65 | 78637 | 92501
11 | 20:33.27 | 1:58.53 | 92502 | 101404
12 | 22:32.05 | 0:52.70 | 101405 | 105374
13 | 23:25.00 | 3:17.12 | 105375 | 120161
14 | 26:42.12 | 2:23.15 | 120162 | 130901
15 | 29:05.27 | 3:08.50 | 130902 | 145051
16 | 32:14.02 | 2:01.70 | 145052 | 154196
17 | 34:15.72 | 1:41.10 | 154197 | 161781
18 | 35:57.07 | 3:02.65 | 161782 | 175496
19 | 38:59.72 | 2:21.25 | 175497 | 186096
20 | 41:21.22 | 2:38.13 | 186097 | 197959
21 | 43:59.35 | 2:59.45 | 197960 | 211429
22 | 46:59.05 | 2:35.47 | 211430 | 223101
23 | 49:34.52 | 2:35.08 | 223102 | 234734
24 | 52:09.60 | 1:59.22 | 234735 | 243681
25 | 54:09.07 | 1:36.48 | 243682 | 250929
26 | 55:45.55 | 1:38.37 | 250930 | 258316
27 | 57:24.17 | 1:19.03 | 258317 | 264244
28 | 58:43.20 | 2:13.45 | 264245 | 274264


Range status and errors

Selected range

Filename C:\temp\CDD22066 - Locatelli - Concerti Grossi, Op.1\CD2\Locatelli - Concerti Grossi, Op.1 - CD2.wav

Peak level 91.9 %
Extraction speed 4.9 X
Range quality 100.0 %
Test CRC C90F20A2
Copy CRC C90F20A2
Copy OK

No errors occurred


AccurateRip summary

Track 1 cannot be verified as accurate (confidence 9) [EDE95453], AccurateRip returned [61F4BF86] (AR v2)
Track 2 cannot be verified as accurate (confidence 9) [2E7F596F], AccurateRip returned [6A39C2C6] (AR v2)
Track 3 cannot be verified as accurate (confidence 9) [7CD3E02A], AccurateRip returned [3583ED3B] (AR v2)
Track 4 cannot be verified as accurate (confidence 9) [35787442], AccurateRip returned [54F8DF1F] (AR v2)
Track 5 cannot be verified as accurate (confidence 9) [4F1213BB], AccurateRip returned [B2C91E49] (AR v2)
Track 6 cannot be verified as accurate (confidence 9) [B03C7B50], AccurateRip returned [E11E7275] (AR v2)
Track 7 cannot be verified as accurate (confidence 9) [122CFC59], AccurateRip returned [E2A87209] (AR v2)
Track 8 cannot be verified as accurate (confidence 9) [4985EA96], AccurateRip returned [2A39471E] (AR v2)
Track 9 cannot be verified as accurate (confidence 9) [F9A331D1], AccurateRip returned [A1B36952] (AR v2)
Track 10 cannot be verified as accurate (confidence 8) [8286A0A2], AccurateRip returned [BFE25B5A] (AR v2)
Track 11 cannot be verified as accurate (confidence 9) [449C3688], AccurateRip returned [803795A2] (AR v2)
Track 12 cannot be verified as accurate (confidence 9) [26AB65B0], AccurateRip returned [0899D345] (AR v2)
Track 13 cannot be verified as accurate (confidence 9) [A96899F7], AccurateRip returned [EFBCC8D6] (AR v2)
Track 14 cannot be verified as accurate (confidence 9) [42C03C9D], AccurateRip returned [0BA3E119] (AR v2)
Track 15 cannot be verified as accurate (confidence 9) [4A119ADE], AccurateRip returned [A8577BE3] (AR v2)
Track 16 cannot be verified as accurate (confidence 9) [8BE0CB4B], AccurateRip returned [1B813589] (AR v2)
Track 17 cannot be verified as accurate (confidence 9) [598F2DCB], AccurateRip returned [7B5301E7] (AR v2)
Track 18 cannot be verified as accurate (confidence 9) [A33E40C0], AccurateRip returned [8C2D4053] (AR v2)
Track 19 cannot be verified as accurate (confidence 9) [2D452427], AccurateRip returned [EBDB4675] (AR v2)
Track 20 cannot be verified as accurate (confidence 9) [05343FD6], AccurateRip returned [74CB8961] (AR v2)
Track 21 cannot be verified as accurate (confidence 9) [34F00451], AccurateRip returned [6C1D7F82] (AR v2)
Track 22 cannot be verified as accurate (confidence 9) [589288D5], AccurateRip returned [A40862A8] (AR v2)
Track 23 cannot be verified as accurate (confidence 9) [089D75EB], AccurateRip returned [B99CDE09] (AR v2)
Track 24 cannot be verified as accurate (confidence 9) [8370A83D], AccurateRip returned [C0A2C7FE] (AR v2)
Track 25 cannot be verified as accurate (confidence 9) [9A833A39], AccurateRip returned [5274A026] (AR v2)
Track 26 cannot be verified as accurate (confidence 9) [7CEB1FFF], AccurateRip returned [47906695] (AR v2)
Track 27 cannot be verified as accurate (confidence 9) [0A424622], AccurateRip returned [8D0E4ED3] (AR v2)
Track 28 cannot be verified as accurate (confidence 9) [DA643C7B], AccurateRip returned [8EC9E52F] (AR v2)

No tracks could be verified as accurate
You may have a different pressing from the one(s) in the database

End of status report

==== Log checksum EFE1790E1F956A6BF1D3266C88EE7472CD1E6344629B52A9556E95EB9CC13A5C ====

foobar2000 1.2 / Dynamic Range Meter 1.1.1
log date: 2016-09-05 15:17:57

––––––––––––––––––––––––––––––––––––––––
Analyzed: The Raglan Baroque Players, Nicholas Kraemer, Elizabeth Wallfisch / Locatelli - Concerti Grossi, Op.1 - CD2
––––––––––––––––––––––––––––––––––––––––

DR Peak RMS Duration Track
––––––––––––––––––––––––––––––––––––––––
DR14 -1.69 dB -20.18 dB 1:58 01-Concerto Grosso No.7 in F major - I. Allegro
DR12 -3.55 dB -20.83 dB 2:35 02-Concerto Grosso No.7 in F major - II. Largo
DR13 -3.13 dB -22.06 dB 2:34 03-Concerto Grosso No.7 in F major - III. Allegro
DR9 -11.26 dB -25.62 dB 0:46 04-Concerto Grosso No.8 in F minor - I. Largo
DR10 -6.35 dB -22.95 dB 2:07 05-Concerto Grosso No.8 in F minor - II. Grave
DR11 -3.93 dB -18.78 dB 1:23 06-Concerto Grosso No.8 in F minor - III. Vivace
DR11 -3.43 dB -20.35 dB 1:51 07-Concerto Grosso No.8 in F minor - IV. Vivace
DR12 -2.75 dB -20.28 dB 2:43 08-Concerto Grosso No.8 in F minor - V. Largo Andante
DR12 -0.73 dB -18.42 dB 1:31 09-Concerto Grosso No.8 in F minor - VI. Andante
DR13 -3.82 dB -21.14 dB 3:05 10-Concerto Grosso No.8 in F minor - VII. Largo Andante
DR13 -2.24 dB -19.83 dB 1:59 11-Concerto Grosso No.9 in D major - I. Allegro
DR10 -6.55 dB -24.35 dB 0:53 12-Concerto Grosso No.9 in D major - II. Largo
DR14 -5.46 dB -22.58 dB 3:17 13-Concerto Grosso No.9 in D major - III. Allemanda
DR13 -2.05 dB -21.98 dB 2:23 14-Concerto Grosso No.9 in D major - IV. Largo
DR13 -3.67 dB -21.79 dB 3:09 15-Concerto Grosso No.9 in D major - V. Allegro
DR11 -4.90 dB -20.56 dB 2:02 16-Concerto Grosso No.10 in C major - I. Largo
DR14 -2.99 dB -21.67 dB 1:41 17-Concerto Grosso No.10 in C major - II. Allemanda
DR13 -4.47 dB -23.37 dB 3:03 18-Concerto Grosso No.10 in C major - III. Largo
DR13 -4.75 dB -22.40 dB 2:21 19-Concerto Grosso No.10 in C major - IV. Vivace
DR13 -4.68 dB -23.05 dB 2:38 20-Concerto Grosso No.11 in C minor - I. Largo
DR13 -5.71 dB -23.82 dB 3:00 21-Concerto Grosso No.11 in C minor - II. Allemanda
DR13 -5.35 dB -22.52 dB 2:36 22-Concerto Grosso No.11 in C minor - III. Sarabanda
DR14 -6.18 dB -22.53 dB 2:35 23-Concerto Grosso No.11 in C minor - IV. Giga Allegro
DR12 -4.04 dB -20.86 dB 1:59 24-Concerto Grosso No.12 in G minor - I. Largo
DR13 -3.26 dB -21.46 dB 1:37 25-Concerto Grosso No.12 in G minor - II. Allemanda Allegro
DR12 -7.25 dB -22.47 dB 1:38 26-Concerto Grosso No.12 in G minor - III. Sarabanda Vivace
DR11 -5.55 dB -21.33 dB 1:19 27-Concerto Grosso No.12 in G minor - IV. Presto
DR14 -5.49 dB -23.10 dB 2:14 28-Concerto Grosso No.12 in G minor - V. Gavotte Allegro
––––––––––––––––––––––––––––––––––––––––

Number of tracks: 28
Official DR value: DR12

Samplerate: 44100 Hz
Channels: 2
Bits per sample: 16
Bitrate: 670 kbps
Codec: FLAC
================================================================================

Elizabeth Wallfisch, The Raglan Baroque Players, Nicholas Kraemer - Pietro Locatelli: Concerti Grossi, Op.1 (1995) Reissue 2014

All thanks to original releaser - A-Z

More interesting music in My Blog