Tags
Language
Tags

Pink Floyd - Games For May (1999) [4CD Box Set]

Posted By: v3122
Pink Floyd - Games For May (1999) [4CD Box Set]

Pink Floyd - Games For May (1999)
EAC | Flac(Image) + Cue + Log & MP3 CBR 320Kbps
Bedrock Records | ~ 1515 or 665 Mb | Artwork(jpg) -> 21 Mb
Psychedelic Rock

~ Contains unreleased studio sessions spanning Pink Floyd's entire career up to Roger Waters leaving the band. Includes booklet of rare photos and early reviews ~

Pink Floyd - Games For May (1999):

Pink Floyd - Games For May (1999) [4CD Box Set]

Tracklist CD1:

1) Lucy Leaves - 2:53
2) King Bee - 3:03

Home Demo London 1966
3) Interstellar Overdrive - 6:20

Studio Sessions London September 1966 'San Francisco' Soundtrack
4) Interstellar Overdrive - 15:11

Sound Techniques Studios London February 27,1967
5) Arnold Layne - 2:54
6) Candy and A Currant Bun - 2:44

Acetates London February 1967
7) Arnold Layne - 2:26
8) Candy and A Currant Bun - 1:53
9) Interstellar Overdrive - 4:51

Studio Session 1967 - 'Tonite let's all make love in London' Soundtrack
10) Interstellar Overdrive - 16:48
11) Nick's Boogie - 11:50

EMIDIsc Acetate April 1967
12) See Emily Play - 2:41

Exact Audio Copy V0.99 prebeta 3 from 28. July 2007

EAC extraction logfile from 9. January 2008, 12:48

Pink Floyd / Games for May

Used drive : LITE-ON CD-RW SOHR-5239V Adapter: 3 ID: 1

Read mode : Secure
Utilize accurate stream : Yes
Defeat audio cache : Yes
Make use of C2 pointers : Yes

Combined read/write offset correction : 0
Overread into Lead-In and Lead-Out : No
Fill up missing offset samples with silence : Yes
Delete leading and trailing silent blocks : No
Null samples used in CRC calculations : No
Used interface : Native Win32 interface for Win NT & 2000
Gap handling : Not detected, thus appended to previous track

Used output format : Internal WAV Routines
Sample format : 44.100 Hz; 16 Bit; Stereo


TOC of the extracted CD

Track | Start | Length | Start sector | End sector
––––––––––––––––––––––––––––-
1 | 0:00.01 | 2:53.26 | 1 | 13001
2 | 2:53.27 | 3:06.40 | 13002 | 26991
3 | 5:59.67 | 6:20.66 | 26992 | 55557
4 | 12:20.58 | 15:12.12 | 55558 | 123969
5 | 27:32.70 | 2:55.37 | 123970 | 137131
6 | 30:28.32 | 2:45.56 | 137132 | 149562
7 | 33:14.13 | 2:27.32 | 149563 | 160619
8 | 35:41.45 | 1:53.61 | 160620 | 169155
9 | 37:35.31 | 4:52.71 | 169156 | 191126
10 | 42:28.27 | 16:49.52 | 191127 | 266853
11 | 59:18.04 | 11:50.33 | 266854 | 320136
12 | 71:08.37 | 2:43.64 | 320137 | 332425


Track 1

Filename M:\Games for May\Track01.wav

Peak level 100.0 %
Track quality 100.0 %
Copy CRC 3DFE541F
Copy OK

Track 2

Filename M:\Games for May\Track02.wav

Peak level 100.0 %
Track quality 100.0 %
Copy CRC 5F7117FC
Copy OK

Track 3

Filename M:\Games for May\Track03.wav

Peak level 100.0 %
Track quality 100.0 %
Copy CRC 82AEC35C
Copy OK

Track 4

Filename M:\Games for May\Track04.wav

Peak level 100.0 %
Track quality 100.0 %
Copy CRC 2AD1769D
Copy OK

Track 5

Filename M:\Games for May\Track05.wav

Peak level 99.9 %
Track quality 100.0 %
Copy CRC B3055C2C
Copy OK

Track 6

Filename M:\Games for May\Track06.wav

Peak level 100.0 %
Track quality 99.8 %
Copy CRC E56C21C0
Copy OK

Track 7

Filename M:\Games for May\Track07.wav

Peak level 100.0 %
Track quality 100.0 %
Copy CRC E7006A5C
Copy OK

Track 8

Filename M:\Games for May\Track08.wav

Peak level 100.0 %
Track quality 99.8 %
Copy CRC 170E723F
Copy OK

Track 9

Filename M:\Games for May\Track09.wav

Peak level 100.0 %
Track quality 99.9 %
Copy CRC 7FF358B0
Copy OK

Track 10

Filename M:\Games for May\Track10.wav

Peak level 100.0 %
Track quality 100.0 %
Copy CRC 489C6A9B
Copy OK

Track 11

Filename M:\Games for May\Track11.wav

Peak level 100.0 %
Track quality 99.9 %
Copy CRC 5F66FBC3
Copy OK

Track 12

Filename M:\Games for May\Track12.wav

Peak level 98.8 %
Track quality 99.8 %
Copy CRC E5550A92
Copy OK

No errors occurred

End of status report


[CUETools log; Date: 20.06.2020 14:18:42; Version: 2.1.4]
Pregap length 00:00:01.
[AccurateRip ID: 001db3aa-011c5ce6-9c11500c] found.
Track [ CRC | V2 ] Status
01 [a800dcdf|eefae425] (0+0/1) No match
02 [22f8a0ae|2d79c241] (0+0/1) No match
03 [2cf39582|c988e4e5] (0+0/1) No match
04 [aa81e8a4|61177dbe] (0+0/1) No match
05 [27cd4653|86cb2c7d] (0+0/1) No match
06 [5e0e86da|39ad8bab] (0+0/1) No match
07 [28de3c9f|4b8bf1db] (0+0/1) No match
08 [f7965fc2|dc9fd9b2] (0+0/1) No match
09 [0eb9daa8|99c6109f] (0+0/1) No match
10 [ac9163c5|1965be3a] (0+0/1) No match
11 [6ebacaee|843c7106] (0+0/1) No match
12 [85693b29|7f1b83d5] (0+0/1) No match
Offsetted by 9:
01 [7ae4f946] (0/1) No match (V2 was not tested)
02 [f00f9681] (0/1) No match (V2 was not tested)
03 [08ae694b] (0/1) No match (V2 was not tested)
04 [1ef58e22] (0/1) No match (V2 was not tested)
05 [4f7f38e5] (0/1) No match (V2 was not tested)
06 [fd7af35d] (0/1) No match (V2 was not tested)
07 [f090a09b] (0/1) No match (V2 was not tested)
08 [7e183400] (0/1) No match (V2 was not tested)
09 [4191e8ea] (0/1) No match (V2 was not tested)
10 [399822ce] (0/1) No match (V2 was not tested)
11 [f6eb5d84] (0/1) No match (V2 was not tested)
12 [2264eb90] (0/1) No match (V2 was not tested)

Track Peak [ CRC32 ] [W/O NULL] [ LOG ]
– 100,0 [142E8471] [CBDEB21F]
01 100,0 [E0AF417F] [3DFE541F] W/O NULL
02 100,0 [698C174D] [5F7117FC] W/O NULL
03 100,0 [BBF4AF32] [82AEC35C] W/O NULL
04 100,0 [D6435B13] [2AD1769D] W/O NULL
05 99,9 [89609C8E] [B3055C2C] W/O NULL
06 100,0 [EE13C458] [E56C21C0] W/O NULL
07 100,0 [6C6D1F80] [E7006A5C] W/O NULL
08 100,0 [9B28B059] [170E723F] W/O NULL
09 100,0 [64824E80] [7FF358B0] W/O NULL
10 100,0 [EFEC172D] [489C6A9B] W/O NULL
11 100,0 [E31FED44] [5F66FBC3] W/O NULL
12 98,8 [C0E8B597] [E5550A92] W/O NULL


Pink Floyd - Games For May (1999) [4CD Box Set]

Tracklist CD2:

Sound Technizues Studios London May 21, 1967
1) See Emily Play - 2:53

USA Single Only August 5, 1967
2) Flaming - 2:45

De Lane Lea Studios London October 1967
3) Vegetable Man - 2:29
4) Scream the Last Scream - 4:37

Abbey Road Studios London November 1967
5) Apples and Oranges - 3:04
6) Paintbox - 3:44

Abbey Road Studios London February 1968
7) It Would Be So Nice - 3:39
8) Julia Dream - 2:34

Sound Techniques Studios London May 1968 from the film' The Committee'
9) Untitled Ecert - 3:21

International Pop Festival Rome Italy May 5,1968
10) Interstellar Overdrive - 6:12

Abey Road Studios London
11) Caefrul With That Axe Eugene - 4:55 November 4,1968
12) Point Me to the Sky - 3:34 December 17, 1968
13) The Embryo - 4:35 Early 1969 Sampler LP 'Picnic'
14) Bidin' My Time - 5:14 July 9, 1969
15) Main Theme 'More' - 3:05 Summer 1969
16) Seabirds - 3:46 Summer 1969
17) Cymbaline - 5:19 Summer 1969

Studio Session Rome, Italy November-December 1969 From the Film 'Zabriskie Point'
18) Heart Beat, Pig Meat - 2:53
19) Come in Number 51, Your Time is Up - 3:52 (AKA Careful With That Axe Eugene) - 3:52

Exact Audio Copy V0.99 prebeta 3 from 28. July 2007

EAC extraction logfile from 9. January 2008, 13:15

Pink Floyd / Games For May

Used drive : LITE-ON CD-RW SOHR-5239V Adapter: 3 ID: 1

Read mode : Secure
Utilize accurate stream : Yes
Defeat audio cache : Yes
Make use of C2 pointers : Yes

Combined read/write offset correction : 0
Overread into Lead-In and Lead-Out : No
Fill up missing offset samples with silence : Yes
Delete leading and trailing silent blocks : No
Null samples used in CRC calculations : No
Used interface : Native Win32 interface for Win NT & 2000
Gap handling : Not detected, thus appended to previous track

Used output format : Internal WAV Routines
Sample format : 44.100 Hz; 16 Bit; Stereo


TOC of the extracted CD

Track | Start | Length | Start sector | End sector
––––––––––––––––––––––––––––-
1 | 0:00.01 | 2:56.42 | 1 | 13242
2 | 2:56.43 | 2:48.50 | 13243 | 25892
3 | 5:45.18 | 2:30.46 | 25893 | 37188
4 | 8:15.64 | 4:38.72 | 37189 | 58110
5 | 12:54.61 | 3:04.23 | 58111 | 71933
6 | 15:59.09 | 3:44.19 | 71934 | 88752
7 | 19:43.28 | 3:41.49 | 88753 | 105376
8 | 23:25.02 | 2:39.40 | 105377 | 117341
9 | 26:04.42 | 3:24.01 | 117342 | 132642
10 | 29:28.43 | 6:14.54 | 132643 | 160746
11 | 35:43.22 | 4:55.63 | 160747 | 182934
12 | 40:39.10 | 3:34.42 | 182935 | 199026
13 | 44:13.52 | 4:37.45 | 199027 | 219846
14 | 48:51.22 | 5:14.38 | 219847 | 243434
15 | 54:05.60 | 3:07.07 | 243435 | 257466
16 | 57:12.67 | 3:47.17 | 257467 | 274508
17 | 61:00.09 | 5:20.09 | 274509 | 298517
18 | 66:20.18 | 2:55.10 | 298518 | 311652
19 | 69:15.28 | 3:53.38 | 311653 | 329165


Track 1

Filename M:\Games for May\Disc 2\Track01.wav

Peak level 94.4 %
Track quality 100.0 %
Copy CRC 98A698CE
Copy OK

Track 2

Filename M:\Games for May\Disc 2\Track02.wav

Peak level 97.2 %
Track quality 100.0 %
Copy CRC 19D27B73
Copy OK

Track 3

Filename M:\Games for May\Disc 2\Track03.wav

Peak level 85.4 %
Track quality 100.0 %
Copy CRC B63A7AB9
Copy OK

Track 4

Filename M:\Games for May\Disc 2\Track04.wav

Peak level 100.0 %
Track quality 100.0 %
Copy CRC A395DE0A
Copy OK

Track 5

Filename M:\Games for May\Disc 2\Track05.wav

Peak level 100.0 %
Track quality 100.0 %
Copy CRC FE41950C
Copy OK

Track 6

Filename M:\Games for May\Disc 2\Track06.wav

Peak level 91.3 %
Track quality 100.0 %
Copy CRC 2BE14528
Copy OK

Track 7

Filename M:\Games for May\Disc 2\Track07.wav

Peak level 100.0 %
Track quality 100.0 %
Copy CRC AAA50C51
Copy OK

Track 8

Filename M:\Games for May\Disc 2\Track08.wav

Peak level 98.8 %
Track quality 100.0 %
Copy CRC C162F183
Copy OK

Track 9

Filename M:\Games for May\Disc 2\Track09.wav

Peak level 96.7 %
Track quality 99.8 %
Copy CRC 65EB3395
Copy OK

Track 10

Filename M:\Games for May\Disc 2\Track10.wav

Peak level 86.8 %
Track quality 100.0 %
Copy CRC F3528F4B
Copy OK

Track 11

Filename M:\Games for May\Disc 2\Track11.wav

Peak level 97.4 %
Track quality 100.0 %
Copy CRC 8AE2E2D0
Copy OK

Track 12

Filename M:\Games for May\Disc 2\Track12.wav

Peak level 92.3 %
Track quality 100.0 %
Copy CRC 8127FD31
Copy OK

Track 13

Filename M:\Games for May\Disc 2\Track13.wav

Peak level 99.7 %
Track quality 100.0 %
Copy CRC 0BC7BD19
Copy OK

Track 14

Filename M:\Games for May\Disc 2\Track14.wav

Peak level 96.7 %
Track quality 100.0 %
Copy CRC B2DC672D
Copy OK

Track 15

Filename M:\Games for May\Disc 2\Track15.wav

Peak level 94.7 %
Track quality 100.0 %
Copy CRC AFC51129
Copy OK

Track 16

Filename M:\Games for May\Disc 2\Track16.wav

Peak level 87.8 %
Track quality 100.0 %
Copy CRC 2C1AF56C
Copy OK

Track 17

Filename M:\Games for May\Disc 2\Track17.wav

Peak level 94.9 %
Track quality 100.0 %
Copy CRC 6F9E7229
Copy OK

Track 18

Filename M:\Games for May\Disc 2\Track18.wav

Peak level 81.0 %
Track quality 100.0 %
Copy CRC DC3DEFF8
Copy OK

Track 19

Filename M:\Games for May\Disc 2\Track19.wav

Peak level 94.1 %
Track quality 100.0 %
Copy CRC 3643CD10
Copy OK

No errors occurred

End of status report


[CUETools log; Date: 20.06.2020 14:22:31; Version: 2.1.4]
Pregap length 00:00:01.
[AccurateRip ID: 002fb9ee-02ab140f-25112413] found.
Track [ CRC | V2 ] Status
01 [f9aaf242|f6913a30] (0+0/1) No match
02 [a41940f3|b3266a88] (0+0/1) No match
03 [bfdbe83b|9e1446b1] (0+0/1) No match
04 [45d45f36|eebecba0] (0+0/1) No match
05 [3ff736f8|122300b0] (0+0/1) No match
06 [5bdc016c|8bff5604] (0+0/1) No match
07 [8288eb3f|99ddb279] (0+0/1) No match
08 [91dd0409|67d27e24] (0+0/1) No match
09 [0309fa2b|bb37ef1b] (0+0/1) No match
10 [1b37e88d|b528ace4] (0+0/1) No match
11 [f1982f3e|e8a22624] (0+0/1) No match
12 [dd72de51|d71c098b] (0+0/1) No match
13 [8048ec41|1525df85] (0+0/1) No match
14 [0862b0dd|5d61ccaa] (0+0/1) No match
15 [0458dc27|6e63eb46] (0+0/1) No match
16 [0d7700de|93901284] (0+0/1) No match
17 [382b0c6f|689c845a] (0+0/1) No match
18 [d7101243|b59294e0] (0+0/1) No match
19 [fe0c7fd3|4025471e] (0+0/1) No match
Offsetted by 9:
01 [a0093f70] (0/1) No match (V2 was not tested)
02 [9e119523] (0/1) No match (V2 was not tested)
03 [b6ff8478] (0/1) No match (V2 was not tested)
04 [9d0c7a62] (0/1) No match (V2 was not tested)
05 [3f056021] (0/1) No match (V2 was not tested)
06 [bb75370a] (0/1) No match (V2 was not tested)
07 [47aaf7cb] (0/1) No match (V2 was not tested)
08 [55c7042b] (0/1) No match (V2 was not tested)
09 [a950fea6] (0/1) No match (V2 was not tested)
10 [d5cb8ab3] (0/1) No match (V2 was not tested)
11 [63dd5952] (0/1) No match (V2 was not tested)
12 [7d5552ef] (0/1) No match (V2 was not tested)
13 [982fbc3b] (0/1) No match (V2 was not tested)
14 [6f5c8358] (0/1) No match (V2 was not tested)
15 [c1d3672b] (0/1) No match (V2 was not tested)
16 [5abc39c7] (0/1) No match (V2 was not tested)
17 [ada35932] (0/1) No match (V2 was not tested)
18 [90bbd2d5] (0/1) No match (V2 was not tested)
19 [67b41442] (0/1) No match (V2 was not tested)

Track Peak [ CRC32 ] [W/O NULL] [ LOG ]
– 100,0 [0915EDB8] [3CCE2BBA]
01 94,4 [8E54576F] [98A698CE] W/O NULL
02 97,2 [7017EC06] [19D27B73] W/O NULL
03 85,4 [F9FE1D7E] [B63A7AB9] W/O NULL
04 100,0 [790423D3] [A395DE0A] W/O NULL
05 100,0 [38E9A9DD] [FE41950C] W/O NULL
06 91,3 [B8166170] [2BE14528] W/O NULL
07 100,0 [9FF244A6] [AAA50C51] W/O NULL
08 98,8 [7879B159] [C162F183] W/O NULL
09 96,7 [77582FF3] [65EB3395] W/O NULL
10 86,8 [A84CCE2A] [F3528F4B] W/O NULL
11 97,4 [ACFA7E32] [8AE2E2D0] W/O NULL
12 92,3 [F0B5A3A2] [8127FD31] W/O NULL
13 99,7 [81B023DE] [0BC7BD19] W/O NULL
14 96,7 [D3441E64] [B2DC672D] W/O NULL
15 94,7 [E2BACAB1] [AFC51129] W/O NULL
16 87,8 [57C6A2B7] [2C1AF56C] W/O NULL
17 94,9 [D48FC2F6] [6F9E7229] W/O NULL
18 81,0 [693F3BE9] [DC3DEFF8] W/O NULL
19 94,1 [846ACA35] [3643CD10] W/O NULL


Pink Floyd - Games For May (1999) [4CD Box Set]

Tracklist CD3:

Studio Sessions Rome, Italy Nov.-Dec. 1969 'Zabriskie Point' Soundtrack
1)Come in Number 51, Your Time is Up - 3:52 (AKA Careful With That Axe Eugene)
2) Crumbling Land - 4:13
3) Heat Beat, Pig meat - 3:10

Studio Sessions Rome, iIaly Nov,-Dec. 1969 'Zabriskie Point' Out-Takes
4) Untitiled - 6:00
5) Country Song - 4:37
6) Love Scene #1 - 7:26
7) Love Scene #2 - 6:45
8) Untitled - 6:18 (aka Oenone)
9) Untitled - 1:49 (aka Fingal's Cave)

Holland Pop Festival Rotterdam june 28, 1970
10) Set The Controls for the Heart of the Sun - 2:51
11) A Saucerful of Secrets - 6:03

Studio Sessions London Spring-Summer 1971 'Meddle' Out-Takes
12) One of These Days #1 - 4:32
13) One of These Days #2 - 6:30

Exact Audio Copy V0.99 prebeta 3 from 28. July 2007

EAC extraction logfile from 9. January 2008, 14:11

Unknown Artist / Unknown Title

Used drive : LITE-ON CD-RW SOHR-5239V Adapter: 3 ID: 1

Read mode : Secure
Utilize accurate stream : Yes
Defeat audio cache : Yes
Make use of C2 pointers : Yes

Combined read/write offset correction : 0
Overread into Lead-In and Lead-Out : No
Fill up missing offset samples with silence : Yes
Delete leading and trailing silent blocks : No
Null samples used in CRC calculations : No
Used interface : Native Win32 interface for Win NT & 2000
Gap handling : Not detected, thus appended to previous track

Used output format : Internal WAV Routines
Sample format : 44.100 Hz; 16 Bit; Stereo


TOC of the extracted CD

Track | Start | Length | Start sector | End sector
––––––––––––––––––––––––––––-
1 | 0:00.01 | 5:02.48 | 1 | 22698
2 | 5:02.49 | 4:16.37 | 22699 | 41935
3 | 9:19.11 | 3:14.32 | 41936 | 56517
4 | 12:33.43 | 5:49.62 | 56518 | 82754
5 | 18:23.30 | 4:39.14 | 82755 | 103693
6 | 23:02.44 | 7:27.17 | 103694 | 137235
7 | 30:29.61 | 6:45.17 | 137236 | 167627
8 | 37:15.03 | 6:19.62 | 167628 | 196114
9 | 43:34.65 | 1:51.53 | 196115 | 204492
10 | 45:26.43 | 2:53.41 | 204493 | 217508
11 | 48:20.09 | 6:04.42 | 217509 | 244850
12 | 54:24.51 | 4:36.15 | 244851 | 265565
13 | 59:00.66 | 6:34.45 | 265566 | 295160


Track 1

Filename M:\Games for May\Disc 3\Track01.wav

Peak level 92.1 %
Track quality 100.0 %
Copy CRC BA31EEDC
Copy OK

Track 2

Filename M:\Games for May\Disc 3\Track02.wav

Peak level 82.3 %
Track quality 100.0 %
Copy CRC 6455F7B4
Copy OK

Track 3

Filename M:\Games for May\Disc 3\Track03.wav

Peak level 61.2 %
Track quality 100.0 %
Copy CRC 4ED80A4D
Copy OK

Track 4

Filename M:\Games for May\Disc 3\Track04.wav

Peak level 85.3 %
Track quality 100.0 %
Copy CRC 8F96FCD9
Copy OK

Track 5

Filename M:\Games for May\Disc 3\Track05.wav

Peak level 91.2 %
Track quality 100.0 %
Copy CRC 798C8BF7
Copy OK

Track 6

Filename M:\Games for May\Disc 3\Track06.wav

Peak level 88.1 %
Track quality 100.0 %
Copy CRC 29B16315
Copy OK

Track 7

Filename M:\Games for May\Disc 3\Track07.wav

Peak level 67.5 %
Track quality 100.0 %
Copy CRC 321F0CDA
Copy OK

Track 8

Filename M:\Games for May\Disc 3\Track08.wav

Peak level 88.6 %
Track quality 100.0 %
Copy CRC DDBA5B99
Copy OK

Track 9

Filename M:\Games for May\Disc 3\Track09.wav

Peak level 87.8 %
Track quality 100.0 %
Copy CRC 3C51FC1C
Copy OK

Track 10

Filename M:\Games for May\Disc 3\Track10.wav

Peak level 90.5 %
Track quality 100.0 %
Copy CRC C9A78C6A
Copy OK

Track 11

Filename M:\Games for May\Disc 3\Track11.wav

Peak level 75.5 %
Track quality 100.0 %
Copy CRC 6B773975
Copy OK

Track 12

Filename M:\Games for May\Disc 3\Track12.wav

Peak level 94.5 %
Track quality 100.0 %
Copy CRC E1B1BEEF
Copy OK

Track 13

Filename M:\Games for May\Disc 3\Track13.wav

Peak level 85.2 %
Track quality 99.9 %
Copy CRC 9253CC6F
Copy OK

No errors occurred

End of status report


[CUETools log; Date: 20.06.2020 14:29:00; Version: 2.1.4]
Pregap length 00:00:01.
[AccurateRip ID: 001f11c2-013832fa-a60f5f0d] found.
Track [ CRC | V2 ] Status
01 [41e5151d|a476acad] (0+0/1) No match
02 [d877fb1e|fe5b4362] (0+0/1) No match
03 [fcc5873f|4f350293] (0+0/1) No match
04 [8236ccee|2641dbc5] (0+0/1) No match
05 [6a479912|6617ef78] (0+0/1) No match
06 [216d2bdf|454f3339] (0+0/1) No match
07 [5438d45a|e24185e3] (0+0/1) No match
08 [0fc8da99|81669f54] (0+0/1) No match
09 [27bc5ee4|4c25e841] (0+0/1) No match
10 [3024a3a7|c4ed5499] (0+0/1) No match
11 [5f89ef2b|e7ed5a34] (0+0/1) No match
12 [85ab9d28|26c522f2] (0+0/1) No match
13 [634900da|22d53e92] (0+0/1) No match
Offsetted by -640:
01 [7d163b21] (0/1) No match (V2 was not tested)
02 [a03da91c] (0/1) No match (V2 was not tested)
03 [4e7cafff] (0/1) No match (V2 was not tested)
04 [dea73c11] (0/1) No match (V2 was not tested)
05 [668117f3] (0/1) No match (V2 was not tested)
06 [af6bb495] (0/1) No match (V2 was not tested)
07 [ddeeeb8f] (0/1) No match (V2 was not tested)
08 [1e35b03d] (0/1) No match (V2 was not tested)
09 [d9d761dd] (0/1) No match (V2 was not tested)
10 [8705b3f0] (0/1) No match (V2 was not tested)
11 [a0d13217] (0/1) No match (V2 was not tested)
12 [04eb1d90] (0/1) No match (V2 was not tested)
13 [7d7e5613] (0/1) No match (V2 was not tested)

Track Peak [ CRC32 ] [W/O NULL] [ LOG ]
– 94,5 [4FD9AD48] [87FBEB18]
01 92,1 [198B09B2] [BA31EEDC] W/O NULL
02 82,3 [45B98038] [6455F7B4] W/O NULL
03 61,2 [D5C2D628] [4ED80A4D] W/O NULL
04 85,3 [593B0B20] [8F96FCD9] W/O NULL
05 91,2 [7C8BDC70] [798C8BF7] W/O NULL
06 88,1 [8DDCFDAE] [29B16315] W/O NULL
07 67,5 [1A0132E7] [321F0CDA] W/O NULL
08 88,6 [407AC980] [DDBA5B99] W/O NULL
09 87,8 [2EFCD084] [3C51FC1C] W/O NULL
10 90,5 [3DD164B2] [C9A78C6A] W/O NULL
11 75,5 [87155621] [6B773975] W/O NULL
12 94,5 [13F63917] [E1B1BEEF] W/O NULL
13 85,2 [49A6447A] [9253CC6F] W/O NULL


Pink Floyd - Games For May (1999) [4CD Box Set]

Tracklist CD4:

Studio Sessions London Spring-Summer 1971 'Meddle' Out-Takes
1) Echoes - 20:20

Out-Takes from 'Pompeii' Soundtrack October 4-7, 1971
2) Opening Sequence - 3:53
3) Mademoiselle Knobs - 1:47 (aka Seamus)

Studio Sessions London 1972 'Dark Side of the Moon' Out-Takes with interview
4) Brain Damage - 1:58
5) Us and Them - 7:05
6) On the Run - 3:19

Studio Sessions London 1972 'Dark Side of the Moon' Out-Takes
7) Money - 1:40
8) Time - 6:05
9) Brain Damage - 3:23
10) Us and Them - 5:27

Studio Sessions London 1974 Nick Mason Christmas Single
11) Here Comes Santa - 2:11

Abbey Road Studios London February 1975 'Wish You Were Here' Out-Take
12) Shine On You Crazy Diamond - 6:30

Britannia Row Studios London Late 1976 'Animals' Out-Take
13) Pigs on a Wing Parts 1&2 - 3:31

Studio Session London April-November 1979 'The Wall' Out-Take
14) Comfortabley Numb - 2:35

Exact Audio Copy V0.99 prebeta 3 from 28. July 2007

EAC extraction logfile from 9. January 2008, 14:33

Pink Floyd / Games for May

Used drive : LITE-ON CD-RW SOHR-5239V Adapter: 3 ID: 1

Read mode : Secure
Utilize accurate stream : Yes
Defeat audio cache : Yes
Make use of C2 pointers : Yes

Combined read/write offset correction : 0
Overread into Lead-In and Lead-Out : No
Fill up missing offset samples with silence : Yes
Delete leading and trailing silent blocks : No
Null samples used in CRC calculations : No
Used interface : Native Win32 interface for Win NT & 2000
Gap handling : Not detected, thus appended to previous track

Used output format : Internal WAV Routines
Sample format : 44.100 Hz; 16 Bit; Stereo


TOC of the extracted CD

Track | Start | Length | Start sector | End sector
––––––––––––––––––––––––––––-
1 | 0:00.01 | 20:21.54 | 1 | 91629
2 | 20:21.55 | 3:34.73 | 91630 | 107752
3 | 23:56.53 | 1:47.63 | 107753 | 115840
4 | 25:44.41 | 1:58.62 | 115841 | 124752
5 | 27:43.28 | 7:06.49 | 124753 | 156751
6 | 34:50.02 | 3:19.51 | 156752 | 171727
7 | 38:09.53 | 1:41.33 | 171728 | 179335
8 | 39:51.11 | 6:06.26 | 179336 | 206811
9 | 45:57.37 | 3:24.47 | 206812 | 222158
10 | 49:22.09 | 5:27.35 | 222159 | 246718
11 | 54:49.44 | 2:11.69 | 246719 | 256612
12 | 57:01.38 | 6:31.38 | 256613 | 285975
13 | 63:33.01 | 3:32.64 | 285976 | 301939
14 | 67:05.65 | 2:37.50 | 301940 | 313764


Track 1

Filename M:\Games for May\Disc 4\Track01.wav

Peak level 100.0 %
Track quality 99.9 %
Copy CRC 2089E928
Copy OK

Track 2

Filename M:\Games for May\Disc 4\Track02.wav

Peak level 100.0 %
Track quality 100.0 %
Copy CRC C6149A84
Copy OK

Track 3

Filename M:\Games for May\Disc 4\Track03.wav

Peak level 89.5 %
Track quality 100.0 %
Copy CRC 68C5F2C7
Copy OK

Track 4

Filename M:\Games for May\Disc 4\Track04.wav

Peak level 100.0 %
Track quality 100.0 %
Copy CRC 3E81B4C6
Copy OK

Track 5

Filename M:\Games for May\Disc 4\Track05.wav

Peak level 99.0 %
Track quality 100.0 %
Copy CRC F8FAC2E3
Copy OK

Track 6

Filename M:\Games for May\Disc 4\Track06.wav

Peak level 100.0 %
Track quality 100.0 %
Copy CRC 71882964
Copy OK

Track 7

Filename M:\Games for May\Disc 4\Track07.wav

Peak level 93.3 %
Track quality 100.0 %
Copy CRC CE944ACA
Copy OK

Track 8

Filename M:\Games for May\Disc 4\Track08.wav

Peak level 100.0 %
Track quality 100.0 %
Copy CRC BFC68D9B
Copy OK

Track 9

Filename M:\Games for May\Disc 4\Track09.wav

Peak level 100.0 %
Track quality 99.8 %
Copy CRC AB271B43
Copy OK

Track 10

Filename M:\Games for May\Disc 4\Track10.wav

Peak level 100.0 %
Track quality 100.0 %
Copy CRC 9D5F3C37
Copy OK

Track 11

Filename M:\Games for May\Disc 4\Track11.wav

Peak level 100.0 %
Track quality 100.0 %
Copy CRC 304F1457
Copy OK

Track 12

Filename M:\Games for May\Disc 4\Track12.wav

Peak level 100.0 %
Track quality 100.0 %
Copy CRC 82E7B76F
Copy OK

Track 13

Filename M:\Games for May\Disc 4\Track13.wav

Peak level 100.0 %
Track quality 100.0 %
Copy CRC 3DE6686E
Copy OK

Track 14

Filename M:\Games for May\Disc 4\Track14.wav

Peak level 93.9 %
Track quality 100.0 %
Copy CRC 1402CDD8
Copy OK

No errors occurred

End of status report


[CUETools log; Date: 20.06.2020 14:29:51; Version: 2.1.4]
Pregap length 00:00:01.
[AccurateRip ID: 002a7252-01a6a4ff-cd10570e] found.
Track [ CRC | V2 ] Status
01 [d460da98|9a18d488] (0+0/1) No match
02 [aa108fef|b814b19e] (0+0/1) No match
03 [3f7f7e6e|f039603b] (0+0/1) No match
04 [6320001d|3b342d81] (0+0/1) No match
05 [b36972d5|4c0b77fa] (0+0/1) No match
06 [81105c32|da41e208] (0+0/1) No match
07 [c9f71166|45afa0fc] (0+0/1) No match
08 [3d07ea50|32b22d26] (0+0/1) No match
09 [7bc17f31|e93279f7] (0+0/1) No match
10 [af1078e4|23701fa8] (0+0/1) No match
11 [300a1c2c|098bb17f] (0+0/1) No match
12 [f3be1aae|633f6a71] (0+0/1) No match
13 [4a175802|7dd31379] (0+0/1) No match
14 [f245ddd5|b8599e41] (0+0/1) No match
Offsetted by 9:
01 [78086cec] (0/1) No match (V2 was not tested)
02 [1c32ec4d] (0/1) No match (V2 was not tested)
03 [f4fc79a4] (0/1) No match (V2 was not tested)
04 [55e558aa] (0/1) No match (V2 was not tested)
05 [a7f70e9c] (0/1) No match (V2 was not tested)
06 [dd26d2aa] (0/1) No match (V2 was not tested)
07 [8f30a891] (0/1) No match (V2 was not tested)
08 [d08879ff] (0/1) No match (V2 was not tested)
09 [9ffa8faa] (0/1) No match (V2 was not tested)
10 [2d725402] (0/1) No match (V2 was not tested)
11 [e1cf824d] (0/1) No match (V2 was not tested)
12 [b177f1ae] (0/1) No match (V2 was not tested)
13 [34f5a143] (0/1) No match (V2 was not tested)
14 [3c2b23e5] (0/1) No match (V2 was not tested)

Track Peak [ CRC32 ] [W/O NULL] [ LOG ]
– 100,0 [ACF67FCC] [BD2657EB]
01 100,0 [3C390B79] [2089E928] W/O NULL
02 100,0 [8F06CC03] [C6149A84] W/O NULL
03 89,5 [004C7604] [68C5F2C7] W/O NULL
04 100,0 [E2931078] [3E81B4C6] W/O NULL
05 99,0 [343CC94C] [F8FAC2E3] W/O NULL
06 100,0 [F588E81F] [71882964] W/O NULL
07 93,3 [34DC15D5] [CE944ACA] W/O NULL
08 100,0 [8D87E8C2] [BFC68D9B] W/O NULL
09 100,0 [8A610599] [AB271B43] W/O NULL
10 100,0 [DB77F09A] [9D5F3C37] W/O NULL
11 100,0 [7B79F9F6] [304F1457] W/O NULL
12 100,0 [815962CA] [82E7B76F] W/O NULL
13 100,0 [5D9F3F1D] [3DE6686E] W/O NULL
14 93,9 [27077054] [1402CDD8] W/O NULL


Pink Floyd - Games For May (1999) [4CD Box Set]

All thanks go to the original releaser

Pink Floyd in my Blog

Download Pink Floyd - Games For May (1999):