Subcategories

Pink Floyd - Shine' On (1992) [9CD Box Set] Re-up

Posted By: v3122
Pink Floyd - Shine' On (1992) [9CD Box Set] Re-up

Pink Floyd - Shine' On (1992) [9CD Box Set]
Rock/Pshychedelic/Progressive | EAC Rip | Flac(Image) + Cue + Log & MP3 CBR 320Kbps | Art -> 50 Mb
Covers(300 dpi) Included | EMI | 7805572 | ~2.13 + 1.08 Gb

Box sets are difficult phenomena. Their cost is often prohibitive, and the weight of outtakes, alternate takes, chronological corrections, and myriad other completist elements make them sometimes less listenable than the original recordings. But this mammoth nine-CD package is a different breed of cat. It collects a smattering of early Pink Floyd, including the great hits and misses caught on Relics, A Saucerful of Secrets, and Meddle, and then moves into the band's great period, with Dark Side of the Moon and their first Sony titles, Wish You Were Here and Animals. Their development from early psychedelicists to producers of suite-length musical ponderings is great to witness. And it's even more fascinating to see where the band went with what they'd learned by 1977. To that end, the set includes The Wall in its entirety as well as A Momentary Lapse of Reason. No doubt about it, this is a huge investment, but the packaging, thoroughness, intent, and impact all warrant that even casual fans should make the leap ahead into the fullness this box offers.

~ Andrew Bartlett
Pink Floyd - Shine' On (1992) [9CD Box Set] Re-up

––––––––––––––––––––––––––––––-

Pink Floyd - Shine' On (1992) [9CD Box Set] Re-up

CD01: Pink Floyd - A Saucerful Of Secrets
Rock/Pshychedelic/Progressive | EAC Rip | Flac(Image) + Cue + Log & MP3 CBR 320Kbps
Covers(300 dpi) Included | EMI | 0777 7 80564 2 3 | ~208 + 113 Mb

Tracklist:

01 - Let There Be More Light
02 - Remember A Day
03 - Set The Controls For The Heart Of The Sun
04 - Corporal Clegg
05 - A Saucerful Of Secrets
06 - See-Saw
07 - Jugband Blues

Converted to Image (CUETools 2.1.4)

Exact Audio Copy V0.99 prebeta 4 from 23. January 2008

EAC extraction logfile from 27. March 2009, 21:43

Pink Floyd / A Saucerful Of Secrets

Used drive : PLEXTOR CD-R PX-320A Adapter: 1 ID: 0

Read mode : Secure
Utilize accurate stream : Yes
Defeat audio cache : Yes
Make use of C2 pointers : No

Read offset correction : 98
Overread into Lead-In and Lead-Out : No
Fill up missing offset samples with silence : Yes
Delete leading and trailing silent blocks : No
Null samples used in CRC calculations : Yes
Used interface : Native Win32 interface for Win NT & 2000
Gap handling : Appended to previous track

Used output format : User Defined Encoder
Selected bitrate : 128 kBit/s
Quality : High
Add ID3 tag : No
Command line compressor : E:\Program Files\FLAC\flac.exe
Additional command line options : -8 -V -T "ARTIST=%a" -T "TITLE=%t" -T "ALBUM=%g" -T "DATE=%y" -T "TRACKNUMBER=%n" -T "GENRE=%m" -T "COMMENT=EAC FLAC -8" %s


TOC of the extracted CD

Track | Start | Length | Start sector | End sector
––––––––––––––––––––––––––––-
1 | 0:00.33 | 5:38.47 | 33 | 25429
2 | 5:39.05 | 4:33.10 | 25430 | 45914
3 | 10:12.15 | 5:27.18 | 45915 | 70457
4 | 15:39.33 | 4:12.05 | 70458 | 89362
5 | 19:51.38 | 11:59.50 | 89363 | 143337
6 | 31:51.13 | 4:36.70 | 143338 | 164107
7 | 36:28.08 | 3:00.07 | 164108 | 177614


Track 1

Filename E:\RELIZZZ\Pink Floyd - Shine' On Box Set (1992) [FLAC]\Pink Floyd - Shine' On Box Set (1992) [FLAC] {CD1 of 9 - A Saucerful Of Secrets }\01 - Let There Be More Light.wav

Pre-gap length 0:00:02.44

Peak level 86.7 %
Track quality 100.0 %
Test CRC 54044D9C
Copy CRC 54044D9C
Accurately ripped (confidence 2) [D09EDED7]
Copy OK

Track 2

Filename E:\RELIZZZ\Pink Floyd - Shine' On Box Set (1992) [FLAC]\Pink Floyd - Shine' On Box Set (1992) [FLAC] {CD1 of 9 - A Saucerful Of Secrets }\02 - Remember A Day.wav

Pre-gap length 0:00:04.17

Peak level 70.8 %
Track quality 100.0 %
Test CRC 5F6274CA
Copy CRC 5F6274CA
Accurately ripped (confidence 2) [5F643738]
Copy OK

Track 3

Filename E:\RELIZZZ\Pink Floyd - Shine' On Box Set (1992) [FLAC]\Pink Floyd - Shine' On Box Set (1992) [FLAC] {CD1 of 9 - A Saucerful Of Secrets }\03 - Set The Controls For The Heart Of The Sun.wav

Pre-gap length 0:00:03.80

Peak level 82.7 %
Track quality 100.0 %
Test CRC 7CDE1672
Copy CRC 7CDE1672
Accurately ripped (confidence 2) [43C9A48B]
Copy OK

Track 4

Filename E:\RELIZZZ\Pink Floyd - Shine' On Box Set (1992) [FLAC]\Pink Floyd - Shine' On Box Set (1992) [FLAC] {CD1 of 9 - A Saucerful Of Secrets }\04 - Corporal Clegg.wav

Pre-gap length 0:00:03.70

Peak level 86.8 %
Track quality 100.0 %
Test CRC 9D5E6E18
Copy CRC 9D5E6E18
Accurately ripped (confidence 2) [01E19182]
Copy OK

Track 5

Filename E:\RELIZZZ\Pink Floyd - Shine' On Box Set (1992) [FLAC]\Pink Floyd - Shine' On Box Set (1992) [FLAC] {CD1 of 9 - A Saucerful Of Secrets }\05 - A Saucerful Of Secrets.wav

Pre-gap length 0:00:02.77

Peak level 86.7 %
Track quality 100.0 %
Test CRC 936830EA
Copy CRC 936830EA
Accurately ripped (confidence 2) [C0255163]
Copy OK

Track 6

Filename E:\RELIZZZ\Pink Floyd - Shine' On Box Set (1992) [FLAC]\Pink Floyd - Shine' On Box Set (1992) [FLAC] {CD1 of 9 - A Saucerful Of Secrets }\06 - See-Saw.wav

Pre-gap length 0:00:04.06

Peak level 89.2 %
Track quality 99.9 %
Test CRC B731EEE7
Copy CRC B731EEE7
Accurately ripped (confidence 2) [70748418]
Copy OK

Track 7

Filename E:\RELIZZZ\Pink Floyd - Shine' On Box Set (1992) [FLAC]\Pink Floyd - Shine' On Box Set (1992) [FLAC] {CD1 of 9 - A Saucerful Of Secrets }\07 - Jugband Blues.wav

Pre-gap length 0:00:03.62

Peak level 54.4 %
Track quality 100.0 %
Test CRC 09F62C68
Copy CRC 09F62C68
Cannot be verified as accurate (confidence 81) [A493B775], AccurateRip returned [09D6E0A9]
Copy OK


6 track(s) accurately ripped
1 track(s) could not be verified as accurate

Some tracks could not be verified as accurate

No errors occurred

End of status report

AUDIOCHECKER v2.0 beta (build 457) - by Dester - opdester@freemail.hu
~~~~~~~~~~~~~~~~~~~~~~~~~~~~~~~~~~
-=== DO NOT EDIT THIS FILE! ===-

Path: …\Pink Floyd - Shine' On Box Set (1992) [FLAC] {CD1 of 9 - A Saucerful Of Secrets }

01 -=- 01 - Let There Be More Light.flac -=- CDDA (99%)
02 -=- 02 - Remember A Day.flac -=- CDDA (100%)
03 -=- 03 - Set The Controls For The Heart Of The Sun.flac -=- CDDA (94%)
04 -=- 04 - Corporal Clegg.flac -=- CDDA (100%)
05 -=- 05 - A Saucerful Of Secrets.flac -=- CDDA (100%)
06 -=- 06 - See-Saw.flac -=- CDDA (99%)
07 -=- 07 - Jugband Blues.flac -=- CDDA (99%)

Summary 98,71% CDDA

209433204

––––––––––––––––––––––––––––––-

Pink Floyd - Shine' On (1992) [9CD Box Set] Re-up

CD02: Pink Floyd - Meddle
Rock/Pshychedelic/Progressive | EAC Rip | Flac(Image) + Cue + Log & MP3 CBR 320Kbps
Covers(300 dpi) Included | EMI | 0777 7 80565 2 2 | ~259 + 131 Mb


Tracklist:

01 - One of These Days
02 - A Pillow of Winds
03 - Fearless
04 - San Tropez
05 - Seamus
06 - Echoes

Converted to Image (CUETools 2.1.4)

Exact Audio Copy V0.99 prebeta 4 from 23. January 2008

EAC extraction logfile from 28. March 2009, 8:09

Pink Floyd / Meddle

Used drive : PLEXTOR CD-R PX-320A Adapter: 1 ID: 0

Read mode : Secure
Utilize accurate stream : Yes
Defeat audio cache : Yes
Make use of C2 pointers : No

Read offset correction : 98
Overread into Lead-In and Lead-Out : No
Fill up missing offset samples with silence : Yes
Delete leading and trailing silent blocks : No
Null samples used in CRC calculations : Yes
Used interface : Native Win32 interface for Win NT & 2000
Gap handling : Appended to previous track

Used output format : User Defined Encoder
Selected bitrate : 128 kBit/s
Quality : High
Add ID3 tag : No
Command line compressor : E:\Program Files\FLAC\flac.exe
Additional command line options : -8 -V -T "ARTIST=%a" -T "TITLE=%t" -T "ALBUM=%g" -T "DATE=%y" -T "TRACKNUMBER=%n" -T "GENRE=%m" -T "COMMENT=EAC FLAC -8" %s


TOC of the extracted CD

Track | Start | Length | Start sector | End sector
––––––––––––––––––––––––––––-
1 | 0:00.33 | 5:58.55 | 33 | 26937
2 | 5:59.13 | 5:11.12 | 26938 | 50274
3 | 11:10.25 | 6:09.15 | 50275 | 77964
4 | 17:19.40 | 3:44.30 | 77965 | 94794
5 | 21:03.70 | 2:16.48 | 94795 | 105042
6 | 23:20.43 | 23:31.37 | 105043 | 210904


Track 1

Filename E:\RELIZZZ\Pink Floyd - Shine' On Box Set (1992) [FLAC]\Pink Floyd - Shine' On Box Set (1992) [FLAC] {CD2 of 9 - Meddle}\01 - One of These Days.wav

Pre-gap length 0:00:02.44

Peak level 82.2 %
Track quality 100.0 %
Test CRC 6A2A09AF
Copy CRC 6A2A09AF
Accurately ripped (confidence 10) [2764CE2B]
Copy OK

Track 2

Filename E:\RELIZZZ\Pink Floyd - Shine' On Box Set (1992) [FLAC]\Pink Floyd - Shine' On Box Set (1992) [FLAC] {CD2 of 9 - Meddle}\02 - A Pillow of Winds.wav

Pre-gap length 0:00:00.04

Peak level 56.5 %
Track quality 99.9 %
Test CRC 15AF2DFA
Copy CRC 15AF2DFA
Accurately ripped (confidence 10) [75E41051]
Copy OK

Track 3

Filename E:\RELIZZZ\Pink Floyd - Shine' On Box Set (1992) [FLAC]\Pink Floyd - Shine' On Box Set (1992) [FLAC] {CD2 of 9 - Meddle}\03 - Fearless.wav

Pre-gap length 0:00:03.69

Peak level 97.7 %
Track quality 100.0 %
Test CRC 8A1D9DFC
Copy CRC 8A1D9DFC
Accurately ripped (confidence 10) [9A38EFB7]
Copy OK

Track 4

Filename E:\RELIZZZ\Pink Floyd - Shine' On Box Set (1992) [FLAC]\Pink Floyd - Shine' On Box Set (1992) [FLAC] {CD2 of 9 - Meddle}\04 - San Tropez.wav

Pre-gap length 0:00:04.53

Peak level 96.8 %
Track quality 100.0 %
Test CRC F2FEED74
Copy CRC F2FEED74
Accurately ripped (confidence 10) [48E5597C]
Copy OK

Track 5

Filename E:\RELIZZZ\Pink Floyd - Shine' On Box Set (1992) [FLAC]\Pink Floyd - Shine' On Box Set (1992) [FLAC] {CD2 of 9 - Meddle}\05 - Seamus.wav

Pre-gap length 0:00:03.74

Peak level 42.8 %
Track quality 100.0 %
Test CRC 8B9409E0
Copy CRC 8B9409E0
Accurately ripped (confidence 10) [A1960F5C]
Copy OK

Track 6

Filename E:\RELIZZZ\Pink Floyd - Shine' On Box Set (1992) [FLAC]\Pink Floyd - Shine' On Box Set (1992) [FLAC] {CD2 of 9 - Meddle}\06 - Echoes.wav

Pre-gap length 0:00:03.36

Peak level 97.7 %
Track quality 100.0 %
Test CRC AE4A98E9
Copy CRC AE4A98E9
Accurately ripped (confidence 9) [4F9EF187]
Copy OK


All tracks accurately ripped

No errors occurred

End of status report

AUDIOCHECKER v2.0 beta (build 457) - by Dester - opdester@freemail.hu
~~~~~~~~~~~~~~~~~~~~~~~~~~~~~~~~~~
-=== DO NOT EDIT THIS FILE! ===-

Path: …\Pink Floyd - Shine' On Box Set (1992) [FLAC] {CD2 of 9 - Meddle}

01 -=- 01 - One of These Days.flac -=- CDDA (100%)
02 -=- 02 - A Pillow of Winds.flac -=- CDDA (100%)
03 -=- 03 - Fearless.flac -=- CDDA (100%)
04 -=- 04 - San Tropez.flac -=- CDDA (100%)
05 -=- 05 - Seamus.flac -=- CDDA (100%)
06 -=- 06 - Echoes.flac -=- CDDA (100%)

Summary 100,00% CDDA

84212884

––––––––––––––––––––––––––––––-

Pink Floyd - Shine' On (1992) [9CD Box Set] Re-up

CD03: Pink Floyd - The Dark Side Of The Moon
Rock/Pshychedelic/Progressive | EAC Rip | Flac(Image) + Cue + Log & MP3 CBR 320Kbps
Covers(300 dpi) Included | EMI | 0777 7 80566 2 1 | ~274 + 118 Mb

Tracklist:

01 - Speak To Me,Breathe In The Air
02 - On The Run
03 - Time
04 - The Great Gig In The Sky
05 - Money
06 - Us And Them
07 - Any Colour You Like
08 - Brain Damage
09 - Eclipse

Converted to Image (CUETools 2.1.4)

Exact Audio Copy V0.99 prebeta 4 from 23. January 2008

EAC extraction logfile from 28. March 2009, 21:10

Pink Floyd / The Dark Side Of The Moon

Used drive : PLEXTOR CD-R PX-320A Adapter: 1 ID: 0

Read mode : Secure
Utilize accurate stream : Yes
Defeat audio cache : Yes
Make use of C2 pointers : No

Read offset correction : 98
Overread into Lead-In and Lead-Out : No
Fill up missing offset samples with silence : Yes
Delete leading and trailing silent blocks : No
Null samples used in CRC calculations : Yes
Used interface : Native Win32 interface for Win NT & 2000
Gap handling : Appended to previous track

Used output format : User Defined Encoder
Selected bitrate : 128 kBit/s
Quality : High
Add ID3 tag : No
Command line compressor : E:\Program Files\FLAC\flac.exe
Additional command line options : -8 -V -T "ARTIST=%a" -T "TITLE=%t" -T "ALBUM=%g" -T "DATE=%y" -T "TRACKNUMBER=%n" -T "GENRE=%m" -T "COMMENT=EAC FLAC -8" %s


TOC of the extracted CD

Track | Start | Length | Start sector | End sector
––––––––––––––––––––––––––––-
1 | 0:00.33 | 3:57.60 | 33 | 17867
2 | 3:58.18 | 3:35.00 | 17868 | 33992
3 | 7:33.18 | 7:04.60 | 33993 | 65852
4 | 14:38.03 | 4:47.05 | 65853 | 87382
5 | 19:25.08 | 6:22.35 | 87383 | 116067
6 | 25:47.43 | 7:50.20 | 116068 | 151337
7 | 33:37.63 | 3:25.50 | 151338 | 166762
8 | 37:03.38 | 3:50.37 | 166763 | 184049
9 | 40:54.00 | 2:01.18 | 184050 | 193142


Track 1

Filename E:\RELIZZZ\Pink Floyd - Shine' On Box Set (1992) [FLAC]\Pink Floyd - Shine' On Box Set (1992) [FLAC] {CD3 of 9 - The Dark Side Of The Moon}\01 - Speak To Me,Breathe In The Air.wav

Pre-gap length 0:00:02.44

Peak level 87.8 %
Track quality 100.0 %
Test CRC 53809F6B
Copy CRC 53809F6B
Accurately ripped (confidence 4) [7049A1AA]
Copy OK

Track 2

Filename E:\RELIZZZ\Pink Floyd - Shine' On Box Set (1992) [FLAC]\Pink Floyd - Shine' On Box Set (1992) [FLAC] {CD3 of 9 - The Dark Side Of The Moon}\02 - On The Run.wav

Peak level 94.7 %
Track quality 100.0 %
Test CRC 2967540B
Copy CRC 2967540B
Accurately ripped (confidence 4) [939F1BCF]
Copy OK

Track 3

Filename E:\RELIZZZ\Pink Floyd - Shine' On Box Set (1992) [FLAC]\Pink Floyd - Shine' On Box Set (1992) [FLAC] {CD3 of 9 - The Dark Side Of The Moon}\03 - Time.wav

Peak level 100.0 %
Track quality 100.0 %
Test CRC D1990C12
Copy CRC D1990C12
Accurately ripped (confidence 4) [62EDC73E]
Copy OK

Track 4

Filename E:\RELIZZZ\Pink Floyd - Shine' On Box Set (1992) [FLAC]\Pink Floyd - Shine' On Box Set (1992) [FLAC] {CD3 of 9 - The Dark Side Of The Moon}\04 - The Great Gig In The Sky.wav

Peak level 97.2 %
Track quality 100.0 %
Test CRC 4C3EA05E
Copy CRC 4C3EA05E
Accurately ripped (confidence 4) [687CBD7B]
Copy OK

Track 5

Filename E:\RELIZZZ\Pink Floyd - Shine' On Box Set (1992) [FLAC]\Pink Floyd - Shine' On Box Set (1992) [FLAC] {CD3 of 9 - The Dark Side Of The Moon}\05 - Money.wav

Peak level 100.0 %
Track quality 100.0 %
Test CRC 47F1D407
Copy CRC 47F1D407
Accurately ripped (confidence 4) [62ED246B]
Copy OK

Track 6

Filename E:\RELIZZZ\Pink Floyd - Shine' On Box Set (1992) [FLAC]\Pink Floyd - Shine' On Box Set (1992) [FLAC] {CD3 of 9 - The Dark Side Of The Moon}\06 - Us And Them.wav

Peak level 99.1 %
Track quality 100.0 %
Test CRC F0110C93
Copy CRC F0110C93
Accurately ripped (confidence 4) [7A4462A9]
Copy OK

Track 7

Filename E:\RELIZZZ\Pink Floyd - Shine' On Box Set (1992) [FLAC]\Pink Floyd - Shine' On Box Set (1992) [FLAC] {CD3 of 9 - The Dark Side Of The Moon}\07 - Any Colour You Like.wav

Peak level 97.7 %
Track quality 100.0 %
Test CRC 0F6B601B
Copy CRC 0F6B601B
Accurately ripped (confidence 4) [CEBF3D0C]
Copy OK

Track 8

Filename E:\RELIZZZ\Pink Floyd - Shine' On Box Set (1992) [FLAC]\Pink Floyd - Shine' On Box Set (1992) [FLAC] {CD3 of 9 - The Dark Side Of The Moon}\08 - Brain Damage.wav

Peak level 93.9 %
Track quality 100.0 %
Test CRC AD74682B
Copy CRC AD74682B
Accurately ripped (confidence 4) [75EDC8C9]
Copy OK

Track 9

Filename E:\RELIZZZ\Pink Floyd - Shine' On Box Set (1992) [FLAC]\Pink Floyd - Shine' On Box Set (1992) [FLAC] {CD3 of 9 - The Dark Side Of The Moon}\09 - Eclipse.wav

Peak level 97.7 %
Track quality 100.0 %
Test CRC A8A9616D
Copy CRC A8A9616D
Accurately ripped (confidence 4) [064A08FC]
Copy OK


All tracks accurately ripped

No errors occurred

End of status report

AUDIOCHECKER v2.0 beta (build 457) - by Dester - opdester@freemail.hu
~~~~~~~~~~~~~~~~~~~~~~~~~~~~~~~~~~
-=== DO NOT EDIT THIS FILE! ===-

Path: …\Pink Floyd - Shine' On Box Set (1992) [FLAC] {CD3 of 9 - The Dark Side Of The Moon}

01 -=- 01 - Speak To Me,Breathe In The Air.flac -=- CDDA (100%)
02 -=- 02 - On The Run.flac -=- CDDA (100%)
03 -=- 03 - Time.flac -=- CDDA (100%)
04 -=- 04 - The Great Gig In The Sky.flac -=- CDDA (100%)
05 -=- 05 - Money.flac -=- CDDA (100%)
06 -=- 06 - Us And Them.flac -=- CDDA (100%)
07 -=- 07 - Any Colour You Like.flac -=- CDDA (100%)
08 -=- 08 - Brain Damage.flac -=- CDDA (100%)
09 -=- 09 - Eclipse.flac -=- CDDA (100%)

Summary 100,00% CDDA

6843316

––––––––––––––––––––––––––––––-

Pink Floyd - Shine' On (1992) [9CD Box Set] Re-up

CD04: Pink Floyd - Wish You Were Here
Rock/Pshychedelic/Progressive | EAC Rip | Flac(Image) + Cue + Log & MP3 CBR 320Kbps
Covers(300 dpi) Included | EMI | 0777 7 80567 2 0 | ~276 + 125 Mb

Tracklist:

01 - Shine on You Crazy Diamond (Part One)
02 - Welcome to the Machine
03 - Have a Cigar
04 - Wish You Were Here
05 - Shine on You Crazy Diamond (Part Two)

Converted to Image (CUETools 2.1.4)

Exact Audio Copy V0.99 prebeta 4 from 23. January 2008

EAC extraction logfile from 9. April 2009, 15:32

Pink Floyd / Wish You Were Here

Used drive : PLEXTOR CD-R PX-320A Adapter: 1 ID: 0

Read mode : Secure
Utilize accurate stream : Yes
Defeat audio cache : Yes
Make use of C2 pointers : No

Read offset correction : 98
Overread into Lead-In and Lead-Out : No
Fill up missing offset samples with silence : Yes
Delete leading and trailing silent blocks : No
Null samples used in CRC calculations : Yes
Used interface : Native Win32 interface for Win NT & 2000
Gap handling : Appended to previous track

Used output format : User Defined Encoder
Selected bitrate : 128 kBit/s
Quality : High
Add ID3 tag : No
Command line compressor : E:\Program Files\FLAC\flac.exe
Additional command line options : -8 -V -T "ARTIST=%a" -T "TITLE=%t" -T "ALBUM=%g" -T "DATE=%y" -T "TRACKNUMBER=%n" -T "GENRE=%m" -T "COMMENT=EAC FLAC -8" %s


TOC of the extracted CD

Track | Start | Length | Start sector | End sector
––––––––––––––––––––––––––––-
1 | 0:00.33 | 13:30.60 | 33 | 60842
2 | 13:31.18 | 7:26.52 | 60843 | 94344
3 | 20:57.70 | 5:08.00 | 94345 | 117444
4 | 26:05.70 | 5:40.25 | 117445 | 142969
5 | 31:46.20 | 12:22.65 | 142970 | 198684


Track 1

Filename D:\Pink Floyd - Shine' On Box Set (1992) [FLAC]\Pink Floyd - Shine' On Box Set (1992) [FLAC] {CD4 of 9 - Wish You Were Here}\01 - Shine on You Crazy Diamond (Part One).wav

Pre-gap length 0:00:02.44

Peak level 97.7 %
Track quality 100.0 %
Test CRC F1E984F7
Copy CRC F1E984F7
Accurately ripped (confidence 6) [E8451A70]
Copy OK

Track 2

Filename D:\Pink Floyd - Shine' On Box Set (1992) [FLAC]\Pink Floyd - Shine' On Box Set (1992) [FLAC] {CD4 of 9 - Wish You Were Here}\02 - Welcome to the Machine.wav

Peak level 97.7 %
Track quality 100.0 %
Test CRC 58867661
Copy CRC 58867661
Accurately ripped (confidence 6) [2D354436]
Copy OK

Track 3

Filename D:\Pink Floyd - Shine' On Box Set (1992) [FLAC]\Pink Floyd - Shine' On Box Set (1992) [FLAC] {CD4 of 9 - Wish You Were Here}\03 - Have a Cigar.wav

Peak level 97.7 %
Track quality 100.0 %
Test CRC E6CBFCC1
Copy CRC E6CBFCC1
Accurately ripped (confidence 6) [F61637BA]
Copy OK

Track 4

Filename D:\Pink Floyd - Shine' On Box Set (1992) [FLAC]\Pink Floyd - Shine' On Box Set (1992) [FLAC] {CD4 of 9 - Wish You Were Here}\04 - Wish You Were Here.wav

Peak level 97.7 %
Track quality 100.0 %
Test CRC 41EFDAFB
Copy CRC 41EFDAFB
Accurately ripped (confidence 6) [3A253C14]
Copy OK

Track 5

Filename D:\Pink Floyd - Shine' On Box Set (1992) [FLAC]\Pink Floyd - Shine' On Box Set (1992) [FLAC] {CD4 of 9 - Wish You Were Here}\05 - Shine on You Crazy Diamond (Part Two).wav

Peak level 97.7 %
Track quality 100.0 %
Test CRC 54178073
Copy CRC 54178073
Accurately ripped (confidence 6) [15339083]
Copy OK


All tracks accurately ripped

No errors occurred

End of status report

AUDIOCHECKER v2.0 beta (build 457) - by Dester - opdester@freemail.hu
~~~~~~~~~~~~~~~~~~~~~~~~~~~~~~~~~~
-=== DO NOT EDIT THIS FILE! ===-

Path: …\Pink Floyd - Shine' On Box Set (1992) [FLAC] {CD4 of 9 - Wish You Were Here}

01 -=- 01 - Shine on You Crazy Diamond (Part One).flac -=- CDDA (100%)
02 -=- 02 - Welcome to the Machine.flac -=- CDDA (100%)
03 -=- 03 - Have a Cigar.flac -=- CDDA (100%)
04 -=- 04 - Wish You Were Here.flac -=- CDDA (100%)
05 -=- 05 - Shine on You Crazy Diamond (Part Two).flac -=- CDDA (100%)

Summary 100,00% CDDA

167795380

––––––––––––––––––––––––––––––-

Pink Floyd - Shine' On (1992) [9CD Box Set] Re-up

CD05: Pink Floyd - Animals
Rock/Pshychedelic/Progressive | EAC Rip | Flac(Image) + Cue + Log & MP3 CBR 320Kbps
Covers(300 dpi) Included | EMI | 0777 7 80568 2 9 | ~228 + 115 Mb

Tracklist:

01 - Pigs on the Wing 1
02 - Dogs
03 - Pigs (Three Different Ones)
04 - Sheep
05 - Pigs on the Wing 2

Converted to Image (CUETools 2.1.4)

Exact Audio Copy V0.99 prebeta 4 from 23. January 2008

EAC extraction logfile from 23. April 2009, 1:52

Pink Floyd / Animals

Used drive : PLEXTOR CD-R PX-320A Adapter: 1 ID: 0

Read mode : Secure
Utilize accurate stream : Yes
Defeat audio cache : Yes
Make use of C2 pointers : No

Read offset correction : 98
Overread into Lead-In and Lead-Out : Yes
Fill up missing offset samples with silence : Yes
Delete leading and trailing silent blocks : No
Null samples used in CRC calculations : Yes
Used interface : Installed external ASPI interface
Gap handling : Appended to previous track

Used output format : User Defined Encoder
Selected bitrate : 128 kBit/s
Quality : High
Add ID3 tag : No
Command line compressor : C:\Program Files\FLAC\flac.exe
Additional command line options : -8 -V -T "ARTIST=%a" -T "TITLE=%t" -T "ALBUM=%g" -T "DATE=%y" -T "TRACKNUMBER=%n" -T "GENRE=%m" -T "COMMENT=EAC FLAC -8" %s


TOC of the extracted CD

Track | Start | Length | Start sector | End sector
––––––––––––––––––––––––––––-
1 | 0:00.33 | 1:25.02 | 33 | 6409
2 | 1:25.35 | 17:04.10 | 6410 | 83219
3 | 18:29.45 | 11:21.60 | 83220 | 134354
4 | 29:51.30 | 10:23.68 | 134355 | 181147
5 | 40:15.23 | 1:24.57 | 181148 | 187504


Track 1

Filename D:\Pink Floyd - Shine' On Box Set (1992) [FLAC]\Pink Floyd - Shine' On Box Set (1992) [FLAC] {CD5 of 9 - Animals}\01 - Pigs on the Wing 1.wav

Pre-gap length 0:00:02.44

Peak level 48.3 %
Track quality 100.0 %
Test CRC 0D865132
Copy CRC 0D865132
Accurately ripped (confidence 4) [91D625B2]
Copy OK

Track 2

Filename D:\Pink Floyd - Shine' On Box Set (1992) [FLAC]\Pink Floyd - Shine' On Box Set (1992) [FLAC] {CD5 of 9 - Animals}\02 - Dogs.wav

Pre-gap length 0:00:00.02

Peak level 82.7 %
Track quality 100.0 %
Test CRC B69D1D46
Copy CRC B69D1D46
Accurately ripped (confidence 4) [7CF0BD9B]
Copy OK

Track 3

Filename D:\Pink Floyd - Shine' On Box Set (1992) [FLAC]\Pink Floyd - Shine' On Box Set (1992) [FLAC] {CD5 of 9 - Animals}\03 - Pigs (Three Different Ones).wav

Pre-gap length 0:00:00.02

Peak level 64.8 %
Track quality 100.0 %
Test CRC 8B147A36
Copy CRC 8B147A36
Accurately ripped (confidence 4) [36B7D3EE]
Copy OK

Track 4

Filename D:\Pink Floyd - Shine' On Box Set (1992) [FLAC]\Pink Floyd - Shine' On Box Set (1992) [FLAC] {CD5 of 9 - Animals}\04 - Sheep.wav

Pre-gap length 0:00:00.02

Peak level 75.7 %
Track quality 100.0 %
Test CRC 4129FC23
Copy CRC 4129FC23
Accurately ripped (confidence 4) [3D3A15A9]
Copy OK

Track 5

Filename D:\Pink Floyd - Shine' On Box Set (1992) [FLAC]\Pink Floyd - Shine' On Box Set (1992) [FLAC] {CD5 of 9 - Animals}\05 - Pigs on the Wing 2.wav

Pre-gap length 0:00:00.04

Peak level 32.4 %
Track quality 100.0 %
Test CRC 37E168BD
Copy CRC 37E168BD
Accurately ripped (confidence 4) [191AD312]
Copy OK


All tracks accurately ripped

No errors occurred

End of status report

AUDIOCHECKER v2.0 beta (build 457) - by Dester - opdester@freemail.hu
~~~~~~~~~~~~~~~~~~~~~~~~~~~~~~~~~~
-=== DO NOT EDIT THIS FILE! ===-

Path: …\Pink Floyd - Shine' On Box Set (1992) [FLAC] {CD5 of 9 - Animals}

01 -=- 01 - Pigs on the Wing 1.flac -=- CDDA (100%)
02 -=- 02 - Dogs.flac -=- CDDA (100%)
03 -=- 03 - Pigs (Three Different Ones).flac -=- CDDA (100%)
04 -=- 04 - Sheep.flac -=- CDDA (100%)
05 -=- 05 - Pigs on the Wing 2.flac -=- CDDA (100%)

Summary 100,00% CDDA

131244612

––––––––––––––––––––––––––––––-

Pink Floyd - Shine' On (1992) [9CD Box Set] Re-up

CD06: Pink Floyd - The Wall (CD1)
Rock/Pshychedelic/Progressive | EAC Rip | Flac(Image) + Cue + Log & MP3 CBR 320Kbps
Covers(300 dpi) Included | EMI | 0777 7 80569 2 8 | ~223 + 110 Mb

Tracklist:

1. In the Flesh?
2. The Thin Ice
3. Another Brick in the Wall Parte I
4. The Happiest Days of Our Lives
5. Another Brick in the Wall Parte II
6. Mother
7. Goodbye Blue Sky
8. Empty Spaces
9. Young Lust
10. One of My Turns
11. Don't Leave Me Now
12. Another Brick in the Wall Parte III
13. Goodbye Cruel World

Converted to Image (CUETools 2.1.4)

Exact Audio Copy V0.99 prebeta 4 from 23. January 2008

EAC extraction logfile from 2. June 2009, 21:34

Pink Floyd / The Wall (CD1)

Used drive : PLEXTOR CD-R PX-320A Adapter: 1 ID: 0

Read mode : Secure
Utilize accurate stream : Yes
Defeat audio cache : Yes
Make use of C2 pointers : No

Read offset correction : 98
Overread into Lead-In and Lead-Out : Yes
Fill up missing offset samples with silence : Yes
Delete leading and trailing silent blocks : No
Null samples used in CRC calculations : Yes
Used interface : Installed external ASPI interface
Gap handling : Appended to previous track

Used output format : User Defined Encoder
Selected bitrate : 128 kBit/s
Quality : High
Add ID3 tag : No
Command line compressor : C:\Program Files\FLAC\flac.exe
Additional command line options : -8 -V -T "ARTIST=%a" -T "TITLE=%t" -T "ALBUM=%g" -T "DATE=%y" -T "TRACKNUMBER=%n" -T "GENRE=%m" -T "COMMENT=EAC FLAC -8" %s


TOC of the extracted CD

Track | Start | Length | Start sector | End sector
––––––––––––––––––––––––––––-
1 | 0:00.33 | 3:18.30 | 33 | 14912
2 | 3:18.63 | 2:28.72 | 14913 | 26084
3 | 5:47.60 | 3:41.30 | 26085 | 42689
4 | 9:29.15 | 1:20.63 | 42690 | 48752
5 | 10:50.03 | 3:56.20 | 48753 | 66472
6 | 14:46.23 | 5:32.47 | 66473 | 91419
7 | 20:18.70 | 2:48.33 | 91420 | 104052
8 | 23:07.28 | 5:36.37 | 104053 | 129289
9 | 28:43.65 | 2:03.23 | 129290 | 138537
10 | 30:47.13 | 1:33.62 | 138538 | 145574
11 | 32:21.00 | 4:22.50 | 145575 | 165274
12 | 36:43.50 | 1:17.23 | 165275 | 171072
13 | 38:00.73 | 1:04.40 | 171073 | 175912


Track 1

Filename D:\Pink Floyd - Shine' On Box Set (1992) [FLAC]\Pink Floyd - Shine' On Box Set (1992) [FLAC] {CD6 of 9 - The Wall (Part 1)}\01 - In The Flesh .wav

Pre-gap length 0:00:02.44

Peak level 97.7 %
Track quality 100.0 %
Test CRC CAD4C3F7
Copy CRC CAD4C3F7
Accurately ripped (confidence 4) [9D2E36A9]
Copy OK

Track 2

Filename D:\Pink Floyd - Shine' On Box Set (1992) [FLAC]\Pink Floyd - Shine' On Box Set (1992) [FLAC] {CD6 of 9 - The Wall (Part 1)}\02 - The Thin Ice.wav

Pre-gap length 0:00:00.04

Peak level 76.4 %
Track quality 100.0 %
Test CRC 730422C4
Copy CRC 730422C4
Accurately ripped (confidence 4) [647925C3]
Copy OK

Track 3

Filename D:\Pink Floyd - Shine' On Box Set (1992) [FLAC]\Pink Floyd - Shine' On Box Set (1992) [FLAC] {CD6 of 9 - The Wall (Part 1)}\03 - Another Brick In The Wall, Part 1.wav

Pre-gap length 0:00:00.02

Peak level 97.7 %
Track quality 100.0 %
Test CRC EFA3C603
Copy CRC EFA3C603
Accurately ripped (confidence 4) [25C302BE]
Copy OK

Track 4

Filename D:\Pink Floyd - Shine' On Box Set (1992) [FLAC]\Pink Floyd - Shine' On Box Set (1992) [FLAC] {CD6 of 9 - The Wall (Part 1)}\04 - The Happiest Days Of Our Lives.wav

Pre-gap length 0:00:00.02

Peak level 97.7 %
Track quality 100.0 %
Test CRC 9AE573A0
Copy CRC 9AE573A0
Accurately ripped (confidence 4) [EB0AD42F]
Copy OK

Track 5

Filename D:\Pink Floyd - Shine' On Box Set (1992) [FLAC]\Pink Floyd - Shine' On Box Set (1992) [FLAC] {CD6 of 9 - The Wall (Part 1)}\05 - Another Brick In The Wall, Part 2.wav

Pre-gap length 0:00:00.04

Peak level 91.9 %
Track quality 100.0 %
Test CRC E543913F
Copy CRC E543913F
Accurately ripped (confidence 4) [FF1A9C36]
Copy OK

Track 6

Filename D:\Pink Floyd - Shine' On Box Set (1992) [FLAC]\Pink Floyd - Shine' On Box Set (1992) [FLAC] {CD6 of 9 - The Wall (Part 1)}\06 - Mother.wav

Pre-gap length 0:00:00.04

Peak level 97.7 %
Track quality 100.0 %
Test CRC 46D4F7AA
Copy CRC 46D4F7AA
Accurately ripped (confidence 4) [779138EC]
Copy OK

Track 7

Filename D:\Pink Floyd - Shine' On Box Set (1992) [FLAC]\Pink Floyd - Shine' On Box Set (1992) [FLAC] {CD6 of 9 - The Wall (Part 1)}\07 - Goodbye Blue Sky.wav

Pre-gap length 0:00:00.02

Peak level 46.6 %
Track quality 100.0 %
Test CRC 82632654
Copy CRC 82632654
Accurately ripped (confidence 4) [F7286C4A]
Copy OK

Track 8

Filename D:\Pink Floyd - Shine' On Box Set (1992) [FLAC]\Pink Floyd - Shine' On Box Set (1992) [FLAC] {CD6 of 9 - The Wall (Part 1)}\08 - Empty Spaces.wav

Pre-gap length 0:00:00.04

Peak level 96.6 %
Track quality 100.0 %
Test CRC A635CE41
Copy CRC A635CE41
Accurately ripped (confidence 4) [853800E8]
Copy OK

Track 9

Filename D:\Pink Floyd - Shine' On Box Set (1992) [FLAC]\Pink Floyd - Shine' On Box Set (1992) [FLAC] {CD6 of 9 - The Wall (Part 1)}\09 - Young Lust.wav

Pre-gap length 0:00:00.02

Peak level 54.2 %
Track quality 100.0 %
Test CRC B85F71A3
Copy CRC B85F71A3
Accurately ripped (confidence 4) [F913E75B]
Copy OK

Track 10

Filename D:\Pink Floyd - Shine' On Box Set (1992) [FLAC]\Pink Floyd - Shine' On Box Set (1992) [FLAC] {CD6 of 9 - The Wall (Part 1)}\10 - One Of My Turns.wav

Pre-gap length 0:00:00.04

Peak level 97.7 %
Track quality 100.0 %
Test CRC 31A79C60
Copy CRC 31A79C60
Accurately ripped (confidence 4) [75B9E5B0]
Copy OK

Track 11

Filename D:\Pink Floyd - Shine' On Box Set (1992) [FLAC]\Pink Floyd - Shine' On Box Set (1992) [FLAC] {CD6 of 9 - The Wall (Part 1)}\11 - Don't Leave Me Now.wav

Pre-gap length 0:00:00.02

Peak level 97.7 %
Track quality 99.9 %
Test CRC 4DE8EB0B
Copy CRC 4DE8EB0B
Accurately ripped (confidence 4) [F10EA5C9]
Copy OK

Track 12

Filename D:\Pink Floyd - Shine' On Box Set (1992) [FLAC]\Pink Floyd - Shine' On Box Set (1992) [FLAC] {CD6 of 9 - The Wall (Part 1)}\12 - Another Brick In The Wall, Part 3.wav

Pre-gap length 0:00:00.02

Peak level 97.7 %
Track quality 100.0 %
Test CRC 46DD387B
Copy CRC 46DD387B
Accurately ripped (confidence 4) [C49A5A8C]
Copy OK

Track 13

Filename D:\Pink Floyd - Shine' On Box Set (1992) [FLAC]\Pink Floyd - Shine' On Box Set (1992) [FLAC] {CD6 of 9 - The Wall (Part 1)}\13 - Goodbye Cruel World.wav

Pre-gap length 0:00:00.04

Peak level 23.5 %
Track quality 100.0 %
Test CRC E0B8FBD0
Copy CRC E0B8FBD0
Accurately ripped (confidence 4) [A5503EF6]
Copy OK


All tracks accurately ripped

No errors occurred

End of status report

AUDIOCHECKER v2.0 beta (build 457) - by Dester - opdester@freemail.hu
~~~~~~~~~~~~~~~~~~~~~~~~~~~~~~~~~~
-=== DO NOT EDIT THIS FILE! ===-

Path: …\Pink Floyd - Shine' On Box Set (1992) [FLAC] {CD6 of 9 - The Wall (Part 1)}

01 -=- 01 - In The Flesh .flac -=- CDDA (100%)
02 -=- 02 - The Thin Ice.flac -=- CDDA (100%)
03 -=- 03 - Another Brick In The Wall, Part 1.flac -=- CDDA (100%)
04 -=- 04 - The Happiest Days Of Our Lives.flac -=- CDDA (100%)
05 -=- 05 - Another Brick In The Wall, Part 2.flac -=- ERROR
06 -=- 06 - Mother.flac -=- CDDA (100%)
07 -=- 07 - Goodbye Blue Sky.flac -=- CDDA (100%)
08 -=- 08 - Empty Spaces.flac -=- CDDA (100%)
09 -=- 09 - Young Lust.flac -=- CDDA (100%)
10 -=- 10 - One Of My Turns.flac -=- CDDA (100%)
11 -=- 11 - Don't Leave Me Now.flac -=- CDDA (100%)
12 -=- 12 - Another Brick In The Wall, Part 3.flac -=- CDDA (100%)
13 -=- 13 - Goodbye Cruel World.flac -=- CDDA (99%)

Summary 99,92% CDDA

211232900

––––––––––––––––––––––––––––––-

Pink Floyd - Shine' On (1992) [9CD Box Set] Re-up

CD07: Pink Floyd - The Wall (CD2)
Rock/Pshychedelic/Progressive | EAC Rip | Flac(Image) + Cue + Log & MP3 CBR 320Kbps
Covers(300 dpi) Included | EMI | 0777 7 80570 2 4 | ~235 + 119 Mb

Tracklist:

1. Hey You
2. Is There Anybody Out There?
3. Nobody Home
4. Vera
5. Bring the Boys Back Home
6. Comfortably Numb
7. The Show Must Go On
8. In the Flesh
9. Run Like Hell
10. Waiting for the Worms
11. Stop
12. The Trial
13. Outside the Wall

Converted to Image (CUETools 2.1.4)

Exact Audio Copy V0.99 prebeta 4 from 23. January 2008

EAC extraction logfile from 2. June 2009, 21:59

Pink Floyd / The Wall (Disc 2)

Used drive : PLEXTOR CD-R PX-320A Adapter: 1 ID: 0

Read mode : Secure
Utilize accurate stream : Yes
Defeat audio cache : Yes
Make use of C2 pointers : No

Read offset correction : 98
Overread into Lead-In and Lead-Out : Yes
Fill up missing offset samples with silence : Yes
Delete leading and trailing silent blocks : No
Null samples used in CRC calculations : Yes
Used interface : Installed external ASPI interface
Gap handling : Appended to previous track

Used output format : User Defined Encoder
Selected bitrate : 128 kBit/s
Quality : High
Add ID3 tag : No
Command line compressor : C:\Program Files\FLAC\flac.exe
Additional command line options : -8 -V -T "ARTIST=%a" -T "TITLE=%t" -T "ALBUM=%g" -T "DATE=%y" -T "TRACKNUMBER=%n" -T "GENRE=%m" -T "COMMENT=EAC FLAC -8" %s


TOC of the extracted CD

Track | Start | Length | Start sector | End sector
––––––––––––––––––––––––––––-
1 | 0:00.33 | 4:40.55 | 33 | 21087
2 | 4:41.13 | 2:40.22 | 21088 | 33109
3 | 7:21.35 | 3:25.03 | 33110 | 48487
4 | 10:46.38 | 1:38.67 | 48488 | 55904
5 | 12:25.30 | 0:50.68 | 55905 | 59722
6 | 13:16.23 | 6:49.37 | 59723 | 90434
7 | 20:05.60 | 1:36.65 | 90435 | 97699
8 | 21:42.50 | 4:16.53 | 97700 | 116952
9 | 25:59.28 | 4:22.57 | 116953 | 136659
10 | 30:22.10 | 3:56.48 | 136660 | 154407
11 | 34:18.58 | 0:34.70 | 154408 | 157027
12 | 34:53.53 | 5:16.20 | 157028 | 180747
13 | 40:09.73 | 1:42.57 | 180748 | 188454


Track 1

Filename D:\Pink Floyd - Shine' On Box Set (1992) [FLAC]\Pink Floyd - Shine' On Box Set (1992) [FLAC] {CD6 of 9 - The Wall (Part 2)}\01 - Hey You.wav

Pre-gap length 0:00:02.44

Peak level 61.3 %
Track quality 100.0 %
Test CRC 30B39476
Copy CRC 30B39476
Accurately ripped (confidence 5) [A00104A0]
Copy OK

Track 2

Filename D:\Pink Floyd - Shine' On Box Set (1992) [FLAC]\Pink Floyd - Shine' On Box Set (1992) [FLAC] {CD6 of 9 - The Wall (Part 2)}\02 - Is There Anybody Out There .wav

Pre-gap length 0:00:00.04

Peak level 52.7 %
Track quality 100.0 %
Test CRC F5907EC8
Copy CRC F5907EC8
Accurately ripped (confidence 4) [901931FD]
Copy OK

Track 3

Filename D:\Pink Floyd - Shine' On Box Set (1992) [FLAC]\Pink Floyd - Shine' On Box Set (1992) [FLAC] {CD6 of 9 - The Wall (Part 2)}\03 - Nobody Home.wav

Pre-gap length 0:00:00.02

Peak level 33.6 %
Track quality 100.0 %
Test CRC 6B8F595A
Copy CRC 6B8F595A
Accurately ripped (confidence 4) [5FC4D71C]
Copy OK

Track 4

Filename D:\Pink Floyd - Shine' On Box Set (1992) [FLAC]\Pink Floyd - Shine' On Box Set (1992) [FLAC] {CD6 of 9 - The Wall (Part 2)}\04 - Vera.wav

Pre-gap length 0:00:00.04

Peak level 29.4 %
Track quality 100.0 %
Test CRC 6E8D529A
Copy CRC 6E8D529A
Accurately ripped (confidence 4) [F5BB2FE9]
Copy OK

Track 5

Filename D:\Pink Floyd - Shine' On Box Set (1992) [FLAC]\Pink Floyd - Shine' On Box Set (1992) [FLAC] {CD6 of 9 - The Wall (Part 2)}\05 - Bring the Boys Back Home.wav

Pre-gap length 0:00:00.02

Peak level 96.0 %
Track quality 100.0 %
Test CRC 49CE6C24
Copy CRC 49CE6C24
Accurately ripped (confidence 4) [B281024C]
Copy OK

Track 6

Filename D:\Pink Floyd - Shine' On Box Set (1992) [FLAC]\Pink Floyd - Shine' On Box Set (1992) [FLAC] {CD6 of 9 - The Wall (Part 2)}\06 - Comfortably Numb.wav

Pre-gap length 0:00:00.04

Peak level 64.5 %
Track quality 100.0 %
Test CRC A037200A
Copy CRC A037200A
Accurately ripped (confidence 4) [89A2C1F8]
Copy OK

Track 7

Filename D:\Pink Floyd - Shine' On Box Set (1992) [FLAC]\Pink Floyd - Shine' On Box Set (1992) [FLAC] {CD6 of 9 - The Wall (Part 2)}\07 - The Show Must Go On.wav

Pre-gap length 0:00:00.13

Peak level 49.8 %
Track quality 100.0 %
Test CRC 746F4B90
Copy CRC 746F4B90
Accurately ripped (confidence 4) [0E2AC104]
Copy OK

Track 8

Filename D:\Pink Floyd - Shine' On Box Set (1992) [FLAC]\Pink Floyd - Shine' On Box Set (1992) [FLAC] {CD6 of 9 - The Wall (Part 2)}\08 - In the Flesh.wav

Pre-gap length 0:00:00.02

Peak level 64.1 %
Track quality 99.9 %
Test CRC F1F6ADA4
Copy CRC F1F6ADA4
Accurately ripped (confidence 4) [3D160063]
Copy OK

Track 9

Filename D:\Pink Floyd - Shine' On Box Set (1992) [FLAC]\Pink Floyd - Shine' On Box Set (1992) [FLAC] {CD6 of 9 - The Wall (Part 2)}\09 - Run Like Hell.wav

Pre-gap length 0:00:00.04

Peak level 77.7 %
Track quality 100.0 %
Test CRC 377970E4
Copy CRC 377970E4
Accurately ripped (confidence 4) [0E3C697B]
Copy OK

Track 10

Filename D:\Pink Floyd - Shine' On Box Set (1992) [FLAC]\Pink Floyd - Shine' On Box Set (1992) [FLAC] {CD6 of 9 - The Wall (Part 2)}\10 - Waiting for the Worms.wav

Pre-gap length 0:00:00.02

Peak level 61.4 %
Track quality 100.0 %
Test CRC 4D550B09
Copy CRC 4D550B09
Accurately ripped (confidence 4) [F2270F55]
Copy OK

Track 11

Filename D:\Pink Floyd - Shine' On Box Set (1992) [FLAC]\Pink Floyd - Shine' On Box Set (1992) [FLAC] {CD6 of 9 - The Wall (Part 2)}\11 - Stop.wav

Pre-gap length 0:00:00.04

Peak level 67.6 %
Track quality 100.0 %
Test CRC D5B58E93
Copy CRC D5B58E93
Accurately ripped (confidence 4) [DAEE1EB8]
Copy OK

Track 12

Filename D:\Pink Floyd - Shine' On Box Set (1992) [FLAC]\Pink Floyd - Shine' On Box Set (1992) [FLAC] {CD6 of 9 - The Wall (Part 2)}\12 - The Trial.wav

Pre-gap length 0:00:00.04

Peak level 50.3 %
Track quality 100.0 %
Test CRC 1897F935
Copy CRC 1897F935
Accurately ripped (confidence 4) [BE466BD6]
Copy OK

Track 13

Filename D:\Pink Floyd - Shine' On Box Set (1992) [FLAC]\Pink Floyd - Shine' On Box Set (1992) [FLAC] {CD6 of 9 - The Wall (Part 2)}\13 - Outside the Wall.wav

Pre-gap length 0:00:00.04

Peak level 9.9 %
Track quality 100.0 %
Test CRC D0C46209
Copy CRC D0C46209
Accurately ripped (confidence 5) [9B46C6B6]
Copy OK


All tracks accurately ripped

No errors occurred

End of status report

AUDIOCHECKER v2.0 beta (build 457) - by Dester - opdester@freemail.hu
~~~~~~~~~~~~~~~~~~~~~~~~~~~~~~~~~~
-=== DO NOT EDIT THIS FILE! ===-

Path: …\Pink Floyd - Shine' On Box Set (1992) [FLAC] {CD7 of 9 - The Wall (Part 2)}

01 -=- 01 - Hey You.flac -=- CDDA (99%)
02 -=- 02 - Is There Anybody Out There .flac -=- CDDA (100%)
03 -=- 03 - Nobody Home.flac -=- CDDA (100%)
04 -=- 04 - Vera.flac -=- CDDA (100%)
05 -=- 05 - Bring the Boys Back Home.flac -=- CDDA (100%)
06 -=- 06 - Comfortably Numb.flac -=- CDDA (100%)
07 -=- 07 - The Show Must Go On.flac -=- CDDA (100%)
08 -=- 08 - In the Flesh.flac -=- CDDA (100%)
09 -=- 09 - Run Like Hell.flac -=- CDDA (100%)
10 -=- 10 - Waiting for the Worms.flac -=- CDDA (100%)
11 -=- 11 - Stop.flac -=- CDDA (100%)
12 -=- 12 - The Trial.flac -=- CDDA (100%)
13 -=- 13 - Outside the Wall.flac -=- CDDA (100%)

Summary 99,92% CDDA

195161940

––––––––––––––––––––––––––––––-

Pink Floyd - Shine' On (1992) [9CD Box Set] Re-up

CD08: Pink Floyd - A Momentary Lapse Of Reason
Rock/Pshychedelic/Progressive | EAC Rip | Flac(Image) + Cue + Log & MP3 CBR 320Kbps
Covers(300 dpi) Included | EMI | 0777 7 80571 2 3 | ~315 + 139 Mb

Tracklist:

1. Signs of Life
2. Learning to Fly
3. The Dogs of War
4. One Slip
5. On the Turning Away
6. (a) Yet Another Movie, (b) Round and Around
7. A New Machine (Part I)
8. Terminal Frost
9. A New Machine (Part II)
10. Sorrow

Converted to Image (CUETools 2.1.4)

Exact Audio Copy V0.99 prebeta 4 from 23. January 2008

EAC extraction logfile from 2. June 2009, 22:58

Pink Floyd / A Momentary Lapse of Reason

Used drive : PLEXTOR CD-R PX-320A Adapter: 1 ID: 0

Read mode : Secure
Utilize accurate stream : Yes
Defeat audio cache : Yes
Make use of C2 pointers : No

Read offset correction : 98
Overread into Lead-In and Lead-Out : Yes
Fill up missing offset samples with silence : Yes
Delete leading and trailing silent blocks : No
Null samples used in CRC calculations : Yes
Used interface : Installed external ASPI interface
Gap handling : Appended to previous track

Used output format : User Defined Encoder
Selected bitrate : 128 kBit/s
Quality : High
Add ID3 tag : No
Command line compressor : C:\Program Files\FLAC\flac.exe
Additional command line options : -8 -V -T "ARTIST=%a" -T "TITLE=%t" -T "ALBUM=%g" -T "DATE=%y" -T "TRACKNUMBER=%n" -T "GENRE=%m" -T "COMMENT=EAC FLAC -8" %s


TOC of the extracted CD

Track | Start | Length | Start sector | End sector
––––––––––––––––––––––––––––-
1 | 0:00.32 | 4:24.30 | 32 | 19861
2 | 4:24.62 | 4:53.20 | 19862 | 41856
3 | 9:18.07 | 6:05.40 | 41857 | 69271
4 | 15:23.47 | 5:10.35 | 69272 | 92556
5 | 20:34.07 | 5:42.28 | 92557 | 118234
6 | 26:16.35 | 7:28.00 | 118235 | 151834
7 | 33:44.35 | 1:46.45 | 151835 | 159829
8 | 35:31.05 | 6:17.07 | 159830 | 188111
9 | 41:48.12 | 0:38.53 | 188112 | 191014
10 | 42:26.65 | 8:46.65 | 191015 | 230529


Track 1

Filename D:\Pink Floyd - Shine' On Box Set (1992) [FLAC]\Pink Floyd - Shine' On Box Set (1992) [FLAC] {CD8 of 9 - A Momentary Lapes Of Reason}\01 - Signs Of Life.wav

Pre-gap length 0:00:02.42

Peak level 64.1 %
Track quality 100.0 %
Test CRC 43D00034
Copy CRC 43D00034
Accurately ripped (confidence 4) [433D7EDA]
Copy OK

Track 2

Filename D:\Pink Floyd - Shine' On Box Set (1992) [FLAC]\Pink Floyd - Shine' On Box Set (1992) [FLAC] {CD8 of 9 - A Momentary Lapes Of Reason}\02 - Learning To Fly.wav

Peak level 100.0 %
Track quality 100.0 %
Test CRC 8485F830
Copy CRC 8485F830
Accurately ripped (confidence 4) [13F222BD]
Copy OK

Track 3

Filename D:\Pink Floyd - Shine' On Box Set (1992) [FLAC]\Pink Floyd - Shine' On Box Set (1992) [FLAC] {CD8 of 9 - A Momentary Lapes Of Reason}\03 - The Dogs Of War.wav

Pre-gap length 0:00:01.06

Peak level 88.8 %
Track quality 100.0 %
Test CRC E4CDB3E6
Copy CRC E4CDB3E6
Accurately ripped (confidence 4) [02B7E212]
Copy OK

Track 4

Filename D:\Pink Floyd - Shine' On Box Set (1992) [FLAC]\Pink Floyd - Shine' On Box Set (1992) [FLAC] {CD8 of 9 - A Momentary Lapes Of Reason}\04 - One Slip.wav

Peak level 85.2 %
Track quality 99.9 %
Test CRC 8C4677F9
Copy CRC 8C4677F9
Accurately ripped (confidence 4) [A36B6061]
Copy OK

Track 5

Filename D:\Pink Floyd - Shine' On Box Set (1992) [FLAC]\Pink Floyd - Shine' On Box Set (1992) [FLAC] {CD8 of 9 - A Momentary Lapes Of Reason}\05 - On The Turning Away.wav

Pre-gap length 0:00:02.73

Peak level 83.1 %
Track quality 100.0 %
Test CRC 79087B96
Copy CRC 79087B96
Accurately ripped (confidence 4) [BF94C668]
Copy OK

Track 6

Filename D:\Pink Floyd - Shine' On Box Set (1992) [FLAC]\Pink Floyd - Shine' On Box Set (1992) [FLAC] {CD8 of 9 - A Momentary Lapes Of Reason}\06 - Yet Another Movie.wav

Pre-gap length 0:00:02.64

Peak level 97.6 %
Track quality 100.0 %
Test CRC 3496E0BB
Copy CRC 3496E0BB
Accurately ripped (confidence 4) [53FCF1A0]
Copy OK

Track 7

Filename D:\Pink Floyd - Shine' On Box Set (1992) [FLAC]\Pink Floyd - Shine' On Box Set (1992) [FLAC] {CD8 of 9 - A Momentary Lapes Of Reason}\07 - A New Machine - Part 1.wav

Pre-gap length 0:00:02.00

Peak level 39.9 %
Track quality 99.9 %
Test CRC CA679FD4
Copy CRC CA679FD4
Accurately ripped (confidence 4) [D858F00A]
Copy OK

Track 8

Filename D:\Pink Floyd - Shine' On Box Set (1992) [FLAC]\Pink Floyd - Shine' On Box Set (1992) [FLAC] {CD8 of 9 - A Momentary Lapes Of Reason}\08 - Terminal Frost.wav

Peak level 97.5 %
Track quality 100.0 %
Test CRC 0D7F4E34
Copy CRC 0D7F4E34
Accurately ripped (confidence 4) [BB1F6220]
Copy OK

Track 9

Filename D:\Pink Floyd - Shine' On Box Set (1992) [FLAC]\Pink Floyd - Shine' On Box Set (1992) [FLAC] {CD8 of 9 - A Momentary Lapes Of Reason}\09 - A New Machine - Part 2.wav

Peak level 38.8 %
Track quality 100.0 %
Test CRC A1D1A00F
Copy CRC A1D1A00F
Accurately ripped (confidence 4) [7C307AAC]
Copy OK

Track 10

Filename D:\Pink Floyd - Shine' On Box Set (1992) [FLAC]\Pink Floyd - Shine' On Box Set (1992) [FLAC] {CD8 of 9 - A Momentary Lapes Of Reason}\10 - Sorrow.wav

Peak level 90.9 %
Track quality 100.0 %
Test CRC E8B01CCF
Copy CRC E8B01CCF
Accurately ripped (confidence 4) [AC648BD4]
Copy OK


All tracks accurately ripped

No errors occurred

End of status report

AUDIOCHECKER v2.0 beta (build 457) - by Dester - opdester@freemail.hu
~~~~~~~~~~~~~~~~~~~~~~~~~~~~~~~~~~
-=== DO NOT EDIT THIS FILE! ===-

Path: …\Pink Floyd - Shine' On Box Set (1992) [FLAC] {CD8 of 9 - A Momentary Lapes Of Reason}

01 -=- 01 - Signs Of Life.flac -=- CDDA (100%)
02 -=- 02 - Learning To Fly.flac -=- CDDA (100%)
03 -=- 03 - The Dogs Of War.flac -=- CDDA (100%)
04 -=- 04 - One Slip.flac -=- CDDA (100%)
05 -=- 05 - On The Turning Away.flac -=- CDDA (100%)
06 -=- 06 - Yet Another Movie.flac -=- CDDA (100%)
07 -=- 07 - A New Machine - Part 1.flac -=- CDDA (100%)
08 -=- 08 - Terminal Frost.flac -=- CDDA (100%)
09 -=- 09 - A New Machine - Part 2.flac -=- CDDA (100%)
10 -=- 10 - Sorrow.flac -=- CDDA (100%)

Summary 100,00% CDDA

138516980

––––––––––––––––––––––––––––––-

Pink Floyd - Shine' On (1992) [9CD Box Set] Re-up

CD09: Pink Floyd - The Pink Floyd Early Singles
Rock/Pshychedelic/Progressive | EAC Rip | Flac(Image) + Cue + Log & MP3 CBR 320Kbps
Covers(300 dpi) Included | EMI | 0777 7 80572 2 2 | ~106 + 83 Mb


Tracklist:

1. Arnold Layne
2. Candy And A Currant Bun
3. See Emily Play
4. Scarecrow
5. Apples And Oranges
6. Paint Box
7. It Would Be So Nice
8. Julia Dream
9. Point Me At The Sky
10. Careful With That Axe, Eugene

Converted to Image (CUETools 2.1.4)

Exact Audio Copy V0.99 prebeta 4 from 23. January 2008

EAC extraction logfile from 2. June 2009, 23:53

Pink Floyd / The Pink Floyd Early Singles

Used drive : PLEXTOR CD-R PX-320A Adapter: 1 ID: 0

Read mode : Secure
Utilize accurate stream : Yes
Defeat audio cache : Yes
Make use of C2 pointers : No

Read offset correction : 98
Overread into Lead-In and Lead-Out : Yes
Fill up missing offset samples with silence : Yes
Delete leading and trailing silent blocks : No
Null samples used in CRC calculations : Yes
Used interface : Installed external ASPI interface
Gap handling : Appended to previous track

Used output format : User Defined Encoder
Selected bitrate : 128 kBit/s
Quality : High
Add ID3 tag : No
Command line compressor : C:\Program Files\FLAC\flac.exe
Additional command line options : -8 -V -T "ARTIST=%a" -T "TITLE=%t" -T "ALBUM=%g" -T "DATE=%y" -T "TRACKNUMBER=%n" -T "GENRE=%m" -T "COMMENT=EAC FLAC -8" %s


TOC of the extracted CD

Track | Start | Length | Start sector | End sector
––––––––––––––––––––––––––––-
1 | 0:00.32 | 2:56.45 | 32 | 13276
2 | 2:57.02 | 2:48.05 | 13277 | 25881
3 | 5:45.07 | 2:56.65 | 25882 | 39146
4 | 8:41.72 | 2:12.08 | 39147 | 49054
5 | 10:54.05 | 3:08.40 | 49055 | 63194
6 | 14:02.45 | 3:49.10 | 63195 | 80379
7 | 17:51.55 | 3:47.05 | 80380 | 97409
8 | 21:38.60 | 2:35.10 | 97410 | 109044
9 | 24:13.70 | 3:40.30 | 109045 | 125574
10 | 27:54.25 | 5:46.22 | 125575 | 151546


Track 1

Filename D:\Pink Floyd - Shine' On Box Set (1992) [FLAC]\Pink Floyd - Shine' On Box Set (1992) [FLAC] {CD9 of 9 - The Early Singles}\01 - Arnold Layne.wav

Pre-gap length 0:00:02.42

Peak level 77.1 %
Track quality 100.0 %
Test CRC 89E62B03
Copy CRC 89E62B03
Accurately ripped (confidence 5) [C0F4149C]
Copy OK

Track 2

Filename D:\Pink Floyd - Shine' On Box Set (1992) [FLAC]\Pink Floyd - Shine' On Box Set (1992) [FLAC] {CD9 of 9 - The Early Singles}\02 - Candy And A Currant Bun.wav

Pre-gap length 0:00:01.26

Peak level 71.8 %
Track quality 100.0 %
Test CRC 58347408
Copy CRC 58347408
Accurately ripped (confidence 5) [07FAA24F]
Copy OK

Track 3

Filename D:\Pink Floyd - Shine' On Box Set (1992) [FLAC]\Pink Floyd - Shine' On Box Set (1992) [FLAC] {CD9 of 9 - The Early Singles}\03 - See Emily Play.wav

Pre-gap length 0:00:02.02

Peak level 74.8 %
Track quality 100.0 %
Test CRC 4B2A80C7
Copy CRC 4B2A80C7
Accurately ripped (confidence 5) [BBF95C91]
Copy OK

Track 4

Filename D:\Pink Floyd - Shine' On Box Set (1992) [FLAC]\Pink Floyd - Shine' On Box Set (1992) [FLAC] {CD9 of 9 - The Early Singles}\04 - Scarecrow.wav

Pre-gap length 0:00:03.26

Peak level 73.2 %
Track quality 100.0 %
Test CRC 4D0B84D2
Copy CRC 4D0B84D2
Accurately ripped (confidence 5) [F6F5AAA4]
Copy OK

Track 5

Filename D:\Pink Floyd - Shine' On Box Set (1992) [FLAC]\Pink Floyd - Shine' On Box Set (1992) [FLAC] {CD9 of 9 - The Early Singles}\05 - Apples And Oranges.wav

Pre-gap length 0:00:02.40

Peak level 75.6 %
Track quality 100.0 %
Test CRC ABEC289F
Copy CRC ABEC289F
Accurately ripped (confidence 5) [8EB83A18]
Copy OK

Track 6

Filename D:\Pink Floyd - Shine' On Box Set (1992) [FLAC]\Pink Floyd - Shine' On Box Set (1992) [FLAC] {CD9 of 9 - The Early Singles}\06 - Paint Box.wav

Pre-gap length 0:00:00.64

Peak level 90.1 %
Track quality 99.9 %
Test CRC 0D6779F0
Copy CRC 0D6779F0
Accurately ripped (confidence 5) [83124DBA]
Copy OK

Track 7

Filename D:\Pink Floyd - Shine' On Box Set (1992) [FLAC]\Pink Floyd - Shine' On Box Set (1992) [FLAC] {CD9 of 9 - The Early Singles}\07 - It Would Be So Nice.wav

Pre-gap length 0:00:02.13

Peak level 91.5 %
Track quality 100.0 %
Test CRC 5F4BA591
Copy CRC 5F4BA591
Accurately ripped (confidence 5) [C4968CA2]
Copy OK

Track 8

Filename D:\Pink Floyd - Shine' On Box Set (1992) [FLAC]\Pink Floyd - Shine' On Box Set (1992) [FLAC] {CD9 of 9 - The Early Singles}\08 - Julia Dream.wav

Pre-gap length 0:00:00.90

Peak level 88.3 %
Track quality 100.0 %
Test CRC 7029A892
Copy CRC 7029A892
Accurately ripped (confidence 5) [FE43555C]
Copy OK

Track 9

Filename D:\Pink Floyd - Shine' On Box Set (1992) [FLAC]\Pink Floyd - Shine' On Box Set (1992) [FLAC] {CD9 of 9 - The Early Singles}\09 - Point Me At The Sky.wav

Pre-gap length 0:00:02.40

Peak level 81.3 %
Track quality 100.0 %
Test CRC 8D2D986D
Copy CRC 8D2D986D
Accurately ripped (confidence 5) [B093632D]
Copy OK

Track 10

Filename D:\Pink Floyd - Shine' On Box Set (1992) [FLAC]\Pink Floyd - Shine' On Box Set (1992) [FLAC] {CD9 of 9 - The Early Singles}\10 - Careful With That Axe Eugene.wav

Pre-gap length 0:00:02.73

Peak level 100.0 %
Track quality 100.0 %
Test CRC 5A56FF84
Copy CRC 5A56FF84
Accurately ripped (confidence 5) [5B5A6BD7]
Copy OK


All tracks accurately ripped

No errors occurred

End of status report

AUDIOCHECKER v2.0 beta (build 457) - by Dester - opdester@freemail.hu
~~~~~~~~~~~~~~~~~~~~~~~~~~~~~~~~~~
-=== DO NOT EDIT THIS FILE! ===-

Path: …\Pink Floyd - Shine' On Box Set (1992) [FLAC] {CD9 of 9 - The Early Singles}

01 -=- 01 - Arnold Layne.flac -=- CDDA (99%)
02 -=- 02 - Candy And A Currant Bun.flac -=- CDDA (99%)
03 -=- 03 - See Emily Play.flac -=- CDDA (100%)
04 -=- 04 - Scarecrow.flac -=- CDDA (100%)
05 -=- 05 - Apples And Oranges.flac -=- CDDA (100%)
06 -=- 06 - Paint Box.flac -=- CDDA (99%)
07 -=- 07 - It Would Be So Nice.flac -=- CDDA (99%)
08 -=- 08 - Julia Dream.flac -=- CDDA (100%)
09 -=- 09 - Point Me At The Sky.flac -=- CDDA (99%)
10 -=- 10 - Careful With That Axe Eugene.flac -=- CDDA (100%)

Summary 99,50% CDDA

135250468

* * *

All thanks go to KREMEN5400

Download Pink Floyd - Shine' On (1992):