Tags
Language
Tags

Pink Floyd - Six of One (1970)

Posted By: v3122
Pink Floyd - Six of One (1970)

Pink Floyd - Six of One (1970)
Flac(Image) + Cue & MP3 CBR 320Kbps
2CD | Harvested HRV CDR 030 | ~ 523 or 206 Mb
Progressive Rock

~ Concert at Endsville '70, Refectory Hall, University Union, Leeds University, Leeds, United Kingdom, 28th February 1970 ~


Pink Floyd - Six of One (1970):

Tracklist CD1:

1. The Embryo 10:27
2. Careful With That Axe, Eugene 11:59
3. Set The Controls For The Heart Of The Sun 12:27

[CUETools log; Date: 25.06.2021 20:11:43; Version: 2.1.4]
[AccurateRip ID: 0004a7df-000fa574-23082e03] found.
Track [ CRC | V2 ] Status
01 [c9fb0ea6|5acb30d6] (0+0/5) No match
02 [106e860b|d20001db] (0+0/5) No match
03 [58f65a0c|a4a920df] (0+0/5) No match
Offsetted by -670:
01 [84f1b967] (1/5) Accurately ripped
02 [63179951] (1/5) Accurately ripped
03 [36cb0ec1] (1/5) Accurately ripped
Offsetted by -630:
01 [c3a2efb8] (1/5) Accurately ripped
02 [b0741250] (1/5) Accurately ripped
03 [4c1efd15] (1/5) Accurately ripped
Offsetted by 6:
01 [67670eac] (1/5) Accurately ripped
02 [645d06c2] (1/5) Accurately ripped
03 [ae855e6f] (1/5) Accurately ripped
Offsetted by 24:
01 [17d51b10] (1/5) Accurately ripped
02 [b9dc7221] (1/5) Accurately ripped
03 [0106bb30] (1/5) Accurately ripped

Track Peak [ CRC32 ] [W/O NULL]
– 100,0 [80DFF523] [B33D12CF]
01 97,2 [1CDD939F] [6C5C85AB]
02 100,0 [382C98DE] [FB0CE93F]
03 100,0 [B15BE19E] [5DE4F432]


Tracklist CD2:

1. The Amazing Pudding 24:17
2. A Saucerful Of Secrets 16:16
3. Interstellar Overdrive 12:03

[CUETools log; Date: 25.06.2021 20:18:51; Version: 2.1.4]
[AccurateRip ID: 00080c72-001a16b6-220c4f03] found.
Track [ CRC | V2 ] Status
01 [b62efe14|f57e69d9] (0+0/3) No match
02 [00e55484|521828d8] (0+0/3) No match
03 [0054dc70|0793ea0e] (0+0/3) No match
Offsetted by -630:
01 [a1864cd6] (1/3) Accurately ripped
02 [28235f77] (1/3) Accurately ripped
03 [bc6591c3] (1/3) Accurately ripped
Offsetted by 24:
01 [8d7203e5] (1/3) Accurately ripped
02 [cbf97471] (1/3) Accurately ripped
03 [fbb3aa0a] (1/3) Accurately ripped

Track Peak [ CRC32 ] [W/O NULL]
– 100,0 [DC439CB8] [A6ADA311]
01 92,3 [33C1E92D] [CA24C875]
02 99,8 [09F0C2ED] [518DC067]
03 100,0 [240970F5] [B4F076B7]


Pink Floyd - Six of One (1970)

All thanks go to the original releaser

Pink Floyd in my Blog

Download Pink Floyd - Six of One (1970):