Subcategories

Pink Floyd - Early Flights CD Serie, Vol. 1-10 (2002) Re-up

Posted By: Andi_Deris
Pink Floyd - Early Flights CD Serie, Vol. 1-10 (2002) Re-up

Pink Floyd - Early Flights CD Serie, Vol. 1-10 (2002)
EAC Rip | FLAC: Image+Cue+Log | 3.8 Gb | MP3 CBR 320 kbps | 1.7 Gb | Scans | Time: 11:59:56
Euro Boots (Germany) | EB 58, 59, 89, 90, 94, 95, 105, 107, 111, 112
Psychedelic/Progressive Rock, Space Rock

Early Pink Floyd recordings make space travel superfluous so long as we have keyboards here on Earth. Compilation, Unofficial Release. 1966 - 1994, Rare, B-Sides, Demos and never released material. Pink Floyd box, early flights series of 10 cd's, very rare! Pink Floyd Forever and Ever!!

Pink Floyd - Early Flights CD Serie, Vol. 1-10 (2002) Re-up




Pink Floyd - Early Flights CD Serie, Vol. 1-10 (2002) Re-up

Pink Floyd - Early Flights CD Serie, Vol. 1-10 (2002) Re-up


Early Flights, Vol. 1: 1966 - 1973, Rare, B-Sides, Demos and Never Released Material
EAC Rip | FLAC: Image+Cue+Log | 385 Mb | MP3 CBR 320 kbps | 167 Mb | Scans | Time: 01:10:39


01. I'm a King Bee (Live Session from 1966) (3:03)
02. Interstellar Overdrive (Studio 10/31/1967) (16:52)
03. Sunshine (Unreleased track from 1967) (1:30)
04. Milky Way (Outtake) (3:09)
05. Astronomine Domine (Alternate Take) (4:05)
06. Scream the Last Scream (Acetate) (4:50)
07. The Committe 1 (OST) (5:40)
08. The Committe 2 (Alternate Take) (4:02)
09. Long Blues (Live in Montreux 1971) (9:15)
10. Slow Blues (Live in Montreux 1971) (5:06)
11. Obscured By Clouds / When Your're In (Live in Chicago 03/07/1973) (13:07)

Pink Floyd - Early Flights CD Serie, Vol. 1-10 (2002) Re-up

Pink Floyd - Early Flights CD Serie, Vol. 1-10 (2002) Re-up


Early Flights, Vol. 2: 1967 - 1973, Rare, B-Sides, Demos and Never Released Material
EAC Rip | FLAC: Image+Cue+Log | 349 Mb | MP3 CBR 320 kbps | 175 Mb | Scans | Time: 01:13:07


01. Silas Lane (Outtake) (1:18)
02. Flaming (U.S. Single Version) (2:48)
03. Interstellar Overdrive (UFO Club 1967) (4:18)
04. Reaction In G (Rotterdam 12 oct. 1967) (4:07)
05. 12 Bar (Montreux 1970) (5:33)
06. Libest Spacement Monitor (Copenhagen 1971) (9:29)
07. Embryo (Copenhagen 1971) (12:15)
08. Money (Demo 1971) (1:42)
09. On The Run (Demo 1971) (3:23)
10. Brain Damage (Demo 1971) (2:03)
11. Us and Them (Demo 1971) (7:10)
12. Childhood's End (Cincinatti 03/08/1973) (7:58)
13. Interstellar Overdrive (Acetate 1967) (5:26)
14. Moonhead (OST from NASA Appolo 11 BBC 1969) (5:37)

Pink Floyd - Early Flights CD Serie, Vol. 1-10 (2002) Re-up

Pink Floyd - Early Flights CD Serie, Vol. 1-10 (2002) Re-up


Early Flights, Vol. 3: 1966 - 1969, Rare, B-Sides, Demos and Never Released Material
EAC Rip | FLAC: Image+Cue+Log | 364 Mb | MP3 CBR 320 kbps | 173 Mb | Scans | Time: 01:12:27


01. Arnold Layne (Acetate 1967) (2:37)
02. Candy And A Currant Bun (Acetate 1967) (2:02)
03. Scarecrow (BBC Broadcast 1967) (1:08)
04. Astronomy Domine (Abbey Road Outtake) (3:29)
05. See Emily Play (Acetate) (2:56)
06. Corporal Clegg (Belgian Video Version) (2:53)
07. It Would Be So Nice (Promo Edit) (3:19)
08. Paintbox (Stereo Edit) (3:31)
09. Jugband Blues (Unreleased Version with SYD) (3:10)
10. Vegetable Man (Last Song with SYD) (2:33)
11. Let There Be More Light (Paris Song with SYD) (3:33)
12. The Narrow Way (London 12/05/1969) (4:21)
13. Green Is The Colour (London 12/05/1969) (6:04)
14. The Journey (Plumpton 08/08/1969) (9:12)
15. Two Of A Kind (Barrett) (2:37)
16. Bob Dylan Blues (Barrett) (3:16)
17. Interstellar Overdrive (London 10/31/1966) (15:46)

Pink Floyd - Early Flights CD Serie, Vol. 1-10 (2002) Re-up

Pink Floyd - Early Flights CD Serie, Vol. 1-10 (2002) Re-up


Early Flights, Vol. 4: 1969 - 1970, Rare, B-Sides, Demos and Never Released Material
EAC Rip | FLAC: Image+Cue+Log | 375 Mb | MP3 CBR 320 kbps | 174 Mb | Scans | Time: 01:13:13


01. Astronomy (Germany, Essen 10/11/1969) (9:01)
02. Mademoiselle Knobs (Outtake) (1:53)
03. Come In Number 51, Your Time Is Up (5:00)
04. Green Is The Colour (Live Italia, 1970) (3:53)
05. Careful With That Axe, Eugene (3:45)
06. Embryo (2:11)
07. Cymbaline (San Francisco 29/04/1970) (8:36)
08. Granchester Meadows (7:11)
09. Fearless (Mono Mix - US Promo) (3:19)
10. Us And Them (US Promo) (3:20)
11. Brain Damage / Eclipse (Demo) (3:32)
12. Interstellar Overdrive (Chicago 21/04/1970) (13:21)
13. See Saw (4:32)
14. San Tropez (3:39)

Pink Floyd - Early Flights CD Serie, Vol. 1-10 (2002) Re-up

Pink Floyd - Early Flights CD Serie, Vol. 1-10 (2002) Re-up


Early Flights, Vol. 5: 1968, Rare, B-Sides, Demos and Never Released Material
EAC Rip | FLAC: Image+Cue+Log | 340 Mb | MP3 CBR 320 kbps | 168 Mb | Scans | Time: 01:10:35


01. Intro (1:17)
02. Let There Be More Light (Paradiso - Amsterdam May 23, 1968 - Early Show) (7:28)
03. Set The Controls For The Heart Of The Sun (Paradiso - Amsterdam May 23, 1968 - Early Show) (12:29)
04. Intro (0:54)
05. A Saucerful Of Secret (Paradiso - Amsterdam May 23, 1968 - Early Show) (14:11)
06. Candy (Demo) (2:00)
07. Interstellar Overwrite (Demo) (6:23)
08. Intro (0:36)
09. Keep Smiling People (Paradiso - Amsterdam May 23, 1968 - Early Show) (10:11)
10. Intro (1:06)
11. Let There Be More Light (Paradiso - Amsterdam May 23, 1968 - Early Show) (8:07)
12. Intro (0:53)
13. Flaming (Paradiso - Amsterdam May 23, 1968 - Early Show) (5:00)

Pink Floyd - Early Flights CD Serie, Vol. 1-10 (2002) Re-up

Pink Floyd - Early Flights CD Serie, Vol. 1-10 (2002) Re-up


Early Flights, Vol. 6: 1968 - 1972, Rare, B-Sides, Demos and Never Released Material
EAC Rip | FLAC: Image+Cue+Log | 349 Mb | MP3 CBR 320 kbps | 170 Mb | Scans | Time: 01:11:08


01. Astronomy Domine (ORTF Radio 20/01/1968 Complete Short Version) (2:29)
02. Astronomy Domine (Rome 1969) (7:49)
03. Cymbaline (03/1969 London Sound Techniques Studios (5:20)
04. Obscured By Clouds (1:03)
05. Free Four (US Promo Single 1972) (3:32)
06. Instrumental (Unreleased 1972) (1:40)
07. Set The Control For The Heart Of The Sun (22/01/1970 ORTF Studio Paris) (2:35)
08. Green Is The Colour (25/10/1969 Amougies Festival Belgium) (3:59)
09. Careful With That Axe, Eugene (25/10/1969 Amougies Festival Belgium) (9:54)
10. Intro (23/01/1970 Theatre Des Champs-Elysees Paris) (1:10)
11. The Violent Sequence (23/01/1970 Theatre Des Champs-Elysees Paris) (4:50)
12. The Amazing Pudding (23/01/1970 Theatre Des Champs-Elysees Paris) (16:21)
13. Careful With That Axe, Eugene (29/06/1972 The Dome, Brigthton, UK) (7:42)
14. Margritte PT4 (Roger Waters 1972) (2:44)

Pink Floyd - Early Flights CD Serie, Vol. 1-10 (2002) Re-up

Pink Floyd - Early Flights CD Serie, Vol. 1-10 (2002) Re-up


Early Flights, Vol. 7: 1967 - 1975, Rare, B-Sides, Demos and Never Released Material
EAC Rip | FLAC: Image+Cue+Log | 392 Mb | MP3 CBR 320 kbps | 180 Mb | Scans | Time: 01:15:30


01. Interstellar Overdrive (UFO Club 20/01/1967) (4:17)
02. Pow R. Toc H. (BBC Look of the Week 14/05/1967) (0:49)
03. Astronomy Domine (BBC Look of the Week 14/05/1967) (4:03)
04. Set The Control For The Heart Of The Sun (UK Radio 1967) (2:30)
05. Let There Be More Light (Psychedelic Club, Paris 30/10/1968) (3:44)
06. Flaming (Psychedelic Club, Paris 30/10/1968) (3:08)
07. Set The Control For The Heart Of The Sun (Rome 05/05/1968) (8:25)
08. Interstellar Overdrive (Rome 05/05/1968) (6:43)
09. A Saucerful Of Secrets (Kralingen 28/07/1970) (6:11)
10. A Great Gig In The Sky (Ivor Wynne Stadium, Hamilton, Canada 28/06/1975) (6:04)
11. Money (Ivor Wynne Stadium, Hamilton, Canada 28/06/1975) (9:13)
12. Any Colour You Like (Ivor Wynne Stadium, Hamilton, Canada 28/06/1975) (7:19)
13. Brain Damage (Ivor Wynne Stadium, Hamilton, Canada 28/06/1975) (9:12)
14. Eclipse (Ivor Wynne Stadium, Hamilton, Canada 28/06/1975) (3:52)

Pink Floyd - Early Flights CD Serie, Vol. 1-10 (2002) Re-up

Pink Floyd - Early Flights CD Serie, Vol. 1-10 (2002) Re-up


Early Flights, Vol. 8: 1977 - 1987, Rare, B-Sides, Demos and Never Released Material
EAC Rip | FLAC: Image+Cue+Log | 442 Mb | MP3 CBR 320 kbps | 169 Mb | Scans | Time: 01:10:38


01. Pigs On The Wing Pt. 1 & 2 (Alternate Version 1977) (3:35)
02. Comfortably Numb (Demo 1978) (2:38)
03. Like A Rolling Stone (David Gilmour, 1983) (1:45)
04. Across The Universe (Roger Waters, 1985) (2:36)
05. The Hit (Roger Waters/ Eric Clapton, 1985) (3:47)
06. Learning To Fly (Demo 1986) (1:26)
07. Sign Of Life (Live in Chicago 1987) (3:58)
08. Yet Another Movie (IDEM) (7:38)
09. A New Machine Pt. 1 (IDEM) (1:42)
10. Terminal Frost (IDEM) (6:52)
11. A New Machine Pt. 2 (IDEM) (10:10)
12. Another Brick In The Wall (Roger Waters, 1987) (10:11)
13. The Dog Of War (Live 1987) (7:26)
14. On The Turning Away (IDEM) (6:54)

Pink Floyd - Early Flights CD Serie, Vol. 1-10 (2002) Re-up

Pink Floyd - Early Flights CD Serie, Vol. 1-10 (2002) Re-up


Early Flights, Vol. 9: 1971 - 1987, Rare, B-Sides, Demos and Never Released Material
EAC Rip | FLAC: Image+Cue+Log | 441 Mb | MP3 CBR 320 kbps | 168 Mb | Scans | Time: 01:10:17


01. A Saucerful Of Secrets (Copenhagen Sept. 23.1971, Special Long Version) (16:33)
02. Sheep (Dortmund-Germany Jan. 23/1977) (12:21)
03. Pigs Part 1 (Dortmund-Germany Jan. 23/1977) (1:34)
04. Dogs (Dortmund-Germany Jan. 23/1977) (18:24)
05. Pigs Part 2 (Dortmund-Germany Jan. 23/1977) (2:08)
06. One Slip (Live 1987) (5:26)
07. Run Like Hell (Live 1987) (7:34)
08. Money (Live 1987, Vocal: Paul Carrack) (6:17)

Pink Floyd - Early Flights CD Serie, Vol. 1-10 (2002) Re-up

Pink Floyd - Early Flights CD Serie, Vol. 1-10 (2002) Re-up


Early Flights, Vol. 10: The Last Flight (1990 - 1994, Rare, B-Sides, Demos and Never Released Material)
EAC Rip | FLAC: Image+Cue+Log | 472 Mb | MP3 CBR 320 kbps | 173 Mb | Scans | Time: 01:12:22


01. Signs Of Life/Country Theme (La Carrera Panamericana, 1992) (2:11)
02. Mexico '78 (La Carrera Panamericana, 1992) (4:24)
03. Big Theme (La Carrera Panamericana, 1992) (2:50)
04. Small Theme (La Carrera Panamericana, 1992) (3:07)
05. Pan Am Shuffle (La Carrera Panamericana, 1992) (4:50)
06. Shine On You Crazy Diamond (Knebworth, June 6th 1990) (10:51)
07. Comfortably Numb (Knebworth, June 6th 1990) (8:21)
08. High Hopes (Knebworth, 1994) (8:18)
09. Take It Back (Knebworth, 1994) (6:01)
10. Coming Back To Life (Knebworth, 1994) (6:50)
11. Keep Talking (Knebworth, 1994) (7:41)
12. One Of These Days (Hannover, Niedersachsenstadion, Germany, 8/17/1994) (6:58)

Exact Audio Copy V0.99 prebeta 5 from 4. May 2009

Отчёт EAC об извлечении, выполненном 27. января 2010, 13:12

Pink Floyd - Early Flights Volume 1 / Pink Floyd - Early Flights Volume 1

Дисковод: _NEC DVD_RW ND-3520A Adapter: 1 ID: 1

Режим чтения : Достоверность
Использование точного потока : Да
Отключение кэша аудио : Да
Использование указателей C2 : Нет

Коррекция смещения при чтении : 48
Способность читать области Lead-in и Lead-out : Нет
Заполнение пропущенных сэмплов тишиной : Да
Удаление блоков с тишиной в начале и конце : Нет
При вычислениях CRC использовались нулевые сэмплы : Да
Интерфейс : Встроенный Win32-интерфейс для Win NT/2000

Выходной формат : Внутренние WAV-операции
Формат сэмплов : 44.100 Гц; 16 бит; стерео


TOC извлечённого CD

Трек | Старт | Длительность | Начальный сектор | Конечный сектор
––––––––––––––––––––––––––––––––––-
1 | 0:00.00 | 3:03.30 | 0 | 13754
2 | 3:03.30 | 16:52.05 | 13755 | 89659
3 | 19:55.35 | 1:30.48 | 89660 | 96457
4 | 21:26.08 | 3:09.55 | 96458 | 110687
5 | 24:35.63 | 4:05.56 | 110688 | 129118
6 | 28:41.44 | 4:50.64 | 129119 | 150932
7 | 33:32.33 | 5:40.36 | 150933 | 176468
8 | 39:12.69 | 4:02.33 | 176469 | 194651
9 | 43:15.27 | 9:15.68 | 194652 | 236344
10 | 52:31.20 | 5:06.74 | 236345 | 259368
11 | 57:38.19 | 13:07.07 | 259369 | 318400


Характеристики диапазона извлечения и сообщения об ошибках

Выбранный диапазон

Имя файла D:\MUSIC 1\Pink Floyd - Early Flights CD Serie Vol.1 - Vol.10\Volume 1\Pink Floyd - Early Flights Volume 1.wav

Пиковый уровень 100.0 %
Качество диапазона 100.0 %
CRC копии 77B31CAE
Копирование… OK

Ошибок не произошло

Конец отчёта

Exact Audio Copy V0.99 prebeta 5 from 4. May 2009

Отчёт EAC об извлечении, выполненном 27. января 2010, 20:09

Pink Floyd - Early Flights Volume 2 / -

Дисковод: _NEC DVD_RW ND-3520A Adapter: 1 ID: 1

Режим чтения : Достоверность
Использование точного потока : Да
Отключение кэша аудио : Да
Использование указателей C2 : Нет

Коррекция смещения при чтении : 48
Способность читать области Lead-in и Lead-out : Нет
Заполнение пропущенных сэмплов тишиной : Да
Удаление блоков с тишиной в начале и конце : Нет
При вычислениях CRC использовались нулевые сэмплы : Да
Интерфейс : Встроенный Win32-интерфейс для Win NT/2000

Выходной формат : Внутренние WAV-операции
Формат сэмплов : 44.100 Гц; 16 бит; стерео


TOC извлечённого CD

Трек | Старт | Длительность | Начальный сектор | Конечный сектор
––––––––––––––––––––––––––––––––––-
1 | 0:00.00 | 1:18.16 | 0 | 5865
2 | 1:18.16 | 2:48.71 | 5866 | 18536
3 | 4:07.12 | 4:18.00 | 18537 | 37886
4 | 8:25.12 | 4:07.19 | 37887 | 56430
5 | 12:32.31 | 5:33.39 | 56431 | 81444
6 | 18:05.70 | 9:29.19 | 81445 | 124138
7 | 27:35.14 | 12:15.73 | 124139 | 179336
8 | 39:51.12 | 1:42.45 | 179337 | 187031
9 | 41:33.57 | 3:23.41 | 187032 | 202297
10 | 44:57.23 | 2:03.06 | 202298 | 211528
11 | 47:00.29 | 7:10.48 | 211529 | 243826
12 | 54:11.02 | 7:58.52 | 243827 | 279728
13 | 62:09.54 | 5:26.33 | 279729 | 304211
14 | 67:36.12 | 5:37.46 | 304212 | 329532


Характеристики диапазона извлечения и сообщения об ошибках

Выбранный диапазон

Имя файла D:\MUSIC 1\Pink Floyd - Early Flights CD Serie Vol.1 - Vol.10\Volume 2\Pink Floyd - Early Flights Volume 2.wav

Пиковый уровень 100.0 %
Качество диапазона 100.0 %
CRC копии 8BD809CE
Копирование… OK

Ошибок не произошло

Конец отчёта

Exact Audio Copy V0.99 prebeta 5 from 4. May 2009

Отчёт EAC об извлечении, выполненном 27. января 2010, 14:17

Pink Floyd - Early Flights Volume 3 /

Дисковод: _NEC DVD_RW ND-3520A Adapter: 1 ID: 1

Режим чтения : Достоверность
Использование точного потока : Да
Отключение кэша аудио : Да
Использование указателей C2 : Нет

Коррекция смещения при чтении : 48
Способность читать области Lead-in и Lead-out : Нет
Заполнение пропущенных сэмплов тишиной : Да
Удаление блоков с тишиной в начале и конце : Нет
При вычислениях CRC использовались нулевые сэмплы : Да
Интерфейс : Встроенный Win32-интерфейс для Win NT/2000

Выходной формат : Внутренние WAV-операции
Формат сэмплов : 44.100 Гц; 16 бит; стерео


TOC извлечённого CD

Трек | Старт | Длительность | Начальный сектор | Конечный сектор
––––––––––––––––––––––––––––––––––-
1 | 0:00.00 | 2:37.64 | 0 | 11838
2 | 2:37.64 | 2:02.73 | 11839 | 21061
3 | 4:40.62 | 1:08.04 | 21062 | 26165
4 | 5:48.66 | 3:29.00 | 26166 | 41840
5 | 9:17.66 | 2:56.24 | 41841 | 55064
6 | 12:14.15 | 2:53.18 | 55065 | 68057
7 | 15:07.33 | 3:19.62 | 68058 | 83044
8 | 18:27.20 | 3:31.24 | 83045 | 98893
9 | 21:58.44 | 3:10.67 | 98894 | 113210
10 | 25:09.36 | 2:33.33 | 113211 | 124718
11 | 27:42.69 | 3:33.70 | 124719 | 140763
12 | 31:16.64 | 4:21.66 | 140764 | 160404
13 | 35:38.55 | 6:04.60 | 160405 | 187764
14 | 41:43.40 | 9:12.45 | 187765 | 229209
15 | 50:56.10 | 2:37.08 | 229210 | 240992
16 | 53:33.18 | 3:16.30 | 240993 | 255722
17 | 56:49.48 | 15:46.55 | 255723 | 326727


Характеристики диапазона извлечения и сообщения об ошибках

Выбранный диапазон

Имя файла D:\MUSIC 1\Pink Floyd - Early Flights CD Serie Vol.1 - Vol.10\Volume 3\Pink Floyd - Early Flights Volume 3.wav

Пиковый уровень 99.7 %
Качество диапазона 99.9 %
CRC копии E35A3D98
Копирование… OK

Ошибок не произошло

Конец отчёта

Exact Audio Copy V0.99 prebeta 5 from 4. May 2009

Отчёт EAC об извлечении, выполненном 27. января 2010, 15:17

Pink Floyd - Early Flights Volume 4 / -

Дисковод: _NEC DVD_RW ND-3520A Adapter: 1 ID: 1

Режим чтения : Достоверность
Использование точного потока : Да
Отключение кэша аудио : Да
Использование указателей C2 : Нет

Коррекция смещения при чтении : 48
Способность читать области Lead-in и Lead-out : Нет
Заполнение пропущенных сэмплов тишиной : Да
Удаление блоков с тишиной в начале и конце : Нет
При вычислениях CRC использовались нулевые сэмплы : Да
Интерфейс : Встроенный Win32-интерфейс для Win NT/2000

Выходной формат : Внутренние WAV-операции
Формат сэмплов : 44.100 Гц; 16 бит; стерео


TOC извлечённого CD

Трек | Старт | Длительность | Начальный сектор | Конечный сектор
––––––––––––––––––––––––––––––––––-
1 | 0:00.00 | 9:01.25 | 0 | 40599
2 | 9:01.25 | 1:53.21 | 40600 | 49095
3 | 10:54.46 | 5:00.36 | 49096 | 71631
4 | 15:55.07 | 3:53.46 | 71632 | 89152
5 | 19:48.53 | 3:45.63 | 89153 | 106090
6 | 23:34.41 | 2:11.16 | 106091 | 115931
7 | 25:45.57 | 8:36.24 | 115932 | 154655
8 | 34:22.06 | 7:11.64 | 154656 | 187044
9 | 41:33.70 | 3:19.53 | 187045 | 202022
10 | 44:53.48 | 3:20.57 | 202023 | 217079
11 | 48:14.30 | 3:32.27 | 217080 | 233006
12 | 51:46.57 | 13:21.47 | 233007 | 293128
13 | 65:08.29 | 4:32.21 | 293129 | 313549
14 | 69:40.50 | 3:39.58 | 313550 | 330032


Характеристики диапазона извлечения и сообщения об ошибках

Выбранный диапазон

Имя файла D:\MUSIC 1\Pink Floyd - Early Flights CD Serie Vol.1 - Vol.10\Volume 4\Pink Floyd - Early Flights Volume 4.wav

Пиковый уровень 100.0 %
Качество диапазона 100.0 %
CRC копии 75F3D2A3
Копирование… OK

Ошибок не произошло

Конец отчёта

Exact Audio Copy V0.99 prebeta 5 from 4. May 2009

Отчёт EAC об извлечении, выполненном 27. января 2010, 16:12

Pink Floyd - Early Flights Volume 5 / -

Дисковод: _NEC DVD_RW ND-3520A Adapter: 1 ID: 1

Режим чтения : Достоверность
Использование точного потока : Да
Отключение кэша аудио : Да
Использование указателей C2 : Нет

Коррекция смещения при чтении : 48
Способность читать области Lead-in и Lead-out : Нет
Заполнение пропущенных сэмплов тишиной : Да
Удаление блоков с тишиной в начале и конце : Нет
При вычислениях CRC использовались нулевые сэмплы : Да
Интерфейс : Встроенный Win32-интерфейс для Win NT/2000

Выходной формат : Внутренние WAV-операции
Формат сэмплов : 44.100 Гц; 16 бит; стерео


TOC извлечённого CD

Трек | Старт | Длительность | Начальный сектор | Конечный сектор
––––––––––––––––––––––––––––––––––-
1 | 0:00.00 | 1:17.04 | 0 | 5778
2 | 1:17.04 | 7:28.21 | 5779 | 39399
3 | 8:45.25 | 12:29.68 | 39400 | 95642
4 | 21:15.18 | 0:54.27 | 95643 | 99719
5 | 22:09.45 | 14:11.24 | 99720 | 163568
6 | 36:20.69 | 2:00.14 | 163569 | 172582
7 | 38:21.08 | 6:23.37 | 172583 | 201344
8 | 44:44.45 | 0:36.18 | 201345 | 204062
9 | 45:20.63 | 10:11.69 | 204063 | 249956
10 | 55:32.57 | 1:06.23 | 249957 | 254929
11 | 56:39.05 | 8:07.09 | 254930 | 291463
12 | 64:46.14 | 0:53.23 | 291464 | 295461
13 | 65:39.37 | 5:00.08 | 295462 | 317969


Характеристики диапазона извлечения и сообщения об ошибках

Выбранный диапазон

Имя файла D:\MUSIC 1\Pink Floyd - Early Flights CD Serie Vol.1 - Vol.10\Volume 5\Pink Floyd - Early Flights Volume 5.wav

Пиковый уровень 100.0 %
Качество диапазона 100.0 %
CRC копии 95916568
Копирование… OK

Ошибок не произошло

Конец отчёта

Exact Audio Copy V0.99 prebeta 5 from 4. May 2009

Отчёт EAC об извлечении, выполненном 27. января 2010, 17:14

Pink Floyd - Early Flights Volume 6 / -

Дисковод: _NEC DVD_RW ND-3520A Adapter: 1 ID: 1

Режим чтения : Достоверность
Использование точного потока : Да
Отключение кэша аудио : Да
Использование указателей C2 : Нет

Коррекция смещения при чтении : 48
Способность читать области Lead-in и Lead-out : Нет
Заполнение пропущенных сэмплов тишиной : Да
Удаление блоков с тишиной в начале и конце : Нет
При вычислениях CRC использовались нулевые сэмплы : Да
Интерфейс : Встроенный Win32-интерфейс для Win NT/2000

Выходной формат : Внутренние WAV-операции
Формат сэмплов : 44.100 Гц; 16 бит; стерео


TOC извлечённого CD

Трек | Старт | Длительность | Начальный сектор | Конечный сектор
––––––––––––––––––––––––––––––––––-
1 | 0:00.00 | 2:29.68 | 0 | 11242
2 | 2:29.68 | 7:49.66 | 11243 | 46483
3 | 10:19.59 | 5:20.38 | 46484 | 70521
4 | 15:40.22 | 1:03.18 | 70522 | 75264
5 | 16:43.40 | 3:32.23 | 75265 | 91187
6 | 20:15.63 | 1:40.03 | 91188 | 98690
7 | 21:55.66 | 2:35.66 | 98691 | 110381
8 | 24:31.57 | 3:59.49 | 110382 | 128355
9 | 28:31.31 | 9:54.56 | 128356 | 172961
10 | 38:26.12 | 1:10.50 | 172962 | 178261
11 | 39:36.62 | 4:50.72 | 178262 | 200083
12 | 44:27.59 | 16:21.35 | 200084 | 273693
13 | 60:49.19 | 7:42.55 | 273694 | 308398
14 | 68:31.74 | 2:44.47 | 308399 | 320745


Характеристики диапазона извлечения и сообщения об ошибках

Выбранный диапазон

Имя файла D:\MUSIC 1\Pink Floyd - Early Flights CD Serie Vol.1 - Vol.10\Volume 6\Pink Floyd - Early Flights Volume 6.wav

Пиковый уровень 94.4 %
Качество диапазона 100.0 %
CRC копии 2D37C05E
Копирование… OK

Ошибок не произошло

Конец отчёта

Exact Audio Copy V0.99 prebeta 5 from 4. May 2009

Отчёт EAC об извлечении, выполненном 27. января 2010, 20:58

Pink Floyd - Early Flights Volume 7 / -

Дисковод: _NEC DVD_RW ND-3520A Adapter: 1 ID: 1

Режим чтения : Достоверность
Использование точного потока : Да
Отключение кэша аудио : Да
Использование указателей C2 : Нет

Коррекция смещения при чтении : 48
Способность читать области Lead-in и Lead-out : Нет
Заполнение пропущенных сэмплов тишиной : Да
Удаление блоков с тишиной в начале и конце : Нет
При вычислениях CRC использовались нулевые сэмплы : Да
Интерфейс : Встроенный Win32-интерфейс для Win NT/2000

Выходной формат : Внутренние WAV-операции
Формат сэмплов : 44.100 Гц; 16 бит; стерео


TOC извлечённого CD

Трек | Старт | Длительность | Начальный сектор | Конечный сектор
––––––––––––––––––––––––––––––––––-
1 | 0:00.00 | 4:17.05 | 0 | 19279
2 | 4:17.05 | 0:49.01 | 19280 | 22955
3 | 5:06.06 | 4:03.14 | 22956 | 41194
4 | 9:09.20 | 2:30.06 | 41195 | 52450
5 | 11:39.26 | 3:44.37 | 52451 | 69287
6 | 15:23.63 | 3:08.08 | 69288 | 83395
7 | 18:31.71 | 8:25.30 | 83396 | 121300
8 | 26:57.26 | 6:43.22 | 121301 | 151547
9 | 33:40.48 | 6:11.71 | 151548 | 179443
10 | 39:52.44 | 6:04.04 | 179444 | 206747
11 | 45:56.48 | 9:13.48 | 206748 | 248270
12 | 55:10.21 | 7:19.39 | 248271 | 281234
13 | 62:29.60 | 9:12.45 | 281235 | 322679
14 | 71:42.30 | 3:52.10 | 322680 | 340089


Характеристики диапазона извлечения и сообщения об ошибках

Выбранный диапазон

Имя файла D:\MUSIC 1\Pink Floyd - Early Flights CD Serie Vol.1 - Vol.10\Volume 7\Pink Floyd - Early Flights Volume 7.wav

Пиковый уровень 94.6 %
Качество диапазона 100.0 %
CRC копии 340DE526
Копирование… OK

Ошибок не произошло

Конец отчёта

Exact Audio Copy V0.99 prebeta 5 from 4. May 2009

Отчёт EAC об извлечении, выполненном 27. января 2010, 21:29

Pink Floyd - Early Flights Volume 8 / -

Дисковод: _NEC DVD_RW ND-3520A Adapter: 1 ID: 1

Режим чтения : Достоверность
Использование точного потока : Да
Отключение кэша аудио : Да
Использование указателей C2 : Нет

Коррекция смещения при чтении : 48
Способность читать области Lead-in и Lead-out : Нет
Заполнение пропущенных сэмплов тишиной : Да
Удаление блоков с тишиной в начале и конце : Нет
При вычислениях CRC использовались нулевые сэмплы : Да
Интерфейс : Встроенный Win32-интерфейс для Win NT/2000

Выходной формат : Внутренние WAV-операции
Формат сэмплов : 44.100 Гц; 16 бит; стерео


TOC извлечённого CD

Трек | Старт | Длительность | Начальный сектор | Конечный сектор
––––––––––––––––––––––––––––––––––-
1 | 0:00.00 | 3:35.03 | 0 | 16127
2 | 3:35.03 | 2:38.46 | 16128 | 28023
3 | 6:13.49 | 1:45.37 | 28024 | 35935
4 | 7:59.11 | 2:36.65 | 35936 | 47700
5 | 10:36.01 | 3:47.61 | 47701 | 64786
6 | 14:23.62 | 1:26.56 | 64787 | 71292
7 | 15:50.43 | 3:58.45 | 71293 | 89187
8 | 19:49.13 | 7:38.02 | 89188 | 123539
9 | 27:27.15 | 1:42.53 | 123540 | 131242
10 | 29:09.68 | 6:52.30 | 131243 | 162172
11 | 36:02.23 | 10:10.22 | 162173 | 207944
12 | 46:12.45 | 10:11.04 | 207945 | 253773
13 | 56:23.49 | 7:26.45 | 253774 | 287268
14 | 63:50.19 | 6:54.31 | 287269 | 318349


Характеристики диапазона извлечения и сообщения об ошибках

Выбранный диапазон

Имя файла D:\MUSIC 1\Pink Floyd - Early Flights CD Serie Vol.1 - Vol.10\Volume 8\Pink Floyd - Early Flights Volume 8.wav

Пиковый уровень 100.0 %
Качество диапазона 100.0 %
CRC копии 5B766402
Копирование… OK

Ошибок не произошло

Конец отчёта

Exact Audio Copy V0.99 prebeta 5 from 4. May 2009

Отчёт EAC об извлечении, выполненном 27. января 2010, 22:25

Pink Floyd - Early Flights Volume 9 / -

Дисковод: _NEC DVD_RW ND-3520A Adapter: 1 ID: 1

Режим чтения : Достоверность
Использование точного потока : Да
Отключение кэша аудио : Да
Использование указателей C2 : Нет

Коррекция смещения при чтении : 48
Способность читать области Lead-in и Lead-out : Нет
Заполнение пропущенных сэмплов тишиной : Да
Удаление блоков с тишиной в начале и конце : Нет
При вычислениях CRC использовались нулевые сэмплы : Да
Интерфейс : Встроенный Win32-интерфейс для Win NT/2000

Выходной формат : Внутренние WAV-операции
Формат сэмплов : 44.100 Гц; 16 бит; стерео


TOC извлечённого CD

Трек | Старт | Длительность | Начальный сектор | Конечный сектор
––––––––––––––––––––––––––––––––––-
1 | 0:00.00 | 16:33.28 | 0 | 74502
2 | 16:33.28 | 12:21.37 | 74503 | 130114
3 | 28:54.65 | 1:34.09 | 130115 | 137173
4 | 30:28.74 | 18:24.66 | 137174 | 220039
5 | 48:53.65 | 2:08.06 | 220040 | 229645
6 | 51:01.71 | 5:26.59 | 229646 | 254154
7 | 56:28.55 | 7:34.02 | 254155 | 288206
8 | 64:02.57 | 6:17.33 | 288207 | 316514


Характеристики диапазона извлечения и сообщения об ошибках

Выбранный диапазон

Имя файла D:\MUSIC 1\Pink Floyd - Early Flights CD Serie Vol.1 - Vol.10\Volume 9\Pink Floyd - Early Flights Volume 9.wav

Пиковый уровень 99.9 %
Качество диапазона 99.9 %
CRC копии 69FE345C
Копирование… OK

Ошибок не произошло

Конец отчёта

Exact Audio Copy V0.99 prebeta 5 from 4. May 2009

Отчёт EAC об извлечении, выполненном 27. января 2010, 23:11

Pink Floyd - Early Flights Volume 10 The Last Flight / -

Дисковод: _NEC DVD_RW ND-3520A Adapter: 1 ID: 1

Режим чтения : Достоверность
Использование точного потока : Да
Отключение кэша аудио : Да
Использование указателей C2 : Нет

Коррекция смещения при чтении : 48
Способность читать области Lead-in и Lead-out : Нет
Заполнение пропущенных сэмплов тишиной : Да
Удаление блоков с тишиной в начале и конце : Нет
При вычислениях CRC использовались нулевые сэмплы : Да
Интерфейс : Встроенный Win32-интерфейс для Win NT/2000

Выходной формат : Внутренние WAV-операции
Формат сэмплов : 44.100 Гц; 16 бит; стерео


TOC извлечённого CD

Трек | Старт | Длительность | Начальный сектор | Конечный сектор
––––––––––––––––––––––––––––––––––-
1 | 0:00.00 | 2:11.16 | 0 | 9840
2 | 2:11.16 | 4:24.33 | 9841 | 29673
3 | 6:35.49 | 2:50.65 | 29674 | 42488
4 | 9:26.39 | 3:07.74 | 42489 | 56587
5 | 12:34.38 | 4:50.42 | 56588 | 78379
6 | 17:25.05 | 10:51.25 | 78380 | 127229
7 | 28:16.30 | 8:21.56 | 127230 | 164860
8 | 36:38.11 | 8:18.02 | 164861 | 202212
9 | 44:56.13 | 6:01.24 | 202213 | 229311
10 | 50:57.37 | 6:50.02 | 229312 | 260063
11 | 57:47.39 | 7:41.08 | 260064 | 294646
12 | 65:28.47 | 6:58.44 | 294647 | 326040


Характеристики диапазона извлечения и сообщения об ошибках

Выбранный диапазон

Имя файла D:\MUSIC 1\Pink Floyd - Early Flights CD Serie Vol.1 - Vol.10\Volume 10\Pink Floyd - Early Flights Volume 10 The Last Flight.wav

Пиковый уровень 100.0 %
Качество диапазона 100.0 %
CRC копии EE09EF50
Копирование… OK

Ошибок не произошло

Конец отчёта


Many thanks to the original uploader: DENIS IGOREVICH

Pink Floyd - Early Flights CD Serie, Vol. 1-10 (2002) Re-up


–––––––––––––––––––-


Notes

included bonus: PINK FLOYD CD/DVD DISCOGRAPHY 1967-2011 by HANS GERLITZ {pdf} = 906 Mb

Pink Floyd - Early Flights CD Serie, Vol. 1-10 (2002) Re-up


BASIC DISCOGRAPHY

EUROPE
FORMER SOVIET UNION: Russia, Ukraine
USA
CANADA
JAPAN
ASIA: China Hong Kong Korea Malaysia Philippines Taiwan Thailand
ISRAEL
AUSTRALIA
NEW ZEALAND
BRAZIL
ARGENTINA
MEXICO
CHILE
VENEZUELA
URUGUAY
SOUTH AFRICA

APPENDIX:
Selles Records
CDR Issues
Compilations
Guest Appearances
Radio Shows
Semiofficial Special Packaging Sets
MiniDisc
Related Issues

OVERVIEWS:
Mobile Fidelity Sound Lab
Cardboard Sleeve LP Replica

This discography includes the official releases of Pink Floyd albums and albums from the band members, singles, promotional and related issues on CDs and other optical discs. Counterfeits, pirates and bootlegs are not included.

Pink Floyd - Early Flights CD Serie, Vol. 1-10 (2002) Re-up


DVD DISCOGRAPHY

EUROPE
USA
JAPAN

APPENDIX:
Unauthorized
VCD
Laserdisc

This discography includes the official releases of Pink Floyd, band members and related video material on DVDs and other optical discs.
Counterfeits, pirates and bootlegs are not included.

–––––––––––––––––––-


This discography is a reference guide, not a book on the artwork of Pink Floyd. The photos of the artworks are used solely for the purposes of distinguishing the differences between the releases. The product names used in this document are for identification purposes only. All trademarks and registered trademarks are the property of their respective owners.

Permission is granted to download and print this document for personal use.


Pink Floyd 1969 Ummagumma [Remastered 1994] 2CD
Pink Floyd 1971 Relics [Remastered 1995]
Pink Floyd 1973 The Dark Side Of The Moon [Experience Edition, 2CD, Japan 2011]
Pink Floyd 1973 The Dark Side Of The Moon [Immersion Edition, Box Set 3CD+2DVD+1Blu-ray, 2011]
Pink Floyd 1975 Spaceball Ricochet - US-Tour 1975 [Bootleg, 2CD]
Pink Floyd 1975 Wish You Were Here [Immersion Edition, Box Set 2CD+2DVD+1Blu-ray, 2011]
Pink Floyd 1977 Animals [Japan 6th Issue, 1998]
Pink Floyd 1979 The Wall [Experience Edition, 3CD Box Set, 2012]
Pink Floyd 1979 The Wall [Immersion Edition, Box Set 6CD+1DVD, 2012]
Pink Floyd 1981 A Collection Of Great Dance Songs [Reissue, Remastered 2000]
Pink Floyd 1987 A Momentary Lapse Of Reason
Pink Floyd 1989 StarClub Phyco [Bootleg]
Pink Floyd 1990 Ultra Rare Trax, Vol. 1, 2, 3 [Bootleg, 3CD]
Pink Floyd 1992 The Complete ''Top Gear'' Sessions 1967-1969 [Bootleg, 2CD]
Pink Floyd 1992 The Man & The Journey [Bootleg]
Pink Floyd & The Stringman 1994 Absolutely Ambient [The Ultimate Remix Collection]
Pink Floyd 1994 Live In USA [Bootleg, 2CD]
Pink Floyd 1994 Wish You Were Here - Trance Remixes [Limited Ed.]
Pink Floyd 1995 P·U·L·S·E [Japan, 3rd issue 2005]
Pink Floyd 1995 Smoking Blues [Bootleg, 2CD]
Pink Floyd 1997 The Wall (The Soundtrack Of The Motion Picture) [Bootleg, 2CD]
Pink Floyd 1997 1967: The First 3 Singles [EP]
Pink Floyd 2000 A Tree Full Of Secrets [Bootleg, 17+1 (data) CDs]
Pink Floyd 2000 Crackers [Bootleg, 2CD]
Pink Floyd 2001 Echoes: The Best Of Pink Floyd [2CD]
Pink Floyd 2002 Archives: If You Were A Bluebird [Bootleg]
Pink Floyd 2002 Archives: Pink Days And Fat Old Suns [Bootleg]
Pink Floyd 2005 Naniwa: Natural Dark In Osaka 1972 [Bootleg, 2CD]
Pink Floyd 2005 Old Symphonies [Bootleg]
Pink Floyd 2008 Watching The World Upon The Wall [Bootleg, 2CD]

Pink Floyd 1982 The Wall 25th Anniversary [Deluxe Ed.] [DVD]
Pink Floyd 1987 Would You Buy A Ticket To This Show? [2xDVD]
Pink Floyd 2000 Divided We Fall: The Wall Live at Earl's Court [2xDVD]
Pink Floyd 2006 Live in Saint-Tropez, Music Festival, 08.08.1970 [DVD]
Pink Floyd 2008 The Great Gig In The Sky: The Album By Album Guide [8xDVD & Book Set]
Pink Floyd 2010 In Toronto 1987 [DVD]
Pink Floyd 2010 Video Collection [Custom, DVD]
Pink Floyd 2013 Classic Albums: Making Of Dark Side Of The Moon [Blu-ray]

The Pink Floyd Chamber Suite 2004 A Classic Rock Tribute to Pink Floyd [DVD]
The Led Zeppelin Chamber Suite 2003 A Classic Rock Tribute to Led Zeppelin [DVD]

Roger Waters 1990 The Wall - Live In Berlin [Japan Promo 2CD]
Roger Waters 2011 The Wall - Live In Berlin 1990 [Limited Deluxe Tour Edition] [DVD+2CD]

The Australian Pink Floyd Show 2004 Dark Side Of The Moon - Live at Liverpool Kings Dock Arena 2004 [2DVD Set]
The Australian Pink Floyd Show 2007 Best Of Pink Floyd - Live At The Royal Albert Hall 2007 [DVD]
The Australian Pink Floyd Show 2012 Live At The Hammersmith Apollo 2011 [Blu-ray]

Boomer 2002 Dim Side Of Mars [Digipak]

Celtic Pink Floyd 2011 Celtic Pink Floyd

David Palmer And The Royal Philharmonic Orchestra 1989 Music Of Pink Floyd - Orchestral Maneuvers [Japanese Ed. 1994]

Dream Theater 2006 Dark Side Of The Moon [Official Bootleg] [DVD]
Dream Theater 2006 Dark Side of the Moon [Official Bootleg, 2CD]

Easy Star All-Stars 2003 Dub Side Of The Moon

Echoes 2015 Barefoot To The Moon: An Acoustic Tribute To Pink Floyd
Echoes 2015 Barefoot To The Moon: An Acoustic Tribute To Pink Floyd [DVD]

The Flaming Lips 2009 The Flaming Lips & Stardeath and White Dwarfs with Henry Rollins and Peaches Doing The Dark Side of the Moon

Lazy 2006 F • L • O • Y • D : A Chillout Experience [Digipak]

The London Philharmonic Orchestra 1995 Us And Them: Symphonic Pink Floyd

Michael Armstrong 2006 Rockabye Baby! Lullaby Renditions Of Pink Floyd

Misriat 1999 Another Brick In The Wall (A Tribute to Pink Floyd)

Sam Yahel • Ari Hoenig • Mike Moreno • Seamu Blake 2008 Jazz Side Of The Moon: Music Of Pink Floyd

The Squirrels 2000 The Not-So-Bright Side Of The Moon

Voices On The Dark Side 2005 Dark Side Of The Moon A Cappella [Digipak]

V.A. 1995 The Moon Revisited (A Tribute to Pink Floyd)
V.A. 2000/2002 The Electronic Tribute To Pink Floyd [Volume 1 & 2]
V.A. 2001 Pickin' On Pink Floyd: A Bluegrass Tribute
V.A. 2002 The Reggae Tribute To Pink Floyd
V.A. 2002 Pigs And Pyramids: An All Star Lineup Performing The Songs Of Pink Floyd
V.A. 2004 Breathe: A Tribute To Pink Floyd
V.A. 2005 Back Against The Wall - A Tribute to Pink Floyd [2CD]
V.A. 2006 Pink Floyd Redux: A New Music Experience [Digipak]
V.A. 2007 The Music Of Pink Floyd
V.A. 2007 Pink Box: Songs Of Pink Floyd [2CD]
V.A. 2007 Top Musicians Play: Pink Floyd The Wall [2CD]
V.A. 2010 Pink Floyd: Greatest Hits Covered [2CD] vbr
V.A. 2010 Pink Floyd: Greatest Hits Covered [2CD]
V.A. 2011 A Collection of Delicate Diamonds: A Tribute to Pink Floyd [2CD Album Digipak]
V.A. 2011 Mojo Presents: Return To The Dark Side Of The Moon / Wish You Were Here Again
V.A. 2013 The Many Faces of Pink Floyd: A Journey Through The Inner World of Pink Floyd (2013) [3CD Set]
V.A. 2015 The Everlasting Songs: An All Star Tribute To Pink Floyd

Zodiac Blue 1995 Bright Side Of The Sun


––––––––––––––––––––––––––––––

Pink Floyd - Early Flights CD Serie, Vol. 1-10 (2002) Re-up


–––––––––––