Subcategories
Tags
Language
Tags

פיסוק רחב (Pissuk Rachav) - ארץ הקודש (Eretz Hakodesh) (2009) {Tzadik} **[RE-UP]**

Posted By: TestTickles
פיסוק רחב (Pissuk Rachav) - ארץ הקודש (Eretz Hakodesh) (2009) {Tzadik} **[RE-UP]**

פיסוק רחב (Pissuk Rachav) - ארץ הקודש (Eretz Hakodesh) (2009) {Tzadik}
EAC Rip | FLAC with CUE and log | scans | 326 mb
MP3 CBR 320kbps | RAR | 127 mb
Genre: indie rock, alternative rock, parody

ארץ הקודש (Eretz Hakodesh) is the 2009 album by Israeli rock band פיסוק רחב (Pissuk Rachav). This was released on the Tzadik label as part of their Radical Jewish Culture series.

פיסוק רחב (Pissuk Rachav) - ארץ הקודש (Eretz Hakodesh) (2009) {Tzadik} **[RE-UP]**

1. Jesus Christ The Nazarene Runs In The Streets Of Tel Aviv Shouting Allah Hu Akbar; Invocation
2. Allenby Vagina Street 3. Holy Bond
4. A Feeling Divine
5. Taqism
6. Song Of Love
7. End Of Thought
8. The Great Shofar
9. Jerusalem
10. Blessing
11. Sweet Death Of Roses
12. The Holy Land

Jeremy Fogel-vocals, clarinet
Ravid Zigdon-marimba, ritual instruments
Yaron Allouche-synthesizer, Hammond, Theremin, harmonium, camera flash, vibraslap
Noa Rimmer-vocals, yellow rubber duck
Saar Yachin-flutes
Erez Frank-bass, ukulele
Ariel Armoni-drums

Special Guests:
John Zorn-shofaric alto sax (track 3)
Marc Ribot-guitar (track 4)
Itamar Greenberg-congas (tracks 1, 3, 6), vocals (track 8)
Aviad Zigdon-didgeridoo (track 10)

Produced by Ariel Armoni
Recorded & mixed by Ronen Roth
Mastered by Scott Hull

Exact Audio Copy V1.1 from 23. June 2015

EAC extraction logfile from 8. February 2017, 8:47

Pissuk Rachav / Eretz Hakodesh

Used drive : TEAC DVD-ROM DV-28SW Adapter: 1 ID: 0

Read mode : Secure
Utilize accurate stream : Yes
Defeat audio cache : Yes
Make use of C2 pointers : No

Read offset correction : 6
Overread into Lead-In and Lead-Out : No
Fill up missing offset samples with silence : Yes
Delete leading and trailing silent blocks : No
Null samples used in CRC calculations : Yes
Used interface : Native Win32 interface for Win NT & 2000
Gap handling : Appended to previous track

Used output format : Internal WAV Routines
Sample format : 44.100 Hz; 16 Bit; Stereo


TOC of the extracted CD

Track | Start | Length | Start sector | End sector
––––––––––––––––––––––––––––-
1 | 0:00.00 | 5:22.57 | 0 | 24206
2 | 5:22.57 | 3:55.33 | 24207 | 41864
3 | 9:18.15 | 4:24.35 | 41865 | 61699
4 | 13:42.50 | 5:13.71 | 61700 | 85245
5 | 18:56.46 | 2:51.25 | 85246 | 98095
6 | 21:47.71 | 6:26.32 | 98096 | 127077
7 | 28:14.28 | 7:49.34 | 127078 | 162286
8 | 36:03.62 | 3:47.40 | 162287 | 179351
9 | 39:51.27 | 4:46.23 | 179352 | 200824
10 | 44:37.50 | 2:35.55 | 200825 | 212504
11 | 47:13.30 | 3:50.49 | 212505 | 229803
12 | 51:04.04 | 5:08.73 | 229804 | 252976


Track 1

Filename C:\My Documents\My FLAC\Pissuk Rachav - Eretz Hakodesh (2009) [FLAC] {Tzadik}\01 - Jesus Christ The Nazarene Runs In The Streets Of Tel Aviv Shouting Allah Hu Akbar; Invocation.wav

Pre-gap length 0:00:02.00

Peak level 96.6 %
Extraction speed 2.0 X
Track quality 100.0 %
Test CRC 0E86C87C
Copy CRC 0E86C87C
Accurately ripped (confidence 4) [CCFE1CDD] (AR v1)
Copy OK

Track 2

Filename C:\My Documents\My FLAC\Pissuk Rachav - Eretz Hakodesh (2009) [FLAC] {Tzadik}\02 - Allenby Vagina Street.wav

Peak level 96.6 %
Extraction speed 2.2 X
Track quality 100.0 %
Test CRC 893FE34F
Copy CRC 893FE34F
Accurately ripped (confidence 4) [DF0B6CE3] (AR v1)
Copy OK

Track 3

Filename C:\My Documents\My FLAC\Pissuk Rachav - Eretz Hakodesh (2009) [FLAC] {Tzadik}\03 - Holy Bond.wav

Peak level 96.6 %
Extraction speed 2.4 X
Track quality 100.0 %
Test CRC 1473F26D
Copy CRC 1473F26D
Accurately ripped (confidence 4) [22696046] (AR v1)
Copy OK

Track 4

Filename C:\My Documents\My FLAC\Pissuk Rachav - Eretz Hakodesh (2009) [FLAC] {Tzadik}\04 - A Feeling Divine.wav

Peak level 96.6 %
Extraction speed 2.7 X
Track quality 100.0 %
Test CRC 3C662D7E
Copy CRC 3C662D7E
Accurately ripped (confidence 4) [6AA70F44] (AR v1)
Copy OK

Track 5

Filename C:\My Documents\My FLAC\Pissuk Rachav - Eretz Hakodesh (2009) [FLAC] {Tzadik}\05 - Taqsim.wav

Peak level 38.2 %
Extraction speed 2.2 X
Track quality 99.9 %
Test CRC 296002B7
Copy CRC 296002B7
Accurately ripped (confidence 4) [2BAA986D] (AR v1)
Copy OK

Track 6

Filename C:\My Documents\My FLAC\Pissuk Rachav - Eretz Hakodesh (2009) [FLAC] {Tzadik}\06 - Song Of Love.wav

Peak level 98.9 %
Extraction speed 2.8 X
Track quality 99.9 %
Test CRC 3E19104C
Copy CRC 3E19104C
Accurately ripped (confidence 4) [919B205E] (AR v1)
Copy OK

Track 7

Filename C:\My Documents\My FLAC\Pissuk Rachav - Eretz Hakodesh (2009) [FLAC] {Tzadik}\07 - End Of Thought.wav

Peak level 96.6 %
Extraction speed 3.1 X
Track quality 99.9 %
Test CRC AAB78961
Copy CRC AAB78961
Accurately ripped (confidence 4) [AB53BCA9] (AR v1)
Copy OK

Track 8

Filename C:\My Documents\My FLAC\Pissuk Rachav - Eretz Hakodesh (2009) [FLAC] {Tzadik}\08 - The Great Shofar.wav

Peak level 90.3 %
Extraction speed 0.6 X
Track quality 100.0 %
Test CRC 062C01A3
Copy CRC 062C01A3
Accurately ripped (confidence 4) [139F7179] (AR v1)
Copy OK

Track 9

Filename C:\My Documents\My FLAC\Pissuk Rachav - Eretz Hakodesh (2009) [FLAC] {Tzadik}\09 - Jerusalem.wav

Peak level 96.6 %
Extraction speed 3.5 X
Track quality 100.0 %
Test CRC 7458F48C
Copy CRC 7458F48C
Accurately ripped (confidence 4) [736AC5C4] (AR v1)
Copy OK

Track 10

Filename C:\My Documents\My FLAC\Pissuk Rachav - Eretz Hakodesh (2009) [FLAC] {Tzadik}\10 - Blessing.wav

Pre-gap length 0:00:01.17

Peak level 96.6 %
Extraction speed 3.3 X
Track quality 100.0 %
Test CRC 94568FC3
Copy CRC 94568FC3
Accurately ripped (confidence 4) [8BB46B7D] (AR v1)
Copy OK

Track 11

Filename C:\My Documents\My FLAC\Pissuk Rachav - Eretz Hakodesh (2009) [FLAC] {Tzadik}\11 - Sweet Death Of Roses.wav

Peak level 96.6 %
Extraction speed 3.6 X
Track quality 100.0 %
Test CRC E1F6D4B5
Copy CRC E1F6D4B5
Accurately ripped (confidence 4) [23FAA310] (AR v1)
Copy OK

Track 12

Filename C:\My Documents\My FLAC\Pissuk Rachav - Eretz Hakodesh (2009) [FLAC] {Tzadik}\12 - The Holy Land.wav

Peak level 96.6 %
Extraction speed 3.9 X
Track quality 100.0 %
Test CRC 2EE0F05D
Copy CRC 2EE0F05D
Accurately ripped (confidence 4) [3A0963D9] (AR v1)
Copy OK


All tracks accurately ripped

No errors occurred

End of status report

–– CUETools DB Plugin V2.1.6

[CTDB TOCID: zNobt6hVowE3mp5qTN1D81tdMXY-] found
Submit result: zNobt6hVowE3mp5qTN1D81tdMXY- has been confirmed
Track | CTDB Status
1 | (1/1) Accurately ripped
2 | (1/1) Accurately ripped
3 | (1/1) Accurately ripped
4 | (1/1) Accurately ripped
5 | (1/1) Accurately ripped
6 | (1/1) Accurately ripped
7 | (1/1) Accurately ripped
8 | (1/1) Accurately ripped
9 | (1/1) Accurately ripped
10 | (1/1) Accurately ripped
11 | (1/1) Accurately ripped
12 | (1/1) Accurately ripped


==== Log checksum E42CAE30FB65B83A0D1585FD24A2A1466DAD5E846FF363D92F83CEAD04AB0CAB ====


פיסוק רחב (Pissuk Rachav) - ארץ הקודש (Eretz Hakodesh) (2009) {Tzadik} **[RE-UP]**