Tags
Language
Tags

Pink Floyd - BBC Archives 1974 (2007) {Harvested} **[RE-UP]**

Posted By: TestTickles
Pink Floyd - BBC Archives 1974 (2007) {Harvested} **[RE-UP]**

Pink Floyd - BBC Archives 1974 (2007) {Harvested}
EAC Rip | FLAC with CUE and log | 434 mb
MP3 CBR 320kbps | RAR | 162 mb
Genre: progressive rock

Recorded by the BBC, BBC Archives 1974 was recorded in London at The Empire Pool, Wembley on 16 November, 1974. This is an excellent soundboard recording with the group still very much in The Dark Side Of The Moon mode, playing the album in full from start to finish, ,then wrapping it up with "Echoes". This is the Harvested pressing from 2007.

Pink Floyd - BBC Archives 1974 (2007) {Harvested} **[RE-UP]**

1. Speak To Me (2.35)
2. Breathe (3.03)
3. On The Run (4.58)
4. Time (6.32)
5. The Great Gig In The Sky (6.46)
6. Money (8.01)
7. Us And Them (7.56)
8. Any Colour You Like (7.37)
9. Brain Damage (3.44)
10. Eclipse (5.14)
11. Echoes (23.29)

EAC extraction logfile from 3. December 2007, 12:23 for CD
Pink Floyd / BBC Archives 1974

Used drive : LITE-ON DVDRW SOHW-1693S Adapter: 1 ID: 1
Read mode : Secure with NO C2, accurate stream, disable cache
Read offset correction : 12
Overread into Lead-In and Lead-Out : No

Used output format : C:\Program Files\FLAC\flac.exe (User Defined Encoder)
128 kBit/s
Additional command line options : -8 -V -T "ARTIST=%a" -T "TITLE=%t" -T "ALBUM=%g" -T "DATE=%y" -T "TRACKNUMBER=%n" -T "GENRE=%m" -T "COMMENT=EAC FLAC -8" %s

Other options :
Fill up missing offset samples with silence : Yes
Delete leading and trailing silent blocks : No
Native Win32 interface for Win NT & 2000


Track 1
Filename C:\cuntfist\FLAC\Pink Floyd - BBC Archives 1974 (2007) [FLAC] {Harvested}\01 - Speak To Me.wav

Pre-gap length 0:00:02.00

Peak level 73.1 %
Track quality 100.0 %
Test CRC 287E362C
Copy CRC 287E362C
Copy OK

Track 2
Filename C:\cuntfist\FLAC\Pink Floyd - BBC Archives 1974 (2007) [FLAC] {Harvested}\02 - Breathe.wav

Peak level 99.9 %
Track quality 100.0 %
Test CRC D0DB08BE
Copy CRC D0DB08BE
Copy OK

Track 3
Filename C:\cuntfist\FLAC\Pink Floyd - BBC Archives 1974 (2007) [FLAC] {Harvested}\03 - On The Run.wav

Peak level 99.7 %
Track quality 100.0 %
Test CRC CF3A4FEC
Copy CRC CF3A4FEC
Copy OK

Track 4
Filename C:\cuntfist\FLAC\Pink Floyd - BBC Archives 1974 (2007) [FLAC] {Harvested}\04 - Time.wav

Peak level 96.0 %
Track quality 100.0 %
Test CRC 369F46E5
Copy CRC 369F46E5
Copy OK

Track 5
Filename C:\cuntfist\FLAC\Pink Floyd - BBC Archives 1974 (2007) [FLAC] {Harvested}\05 - The Great Gig In The Sky.wav

Peak level 99.9 %
Track quality 100.0 %
Test CRC 61864725
Copy CRC 61864725
Copy OK

Track 6
Filename C:\cuntfist\FLAC\Pink Floyd - BBC Archives 1974 (2007) [FLAC] {Harvested}\06 - Money.wav

Peak level 97.0 %
Track quality 100.0 %
Test CRC 54DB4E0D
Copy CRC 54DB4E0D
Copy OK

Track 7
Filename C:\cuntfist\FLAC\Pink Floyd - BBC Archives 1974 (2007) [FLAC] {Harvested}\07 - Us And Them.wav

Peak level 98.4 %
Track quality 99.9 %
Test CRC 929D3785
Copy CRC 929D3785
Copy OK

Track 8
Filename C:\cuntfist\FLAC\Pink Floyd - BBC Archives 1974 (2007) [FLAC] {Harvested}\08 - Any Colour You Like.wav

Peak level 99.7 %
Track quality 100.0 %
Test CRC 9FCB1B0E
Copy CRC 9FCB1B0E
Copy OK

Track 9
Filename C:\cuntfist\FLAC\Pink Floyd - BBC Archives 1974 (2007) [FLAC] {Harvested}\09 - Brain Damage.wav

Peak level 89.3 %
Track quality 99.9 %
Test CRC 47DAF753
Copy CRC 47DAF753
Copy OK

Track 10
Filename C:\cuntfist\FLAC\Pink Floyd - BBC Archives 1974 (2007) [FLAC] {Harvested}\10 - Eclipse.wav

Peak level 93.7 %
Track quality 100.0 %
Test CRC C8AD16F6
Copy CRC C8AD16F6
Copy OK

Track 11
Filename C:\cuntfist\FLAC\Pink Floyd - BBC Archives 1974 (2007) [FLAC] {Harvested}\11 - Echoes.wav

Peak level 99.9 %
Track quality 100.0 %
Test CRC 2066791A
Copy CRC 2066791A
Copy OK

No errors occured


End of status report


Thank you to the original uploader.

Pink Floyd - BBC Archives 1974 (2007) {Harvested} **[RE-UP]**