Subcategories

Planet X - Live From Oz (2002) {SPV}

Posted By: tiburon
Planet X - Live From Oz (2002) {SPV}

Planet X - Live From Oz (2002) {SPV}
EAC 1.0b1 | FLAC tracks level 8 | Cue+Log+M3U+MD5 | Full Scans 600dpi | 540MB + 5% Recovery
Genre: Progressive Rock
Planet X - Live From Oz (2002) {SPV}

This is the first live album from Planet X. All performed during the 2001 Australian tour in Melbourne, Sydney, Perth, and Adelaide.

Track List

01. Ignotus Per Ignotium 7:16
02. Inside Black 5:16
03. Dog Boots 3:55
04. Atlantis - Apocalypse 1470 BC 6:24
05. Atlantis - Sea of Antiquity 4:20
06. Atlantis - Lost Island 6:21
07. Derek Sherinian Solo 2:41
08. Warfinger 4:36
09. Virgil Donati Solo 4:00
10. Warfinger Reprise 1:52
11. Tony MacAlpine Solo 4:14
12. Her Animal 4:40
13. Europa 4:20
14. Pods of Trance 8:08
15. Clonus (Hidden Track) 4:24

musicians

Derek Sherinian - keyboards
Virgil Donati - drums
Tony MacAlpine - guitar

special guest

Dave LaRue - bass


Exact Audio Copy V1.0 beta 1 from 15. November 2010

EAC extraction logfile from 7. March 2011, 16:58

Planet X / Live From Oz

Used drive : HL-DT-STDVDRAM GH20NS10 Adapter: 2 ID: 1

Read mode : Secure
Utilize accurate stream : Yes
Defeat audio cache : Yes
Make use of C2 pointers : No

Read offset correction : 667
Overread into Lead-In and Lead-Out : No
Fill up missing offset samples with silence : Yes
Delete leading and trailing silent blocks : No
Null samples used in CRC calculations : Yes
Used interface : Native Win32 interface for Win NT & 2000
Gap handling : Appended to previous track

Used output format : User Defined Encoder
Selected bitrate : 1024 kBit/s
Quality : High
Add ID3 tag : No
Command line compressor : C:\Program Files\Exact Audio Copy\Flac\flac.exe
Additional command line options : -8 -V -T "ARTIST=%a" -T "TITLE=%t" -T "ALBUM=%g" -T "DATE=%y" -T "TRACKNUMBER=%n" -T "TOTALTRACKS=%x" -T "GENRE=%m" -T "ALBUMARTIST=%v" -T "ALBUM ARTIST=%v" -T "COMMENT=EAC Secure Mode, Test & Copy, AccurateRip, FLAC -8" %s


TOC of the extracted CD

Track | Start | Length | Start sector | End sector
––––––––––––––––––––––––––––-
1 | 0:00.00 | 7:46.10 | 0 | 34959
2 | 7:46.10 | 5:16.10 | 34960 | 58669
3 | 13:02.20 | 3:55.17 | 58670 | 76311
4 | 16:57.37 | 6:23.53 | 76312 | 105089
5 | 23:21.15 | 4:20.02 | 105090 | 124591
6 | 27:41.17 | 6:20.38 | 124592 | 153129
7 | 34:01.55 | 2:41.60 | 153130 | 165264
8 | 36:43.40 | 4:36.15 | 165265 | 185979
9 | 41:19.55 | 4:00.00 | 185980 | 203979
10 | 45:19.55 | 1:51.47 | 203980 | 212351
11 | 47:11.27 | 4:14.13 | 212352 | 231414
12 | 51:25.40 | 4:39.52 | 231415 | 252391
13 | 56:05.17 | 4:19.50 | 252392 | 271866
14 | 60:24.67 | 8:12.23 | 271867 | 308789
15 | 68:37.15 | 4:24.22 | 308790 | 328611


Track 1

Filename G:\Planet X - Live From Oz (2002) {SPV}\01 - Ignotus Per Ignotium.wav

Pre-gap length 0:00:02.00

Peak level 98.8 %
Extraction speed 5.2 X
Track quality 100.0 %
Test CRC CFE63904
Copy CRC CFE63904
Accurately ripped (confidence 10) [EFC98AEA]
Copy OK

Track 2

Filename G:\Planet X - Live From Oz (2002) {SPV}\02 - Inside Black.wav

Peak level 100.0 %
Extraction speed 4.8 X
Track quality 99.9 %
Test CRC 3F18120C
Copy CRC 3F18120C
Accurately ripped (confidence 10) [D66592E9]
Copy OK

Track 3

Filename G:\Planet X - Live From Oz (2002) {SPV}\03 - Dog Boots.wav

Peak level 98.9 %
Extraction speed 5.7 X
Track quality 100.0 %
Test CRC 87595B3B
Copy CRC 87595B3B
Accurately ripped (confidence 10) [B801DB2A]
Copy OK

Track 4

Filename G:\Planet X - Live From Oz (2002) {SPV}\04 - Apocalypse 1470 BC.wav

Peak level 99.1 %
Extraction speed 6.7 X
Track quality 100.0 %
Test CRC 20000A20
Copy CRC 20000A20
Accurately ripped (confidence 10) [A7CF3789]
Copy OK

Track 5

Filename G:\Planet X - Live From Oz (2002) {SPV}\05 - Sea Of Antiquity.wav

Peak level 98.9 %
Extraction speed 6.7 X
Track quality 100.0 %
Test CRC 06A51D21
Copy CRC 06A51D21
Accurately ripped (confidence 10) [5390A4DE]
Copy OK

Track 6

Filename G:\Planet X - Live From Oz (2002) {SPV}\06 - Lost Island.wav

Peak level 98.9 %
Extraction speed 6.8 X
Track quality 100.0 %
Test CRC 1C642BE7
Copy CRC 1C642BE7
Accurately ripped (confidence 10) [8CD48479]
Copy OK

Track 7

Filename G:\Planet X - Live From Oz (2002) {SPV}\07 - Derek Sherinian Solo.wav

Peak level 98.8 %
Extraction speed 6.8 X
Track quality 100.0 %
Test CRC 7E47C4C6
Copy CRC 7E47C4C6
Accurately ripped (confidence 10) [7879D052]
Copy OK

Track 8

Filename G:\Planet X - Live From Oz (2002) {SPV}\08 - Warfinger.wav

Peak level 98.8 %
Extraction speed 7.5 X
Track quality 100.0 %
Test CRC E9668818
Copy CRC E9668818
Accurately ripped (confidence 10) [F6657892]
Copy OK

Track 9

Filename G:\Planet X - Live From Oz (2002) {SPV}\09 - Virgil Donati Solo.wav

Peak level 98.9 %
Extraction speed 7.6 X
Track quality 100.0 %
Test CRC 65CDA0B7
Copy CRC 65CDA0B7
Accurately ripped (confidence 10) [298793FC]
Copy OK

Track 10

Filename G:\Planet X - Live From Oz (2002) {SPV}\10 - Warfinger Reprise.wav

Peak level 98.9 %
Extraction speed 6.8 X
Track quality 100.0 %
Test CRC 391180BD
Copy CRC 391180BD
Accurately ripped (confidence 10) [067390C8]
Copy OK

Track 11

Filename G:\Planet X - Live From Oz (2002) {SPV}\11 - Tony Macalpine Solo.wav

Peak level 93.3 %
Extraction speed 8.2 X
Track quality 100.0 %
Test CRC 993E6988
Copy CRC 993E6988
Accurately ripped (confidence 10) [7DED5D21]
Copy OK

Track 12

Filename G:\Planet X - Live From Oz (2002) {SPV}\12 - Her Animal.wav

Peak level 98.9 %
Extraction speed 8.4 X
Track quality 100.0 %
Test CRC 28D34760
Copy CRC 28D34760
Accurately ripped (confidence 10) [44C53F60]
Copy OK

Track 13

Filename G:\Planet X - Live From Oz (2002) {SPV}\13 - Europa.wav

Peak level 100.0 %
Extraction speed 7.0 X
Track quality 99.9 %
Test CRC 82217C8D
Copy CRC 82217C8D
Accurately ripped (confidence 10) [12C5C62E]
Copy OK

Track 14

Filename G:\Planet X - Live From Oz (2002) {SPV}\14 - Pods Of Trance.wav

Peak level 98.9 %
Extraction speed 9.1 X
Track quality 100.0 %
Test CRC 3DAE2B76
Copy CRC 3DAE2B76
Accurately ripped (confidence 10) [64F70DF4]
Copy OK

Track 15

Filename G:\Planet X - Live From Oz (2002) {SPV}\15 - Clonus (Hidden Track).wav

Pre-gap length 0:00:02.28

Peak level 98.9 %
Extraction speed 8.7 X
Track quality 100.0 %
Test CRC 034D7AD2
Copy CRC 034D7AD2
Accurately ripped (confidence 10) [6050D997]
Copy OK


All tracks accurately ripped

No errors occurred

End of status report

==== Log checksum E9BAF93E4CA58281F1EFCD725A92214D1C38ED79A83E2E0FEA1CEC5F803243FC ====
Planet X - Live From Oz (2002) {SPV}
Planet X - Live From Oz (2002) {SPV}




The Files Are Interchangeable

A Rip By tiburon

Visit My Blog