Subcategories

Primal Fear - Metal Commando (2020) [2CD Limited Edition]

Posted By: gribovar
Primal Fear - Metal Commando (2020) [2CD Limited Edition]

Primal Fear - Metal Commando (2020) [2CD Limited Edition]
EAC Rip | FLAC (image+.cue+log) - 529 MB | MP3 CBR 320 kbps (LAME 3.93) - 167 MB | Covers - 28 MB
Genre: Heavy/Power Metal | RAR 3% Rec. | Label: Nuclear Blast (27361 52440)

Primal Fear delivered a jolt to German heavy metal as early as 1998 with their eponymous, ferocious debut, fortifying their well-earned status with a following onslaught of rapid successors. They have now achieved a rebirth of epic proportions, even outperforming their viciously strong last release "Apocalypse" (2018), an album that deservedly yielded their highest-ever chart entries in the USA, Germany, Canada, Japan and Switzerland. Those who hailed Primal Fear before will surely kneel before "Metal Commando", and those who aren't already addicted to the southern German's sound, simply now have no reason to not fall for it. The songs are too strong, the hooks too merciless, the refrains too huge - their trademark phalanx of three guitars is too insurmountable and the riffs too unerring to be resisted.
CD 1 Tracklist:
01. I Am Alive
02. Along Came The Devil
03. Halo
04. Hear Me Calling
05. The Lost And The Forgotten
06. My Name Is Fear
07. I Will Be Gone
08. Raise Your Fists
09. Howl Of The Banshee
10. Afterlife
11. Infinity

Total time: 57:03

CD 2 Tracklist:
01. Rising Fear
02. Leave Me Alone
03. Second To None
04. Crucify Me

Total time: 14:03

Exact Audio Copy V1.3 from 2. September 2016

EAC extraction logfile from 10. September 2020, 20:04

Primal Fear / Metal Commando - Digipak Ed. CD1

Used drive : ASUS DRW-24D5MT Adapter: 1 ID: 0

Read mode : Secure
Utilize accurate stream : Yes
Defeat audio cache : Yes
Make use of C2 pointers : No

Read offset correction : 6
Overread into Lead-In and Lead-Out : No
Fill up missing offset samples with silence : Yes
Delete leading and trailing silent blocks : No
Null samples used in CRC calculations : Yes
Used interface : Native Win32 interface for Win NT & 2000

Used output format : User Defined Encoder
Selected bitrate : 768 kBit/s
Quality : High
Add ID3 tag : No
Command line compressor : C:\Program Files (x86)\Exact Audio Copy\FLAC\FLAC.EXE
Additional command line options : -6 -V -T "ARTIST=%artist%" -T "TITLE=%title%" -T "ALBUM=%albumtitle%" -T "DATE=%year%" -T "TRACKNUMBER=%tracknr%" -T "GENRE=%genre%" -T "COMMENT=%comment%" -T "BAND=%albuminterpret%" -T "ALBUMARTIST=%albuminterpret%" -T "COMPOSER=%composer%" %haslyrics%–tag-from-file=LYRICS="%lyricsfile%"%haslyrics% -T "DISCNUMBER=%cdnumber%" -T "TOTALDISCS=%totalcds%" -T "TOTALTRACKS=%numtracks%" %hascover%–picture="%coverfile%"%hascover% %source% -o %dest%


TOC of the extracted CD

Track | Start | Length | Start sector | End sector
––––––––––––––––––––––––––––-
1 | 0:00.00 | 4:34.62 | 0 | 20611
2 | 4:34.62 | 4:21.12 | 20612 | 40198
3 | 8:55.74 | 4:19.54 | 40199 | 59677
4 | 13:15.53 | 4:39.55 | 59678 | 80657
5 | 17:55.33 | 4:08.00 | 80658 | 99257
6 | 22:03.33 | 4:04.10 | 99258 | 117567
7 | 26:07.43 | 4:26.21 | 117568 | 137538
8 | 30:33.64 | 3:52.46 | 137539 | 154984
9 | 34:26.35 | 4:54.42 | 154985 | 177076
10 | 39:21.02 | 4:29.71 | 177077 | 197322
11 | 43:50.73 | 13:12.15 | 197323 | 256737


Range status and errors

Selected range

Filename E:\Música\EAC\Primal Fear\Primal Fear - Metal Commando - Digipak Ed. CD1.wav

Peak level 94.3 %
Extraction speed 1.7 X
Range quality 100.0 %
Test CRC 0D8F539C
Copy CRC 0D8F539C
Copy OK

No errors occurred


AccurateRip summary

Track 1 accurately ripped (confidence 2) [37E62542] (AR v2)
Track 2 accurately ripped (confidence 2) [D0B571BB] (AR v2)
Track 3 accurately ripped (confidence 2) [F416651B] (AR v2)
Track 4 accurately ripped (confidence 2) [4634775B] (AR v2)
Track 5 accurately ripped (confidence 2) [5854BBD4] (AR v2)
Track 6 accurately ripped (confidence 2) [B278DEDE] (AR v2)
Track 7 accurately ripped (confidence 2) [234431B5] (AR v2)
Track 8 accurately ripped (confidence 2) [3F997338] (AR v2)
Track 9 accurately ripped (confidence 2) [8543A116] (AR v2)
Track 10 accurately ripped (confidence 2) [5844E4B7] (AR v2)
Track 11 accurately ripped (confidence 2) [D309DD00] (AR v2)

All tracks accurately ripped

End of status report

–– CUETools DB Plugin V2.1.6

[CTDB TOCID: gqc1rrUY02lNnrtlzzwO0_WemkQ-] found
Submit result: gqc1rrUY02lNnrtlzzwO0_WemkQ- has been confirmed
Track | CTDB Status
1 | (85/85) Accurately ripped
2 | (85/85) Accurately ripped
3 | (85/85) Accurately ripped
4 | (85/85) Accurately ripped
5 | (85/85) Accurately ripped
6 | (85/85) Accurately ripped
7 | (85/85) Accurately ripped
8 | (85/85) Accurately ripped
9 | (85/85) Accurately ripped
10 | (85/85) Accurately ripped
11 | (85/85) Accurately ripped


==== Log checksum 587E83BE52B99D02EFBA4F2D2CE7817B8FA04636C603281119D346B0CE7B4FCD ====

[CUETools log; Date: 27.09.2020 14:55:03; Version: 2.1.4]
[CTDB TOCID: gqc1rrUY02lNnrtlzzwO0_WemkQ-] found.
Track | CTDB Status
1 | (94/94) Accurately ripped
2 | (94/94) Accurately ripped
3 | (94/94) Accurately ripped
4 | (94/94) Accurately ripped
5 | (94/94) Accurately ripped
6 | (94/94) Accurately ripped
7 | (94/94) Accurately ripped
8 | (94/94) Accurately ripped
9 | (94/94) Accurately ripped
10 | (94/94) Accurately ripped
11 | (94/94) Accurately ripped
[AccurateRip ID: 001478c3-00b32238-a20d5f0b] found.
Track [ CRC | V2 ] Status
01 [404b70e3|37e62542] (0+2/2) Accurately ripped
02 [0e15881e|d0b571bb] (0+2/2) Accurately ripped
03 [c399b980|f416651b] (0+2/2) Accurately ripped
04 [2c40c2cf|4634775b] (0+2/2) Accurately ripped
05 [79e74bee|5854bbd4] (0+2/2) Accurately ripped
06 [c317b710|b278dede] (0+2/2) Accurately ripped
07 [75e78b8f|234431b5] (0+2/2) Accurately ripped
08 [47d1b5dc|3f997338] (0+2/2) Accurately ripped
09 [a4a5cf7c|8543a116] (0+2/2) Accurately ripped
10 [4a3f0a1a|5844e4b7] (0+2/2) Accurately ripped
11 [accdc342|d309dd00] (0+2/2) Accurately ripped

Track Peak [ CRC32 ] [W/O NULL] [ LOG ]
– 94,3 [0D8F539C] [C3356787] CRC32
01 94,3 [7CE771F1] [FB940EC9]
02 94,1 [5BAA8CAE] [234C9622]
03 94,1 [80E0DB53] [2851D84B]
04 94,3 [8DA54620] [9196B5E9]
05 94,2 [AF946323] [B3BE376D]
06 94,3 [1D13BFF0] [A35D1115]
07 94,1 [5D1B21BF] [F76014C7]
08 94,1 [AF26E937] [E555F0C3]
09 94,0 [5FB71EE6] [1EF8AD6A]
10 94,0 [7F79BA13] [CE015488]
11 94,2 [6096CF10] [F3065C95]

Exact Audio Copy V1.3 from 2. September 2016

EAC extraction logfile from 10. September 2020, 20:21

Primal Fear / Metal Commando - Digipak Ed. CD2

Used drive : ASUS DRW-24D5MT Adapter: 1 ID: 0

Read mode : Secure
Utilize accurate stream : Yes
Defeat audio cache : Yes
Make use of C2 pointers : No

Read offset correction : 6
Overread into Lead-In and Lead-Out : No
Fill up missing offset samples with silence : Yes
Delete leading and trailing silent blocks : No
Null samples used in CRC calculations : Yes
Used interface : Native Win32 interface for Win NT & 2000

Used output format : User Defined Encoder
Selected bitrate : 768 kBit/s
Quality : High
Add ID3 tag : No
Command line compressor : C:\Program Files (x86)\Exact Audio Copy\FLAC\FLAC.EXE
Additional command line options : -6 -V -T "ARTIST=%artist%" -T "TITLE=%title%" -T "ALBUM=%albumtitle%" -T "DATE=%year%" -T "TRACKNUMBER=%tracknr%" -T "GENRE=%genre%" -T "COMMENT=%comment%" -T "BAND=%albuminterpret%" -T "ALBUMARTIST=%albuminterpret%" -T "COMPOSER=%composer%" %haslyrics%–tag-from-file=LYRICS="%lyricsfile%"%haslyrics% -T "DISCNUMBER=%cdnumber%" -T "TOTALDISCS=%totalcds%" -T "TOTALTRACKS=%numtracks%" %hascover%–picture="%coverfile%"%hascover% %source% -o %dest%


TOC of the extracted CD

Track | Start | Length | Start sector | End sector
––––––––––––––––––––––––––––-
1 | 0:00.00 | 1:39.62 | 0 | 7486
2 | 1:39.62 | 4:04.08 | 7487 | 25794
3 | 5:43.70 | 4:12.15 | 25795 | 44709
4 | 9:56.10 | 4:06.71 | 44710 | 63230


Range status and errors

Selected range

Filename E:\Música\EAC\Primal Fear\Primal Fear - Metal Commando - Digipak Ed. CD2.wav

Peak level 97.0 %
Extraction speed 1.3 X
Range quality 100.0 %
Test CRC 6E1D4156
Copy CRC 6E1D4156
Copy OK

No errors occurred


AccurateRip summary

Track 1 accurately ripped (confidence 1) [27751502] (AR v2)
Track 2 accurately ripped (confidence 1) [0BB3D3EF] (AR v2)
Track 3 accurately ripped (confidence 1) [27A00629] (AR v2)
Track 4 accurately ripped (confidence 1) [EA3213AD] (AR v2)

All tracks accurately ripped

End of status report

–– CUETools DB Plugin V2.1.6

[CTDB TOCID: NAN59iffTrOu6plCCjj5V6_6q1Q-] found
Submit result: NAN59iffTrOu6plCCjj5V6_6q1Q- has been confirmed
Track | CTDB Status
1 | (64/64) Accurately ripped
2 | (64/64) Accurately ripped
3 | (64/64) Accurately ripped
4 | (64/64) Accurately ripped


==== Log checksum 6608B7896D0E154B6BBA20ED6AB4A909C326F9351E2AF25C63861D68E9A5224A ====

[CUETools log; Date: 27.09.2020 14:55:30; Version: 2.1.4]
[CTDB TOCID: NAN59iffTrOu6plCCjj5V6_6q1Q-] found.
Track | CTDB Status
1 | (70/70) Accurately ripped
2 | (70/70) Accurately ripped
3 | (70/70) Accurately ripped
4 | (70/70) Accurately ripped
[AccurateRip ID: 000227a7-0008f65b-26034b04] found.
Track [ CRC | V2 ] Status
01 [b3533a81|27751502] (0+1/3) Accurately ripped
02 [f6b0ff5f|0bb3d3ef] (0+1/3) Accurately ripped
03 [d692ec2f|27a00629] (0+1/3) Accurately ripped
04 [bcc5bf78|ea3213ad] (0+1/3) Accurately ripped

Track Peak [ CRC32 ] [W/O NULL] [ LOG ]
– 97,0 [6E1D4156] [E442584A] CRC32
01 94,1 [13BF5818] [4D1FA31B]
02 97,0 [9DFC4814] [118EBE4A]
03 94,3 [1F8AD338] [7C59FE75]
04 94,3 [67798A43] [CAC263BC]

Thanks to jarpomarx