Subcategories
Tags
Language
Tags

Procol Harum - Shine On Brightly (1968) [1997, Repertoire REP 4667-WY]

Posted By: v3122
Procol Harum - Shine On Brightly (1968) [1997, Repertoire REP 4667-WY]

Procol Harum - Shine On Brightly (1968)
EAC | Flac(Image) + Cue + Log & MP3 CBR 320Kbps
Repertoire, REP 4667-WY | ~ 290 or 117 Mb | Scans(600dpi, jpg) -> 66 Mb
Psychedelic Rock / Prog Rock / Classic Rock

As an album, "Shine on Brightly" is somewhat of a concept piece. It seems to chronicle the fall and subsequent rise of an ordinary individual as he/she progresses through paranoia and insanity to self actualization and nirvanic bliss. This journey is summarized in the epic eighteen minute "In Held 'Twas In I." But, more on that masterpiece in a moment. Six songs of individual importance, beauty, and weight lead up to Procol's opus. Of these, my personal favorites are "Quite Rightly So," "Skip Softly (My Moonbeams)," and "Magdalene (My Regal Zonophone)." "Magdalene" and "Skip Softly" are particularly beautiful in their lyrics, which seem deal with the redemptive qualities of music and the descent into a dark world of insanity, repectively. For me, however, the true highlight of the album is "In Held 'Twas In I," particularly the "Grand Finale." The composition never really lags or bores (like most Art or Progressive Rock epics), and always greets the ears with new and marvelous sounds. The Westside reissue again features songs that are either previously unreleased, B-sides, or alternate versions. Of these, the cynical "Seem to Have the Blues (Mostly All the Time)" and "In the Wee Small Hours of Sixpence" are probably the strongest, although Gary Brooker does a nice job with the Italian rendering of the lyrics to "Shine on Brightly" in the rarity, "Il Tuo Diamante." All in all, Procol's second album is an exciting and magnificent Art-Rock production, worth owning not only for fans of the band but fans who admire intelligent lyrics and songwriting of a heightened quality.

By A Customer, amazon
Procol Harum - Shine On Brightly (1968) [1997, Repertoire REP 4667-WY]


Procol Harum - Shine On Brightly (1968):

Procol Harum - Shine On Brightly (1968) [1997, Repertoire REP 4667-WY]

Tracklist:

01. Quite Rightly So 3:41
02. Shine On Brightly 3:32
03. Skip Softly (My Moonbeams) 3:47
04. Wish Me Well 3:18
05. Rambling On 4:31
06. Magdelene (My Regal Zonophone) 2:51
07. In Held Twas In I 17:32
08. In The Wee Small Hours Of Sixpence 3:00
09. Il Tuo Diamante 3:29
10. Homburg (Stereo Version) 3:54

Exact Audio Copy V1.1 from 23. June 2015

EAC extraction logfile from 17. October 2015, 13:43

Procol Harum / Shine On Brightly (REP 4667-WY)

Used drive : PLEXTOR DVDR PX-891SA Adapter: 1 ID: 0

Read mode : Secure
Utilize accurate stream : Yes
Defeat audio cache : Yes
Make use of C2 pointers : No

Read offset correction : 6
Overread into Lead-In and Lead-Out : No
Fill up missing offset samples with silence : Yes
Delete leading and trailing silent blocks : No
Null samples used in CRC calculations : Yes
Used interface : Native Win32 interface for Win NT & 2000

Used output format : User Defined Encoder
Selected bitrate : 128 kBit/s
Quality : High
Add ID3 tag : No
Command line compressor : C:\Program Files (x86)\Exact Audio Copy\Flac\flac.exe
Additional command line options : -V -8 -T "Genre=%genre%" -T "Artist=%artist%" -T "Title=%title%" -T "Album=%albumtitle%" -T "Date=%year%" -T "Tracknumber=%tracknr%" -T "Comment=%comment%" %source%


TOC of the extracted CD

Track | Start | Length | Start sector | End sector
––––––––––––––––––––––––––––-
1 | 0:00.00 | 3:40.55 | 0 | 16554
2 | 3:40.55 | 3:32.00 | 16555 | 32454
3 | 7:12.55 | 3:47.37 | 32455 | 49516
4 | 11:00.17 | 3:18.35 | 49517 | 64401
5 | 14:18.52 | 4:31.28 | 64402 | 84754
6 | 18:50.05 | 2:50.65 | 84755 | 97569
7 | 21:40.70 | 17:31.52 | 97570 | 176446
8 | 39:12.47 | 3:00.28 | 176447 | 189974
9 | 42:13.00 | 3:29.22 | 189975 | 205671
10 | 45:42.22 | 3:53.53 | 205672 | 223199


Range status and errors

Selected range

Filename H:\dafnaplus\Procol Harum\Shine On Brightly\Procol Harum - Shine On Brightly (REP 4667-WY).wav

Peak level 98.4 %
Extraction speed 7.6 X
Range quality 100.0 %
Test CRC B2DB8257
Copy CRC B2DB8257
Copy OK

No errors occurred


AccurateRip summary

Track 1 accurately ripped (confidence 16) [F7849F12] (AR v2)
Track 2 accurately ripped (confidence 16) [14B550CD] (AR v2)
Track 3 accurately ripped (confidence 16) [77EBA2CE] (AR v2)
Track 4 accurately ripped (confidence 16) [52D5BD44] (AR v2)
Track 5 accurately ripped (confidence 16) [219D62F0] (AR v2)
Track 6 accurately ripped (confidence 17) [935A01A1] (AR v2)
Track 7 accurately ripped (confidence 16) [EE7F77F1] (AR v2)
Track 8 accurately ripped (confidence 16) [BA76C11D] (AR v2)
Track 9 accurately ripped (confidence 16) [5223FCFA] (AR v2)
Track 10 accurately ripped (confidence 17) [60A7D3D6] (AR v2)

All tracks accurately ripped

End of status report

–– CUETools DB Plugin V2.1.6

[CTDB TOCID: oD2O.uKDCtt6kYPE67GOM3l9piI-] found
Submit result: oD2O.uKDCtt6kYPE67GOM3l9piI- has been confirmed
Track | CTDB Status
1 | (25/25) Accurately ripped
2 | (25/25) Accurately ripped
3 | (25/25) Accurately ripped
4 | (25/25) Accurately ripped
5 | (25/25) Accurately ripped
6 | (25/25) Accurately ripped
7 | (24/25) Accurately ripped
8 | (25/25) Accurately ripped
9 | (25/25) Accurately ripped
10 | (25/25) Accurately ripped


==== Log checksum 3ABA2634833FD52442AA8DBEAF29F71871ACCBE07822573C63641D324EE2D0FF ====

foobar2000 1.2.9 / Dynamic Range Meter 1.1.1
log date: 2015-10-20 12:04:38

––––––––––––––––––––––––––––––––––––––––
Analyzed: Procol Harum / Shine On Brightly (REP 4667-WY)
––––––––––––––––––––––––––––––––––––––––

DR Peak RMS Duration Track
––––––––––––––––––––––––––––––––––––––––
DR7 -0.26 dB -9.65 dB 3:41 01-Quite Rightly So
DR9 -1.31 dB -12.81 dB 3:32 02-Shine On Brightly
DR9 -0.14 dB -11.99 dB 3:47 03-Skip Softly (My Moonbeams)
DR7 -0.83 dB -10.71 dB 3:18 04-Wish Me Well
DR9 -0.45 dB -11.91 dB 4:31 05-Rambling On
DR9 -0.14 dB -13.22 dB 2:51 06-Magdelene (My Regal Zonophone)
DR9 -0.27 dB -12.71 dB 17:32 07-In Held Twas In I
DR11 -0.14 dB -12.97 dB 3:00 08-In The Wee Small Hours Of Sixpence
DR8 -1.30 dB -11.12 dB 3:29 09-Il Tuo Diamante
DR10 -0.14 dB -11.94 dB 3:54 10-Homburg (Stereo Version)
––––––––––––––––––––––––––––––––––––––––

Number of tracks: 10
Official DR value: DR9

Samplerate: 44100 Hz
Channels: 2
Bits per sample: 16
Bitrate: 795 kbps
Codec: FLAC

[CUETools log; Date: 20.10.2015 11:59:43; Version: 2.1.4]
[CTDB TOCID: oD2O.uKDCtt6kYPE67GOM3l9piI-] found.
Track | CTDB Status
1 | (26/26) Accurately ripped
2 | (26/26) Accurately ripped
3 | (26/26) Accurately ripped
4 | (26/26) Accurately ripped
5 | (26/26) Accurately ripped
6 | (26/26) Accurately ripped
7 | (25/26) Accurately ripped
8 | (26/26) Accurately ripped
9 | (26/26) Accurately ripped
10 | (26/26) Accurately ripped
[AccurateRip ID: 00116744-00909511-6a0ba00a] found.
Track [ CRC | V2 ] Status
01 [da62920c|f7849f12] (15+16/38) Accurately ripped
02 [1a7df15c|14b550cd] (15+16/37) Accurately ripped
03 [36f4308b|77eba2ce] (15+16/37) Accurately ripped
04 [2c5a446a|52d5bd44] (15+16/37) Accurately ripped
05 [19e157fd|219d62f0] (15+16/37) Accurately ripped
06 [ee6df251|935a01a1] (15+17/38) Accurately ripped
07 [f3980608|ee7f77f1] (15+16/37) Accurately ripped
08 [39423979|ba76c11d] (15+16/37) Accurately ripped
09 [d319de95|5223fcfa] (15+16/37) Accurately ripped
10 [feaeeff6|60a7d3d6] (16+17/39) Accurately ripped
Offsetted by -267:
01 [7d904134] (03/38) Accurately ripped
02 [7a732fd1] (03/37) Accurately ripped
03 [4a02f9dd] (03/37) Accurately ripped
04 [bab8fbfc] (03/37) Accurately ripped
05 [d68a8f06] (03/37) Accurately ripped
06 [051715b3] (03/38) Accurately ripped
07 [367548e8] (03/37) Accurately ripped
08 [c8c3c7a6] (03/37) Accurately ripped
09 [618746b9] (03/37) Accurately ripped
10 [10efbe81] (03/39) Accurately ripped
Offsetted by -676:
01 [4980e6ec] (00/38) No match (V2 was not tested)
02 [5279b8b8] (00/37) No match (V2 was not tested)
03 [ed6feb23] (00/37) No match (V2 was not tested)
04 [c4c00202] (00/37) No match (V2 was not tested)
05 [b46c35c9] (00/37) No match (V2 was not tested)
06 [d4630ba9] (00/38) No match (V2 was not tested)
07 [d2937c88] (00/37) No match (V2 was not tested)
08 [fae27275] (00/37) No match (V2 was not tested)
09 [886865c5] (00/37) No match (V2 was not tested)
10 [9efea49a] (00/39) No match (V2 was not tested)

Track Peak [ CRC32 ] [W/O NULL] [ LOG ]
– 98,4 [B2DB8257] [B439575D] CRC32
01 97,0 [76B0B28C] [D5738408]
02 85,9 [45C7C513] [C66B1744]
03 98,4 [1214D7EF] [68F4E100]
04 90,9 [F7144597] [8A6E889A]
05 94,9 [32BB0496] [23A6F93B]
06 98,4 [7B8E280A] [02D34940]
07 96,9 [13A29F99] [90F1762E]
08 98,4 [D1AF3EA7] [7FBF37FD]
09 86,0 [AEA934ED] [FC509677]
10 98,4 [C14B555C] [B55E9084]

Procol Harum - Shine On Brightly (1968) [1997, Repertoire REP 4667-WY]

All thanks go to dafnaplus

Procol Harum in my Blog

Download Procol Harum - Shine On Brightly (1968):