Subcategories

Andris Nelsons, Orchestra of the Royal Opera House - Puccini: La Boheme (2010) [Blu-ray]

Posted By: Vilboa
Andris Nelsons, Orchestra of the Royal Opera House - Puccini: La Boheme (2010) [Blu-ray]

Andris Nelsons, Orchestra of the Royal Opera House - Puccini: La Bohème (2010) [Blu-ray]
BluRay | BDMV | MPEG-4 AVC Video / 33946 kbps / 1080i / 29,970 fps | 112 min | 36,1 Gb
Audio1: Italian / LPCM Audio / 2.0 / 24-bit | Audio2: DTS-HD MA / 5.1 / 48 kHz / 4331 kbps / 24-bit

BluRay-rip | AVC | MKV 1920x1080 / 6215 kbps / 29,970 fps | 112 min | 6,09 Gb
Audio: DTS / 6ch / 48.0 KHz / 24 bits
Classical | Opus Arte| Sub: English, French, German, Spanish, Italian

John Copley’s enduring production of one of the most famously melodious and popular of all operas is a classic of the Royal Opera repertory. With historically accurate designs by Julia Trevelyan Oman and an excellent cast headed by Hibla Gerzmava and Teodor Ilincai, this 2009 revival, in which conductor Andris Nelsons makes a distinguished Royal Opera House debut, does full justice to Puccini’s masterpiece. Filmed in High Definition and recorded in true surround sound.

Cast:
Mimi - Hibla Gerzmava
Rodolfo - Teodor Ilincai
Marchello - Gabriele Viviani
Musetta - Inna Dukach
Colline - Kostas Smoriginas
Schaunard - Jacques Imbrailo
Benoît - Jeremy White
Alcindoro - Donald Maxwell
Royal Opera Chorus
Orchestra of the Royal Opera House
Conductor - Andris Nelsons


Disc Title: PUCCINI_LA_BOHEME
Disc Size: 38 826 003 200 bytes
Protection: AACS
BD-Java: No
Playlist: 00002.MPLS
Size: 36 311 377 920 bytes
Length: 1:52:52.298
Total Bitrate: 42,89 Mbps
Video: MPEG-4 AVC Video / 33946 kbps / 1080i / 29,970 fps / 16:9 / High Profile 4.1
Audio: Italian / DTS-HD Master Audio / 5.1 / 48 kHz / 4331 kbps / 24-bit (DTS Core: 5.1 / 48 kHz / 1509 kbps / 24-bit)
Audio: Italian / LPCM Audio / 2.0 / 48 kHz / 2304 kbps / 24-bit
Subtitle: English / 25,695 kbps
Subtitle: French / 29,435 kbps
Subtitle: German / 32,279 kbps
Subtitle: Spanish / 27,793 kbps
Subtitle: Italian / 25,428 kbps


General
Unique ID : 206919244924925659730580535086056100199 (0x9BAB326DBEF9F85D8C35AFBC460E5167)
Complete name : C:\La_Boheme.mkv
Format : Matroska
Format version : Version 2
File size : 6.10 GiB
Duration : 1h 52mn
Overall bit rate : 7 732 Kbps
Movie name : La_Boheme
Encoded date : UTC 2017-11-18 14:30:01
Writing application : DVDFab 9.1.6.8
Writing library : libebml v0.7.8 + libmatroska v0.8.1

Video
ID : 1
Format : AVC
Format/Info : Advanced Video Codec
Format profile : High@L4.1
Format settings, CABAC : Yes
Format settings, ReFrames : 2 frames
Codec ID : V_MPEG4/ISO/AVC
Duration : 1h 52mn
Bit rate : 6 215 Kbps
Width : 1 920 pixels
Height : 1 080 pixels
Display aspect ratio : 16:9
Frame rate mode : Constant
Frame rate : 29.970 fps
Color space : YUV
Chroma subsampling : 4:2:0
Bit depth : 8 bits
Scan type : Progressive
Bits/(Pixel*Frame) : 0.100
Stream size : 4.78 GiB (78%)
Writing library : x264 core 142
Encoding settings : cabac=1 / ref=1 / deblock=1:-1:-1 / analyse=0x3:0 / me=hex / subme=5 / psy=0 / mixed_ref=0 / me_range=16 / chroma_me=1 / trellis=0 / 8x8dct=1 / cqm=0 / deadzone=21,11 / fast_pskip=1 / chroma_qp_offset=0 / threads=8 / lookahead_threads=2 / sliced_threads=0 / nr=0 / decimate=1 / interlaced=0 / bluray_compat=0 / constrained_intra=0 / bframes=2 / b_pyramid=0 / b_adapt=1 / b_bias=0 / direct=1 / weightb=1 / open_gop=0 / weightp=0 / keyint=24 / keyint_min=13 / scenecut=40 / intra_refresh=0 / rc=abr / mbtree=0 / bitrate=6215 / ratetol=1.0 / qcomp=0.60 / qpmin=0 / qpmax=69 / qpstep=4 / ip_ratio=1.40 / pb_ratio=1.30 / aq=1:1.00
Default : Yes
Forced : No
Color primaries : BT.709
Transfer characteristics : BT.709
Matrix coefficients : BT.709
Color range : Limited

Audio
ID : 2
Format : DTS
Format/Info : Digital Theater Systems
Mode : 16
Format settings, Endianness : Big
Codec ID : A_DTS
Duration : 1h 52mn
Bit rate mode : Constant
Bit rate : 1 509 Kbps
Channel(s) : 6 channels
Channel positions : Front: L C R, Side: L R, LFE
Sampling rate : 48.0 KHz
Bit depth : 24 bits
Compression mode : Lossy
Stream size : 1.19 GiB (20%)
Language : Italian
Default : Yes
Forced : No

Text #1
ID : 3
Format : VobSub
Codec ID : S_VOBSUB
Codec ID/Info : The same subtitle format used on DVDs
Language : English
Default : Yes
Forced : No

Text #2
ID : 4
Format : VobSub
Codec ID : S_VOBSUB
Codec ID/Info : The same subtitle format used on DVDs
Language : French
Default : No
Forced : No

Text #3
ID : 5
Format : VobSub
Codec ID : S_VOBSUB
Codec ID/Info : The same subtitle format used on DVDs
Language : German
Default : No
Forced : No

Text #4
ID : 6
Format : VobSub
Codec ID : S_VOBSUB
Codec ID/Info : The same subtitle format used on DVDs
Language : Spanish
Default : No
Forced : No

Text #5
ID : 7
Format : VobSub
Codec ID : S_VOBSUB
Codec ID/Info : The same subtitle format used on DVDs
Language : Italian
Default : No
Forced : No

Menu
00:00:00.000 : en:Chapter 01
00:01:06.199 : en:Chapter 02
00:06:26.219 : en:Chapter 03
00:10:09.875 : en:Chapter 04
00:16:22.514 : en:Chapter 05
00:20:30.862 : en:Chapter 06
00:25:25.490 : en:Chapter 07
00:30:26.291 : en:Chapter 08
00:35:27.859 : en:Chapter 09
00:39:06.477 : en:Chapter 10
00:43:33.344 : en:Chapter 11
00:47:01.084 : en:Chapter 12
00:52:06.556 : en:Chapter 13
00:54:18.788 : en:Chapter 14
01:00:08.605 : en:Chapter 15
01:04:54.090 : en:Chapter 16
01:10:14.410 : en:Chapter 17
01:13:56.298 : en:Chapter 18
01:19:48.550 : en:Chapter 19
01:21:33.288 : en:Chapter 20
01:24:12.747 : en:Chapter 21
01:28:11.586 : en:Chapter 22
01:33:46.287 : en:Chapter 23
01:36:21.509 : en:Chapter 24
01:42:13.127 : en:Chapter 25
01:48:12.319 : en:Chapter 26

All screenshots taken from BDRip

Andris Nelsons, Orchestra of the Royal Opera House - Puccini: La Boheme (2010) [Blu-ray]