Subcategories

Carlo Rizzi, Netherlands Philharmonic Orchestra - Puccini: La Fanciulla del West (2010) [Blu-Ray]

Posted By: Vilboa
Carlo Rizzi, Netherlands Philharmonic Orchestra - Puccini: La Fanciulla del West (2010) [Blu-Ray]

Carlo Rizzi, Netherlands Philharmonic Orchestra - Puccini: La Fanciulla del West (2010) [Blu-Ray]
BluRay | BDMV | MPEG-4 AVC Video / 30935 kbps / 1080i / 29,970 fps | 138 min | 42,6 Gb
Audio1: Italian / LPCM Audio / 2.0 / 24-bit | Audio2: DTS-HD Master Audio / 5.0 / 48 kHz / 3574 kbps / 24-bit

BluRay-rip | AVC | MKV 1920x1080 / 6215 kbps / 29,97 fps | 138 min | 7,52 Gb
Audio: Italian / DTS / 5ch / 48.0 KHz / 24 bits
Classical | Opus Arte | Sub: English, German, French, Spanish, Italian, Dutch

Nikolaus Lehnhoff's Hollywood-style production updates Belasco's Wild West, perfectly reflecting Puccini's innovatory spirit. In a new angle on the age-old love triangle theme, corrupt Sheriff Jack Rance (Lucio Gallo) and charismatic criminal Dick Johnson (Zoran Todorovich) vie for the love of glamorous blonde and devout Christian Minnie (Eva-Maria Westbroek), finding her way in a man's world. Carlo Rizzi's idiomatic conducting draws excellent singing from a large cast and fine playing from the Nederlands Philharmonic Orchestra.

Cast:
Minnie – Eva-Maria Westbroek
Jack Rance – Lucio Gallo
Dick Johnson – Zoran Todorovich
Nick – Roman Sadnik
Ashby – Diogenes Randes
Sonora – Stephen Gadd
Billy Jackrabbit – Tijl Faveyts
Wowkle – Ellen Rabiner
Jake Wallace – André Morsch
José Castro – Roger Smeets
Chorus of De Nederlandse Opera
Netherlands Philharmonic Orchestra
Conductor - Carlo Rizzi


Disc Title: LA FANCIULLA DEL WEST
Disc Size: 45 760 357 809 bytes
Protection: AACS
BD-Java: No
Playlist: 00002.MPLS
Size: 40 537 368 576 bytes
Length: 2:18:40.345
Total Bitrate: 38,98 Mbps
Video: MPEG-4 AVC Video / 30935 kbps / 1080i / 29,970 fps / 16:9 / High Profile 4.1
Audio: Italian / DTS-HD Master Audio / 5.0 / 48 kHz / 3574 kbps / 24-bit (DTS Core: 5.0 / 48 kHz / 1509 kbps / 24-bit)
Audio: Italian / LPCM Audio / 2.0 / 48 kHz / 2304 kbps / 24-bit
Subtitle: English / 26,575 kbps
Subtitle: French / 27,861 kbps
Subtitle: German / 27,484 kbps
Subtitle: Spanish / 24,513 kbps
Subtitle: Italian / 23,187 kbps
Subtitle: Dutch / 23,838 kbps


General
Unique ID : 212104929146434983342941430634517814366 (0x9F91EC6688609F78A1AF9AF19112DC5E)
Complete name : C:\La_Fanciulla_del_West.mkv
Format : Matroska
Format version : Version 2
File size : 7.53 GiB
Duration : 2h 18mn
Overall bit rate : 7 770 Kbps
Movie name : La_Fanciulla_del_West
Encoded date : UTC 2017-11-02 08:39:15
Writing application : DVDFab 9.1.6.8
Writing library : libebml v0.7.8 + libmatroska v0.8.1

Video
ID : 1
Format : AVC
Format/Info : Advanced Video Codec
Format profile : High@L4.1
Format settings, CABAC : Yes
Format settings, ReFrames : 2 frames
Codec ID : V_MPEG4/ISO/AVC
Duration : 2h 18mn
Bit rate : 6 215 Kbps
Width : 1 920 pixels
Height : 1 080 pixels
Display aspect ratio : 16:9
Frame rate mode : Constant
Frame rate : 29.970 fps
Color space : YUV
Chroma subsampling : 4:2:0
Bit depth : 8 bits
Scan type : Progressive
Bits/(Pixel*Frame) : 0.100
Stream size : 5.91 GiB (79%)
Writing library : x264 core 142
Encoding settings : cabac=1 / ref=1 / deblock=1:-1:-1 / analyse=0x3:0 / me=hex / subme=5 / psy=0 / mixed_ref=0 / me_range=16 / chroma_me=1 / trellis=0 / 8x8dct=1 / cqm=0 / deadzone=21,11 / fast_pskip=1 / chroma_qp_offset=0 / threads=8 / lookahead_threads=2 / sliced_threads=0 / nr=0 / decimate=1 / interlaced=0 / bluray_compat=0 / constrained_intra=0 / bframes=2 / b_pyramid=0 / b_adapt=1 / b_bias=0 / direct=1 / weightb=1 / open_gop=0 / weightp=0 / keyint=24 / keyint_min=13 / scenecut=40 / intra_refresh=0 / rc=abr / mbtree=0 / bitrate=6215 / ratetol=1.0 / qcomp=0.60 / qpmin=0 / qpmax=69 / qpstep=4 / ip_ratio=1.40 / pb_ratio=1.30 / aq=1:1.00
Default : Yes
Forced : No
Color primaries : BT.709
Transfer characteristics : BT.709
Matrix coefficients : BT.709
Color range : Limited

Audio
ID : 2
Format : DTS
Format/Info : Digital Theater Systems
Mode : 16
Format settings, Endianness : Big
Codec ID : A_DTS
Duration : 2h 18mn
Bit rate mode : Constant
Bit rate : 1 509 Kbps
Channel(s) : 5 channels
Channel positions : Front: L C R, Side: L R
Sampling rate : 48.0 KHz
Bit depth : 24 bits
Compression mode : Lossy
Stream size : 1.46 GiB (19%)
Language : Italian
Default : Yes
Forced : No

Text #1
ID : 3
Format : VobSub
Codec ID : S_VOBSUB
Codec ID/Info : The same subtitle format used on DVDs
Language : English
Default : Yes
Forced : No

Text #2
ID : 4
Format : VobSub
Codec ID : S_VOBSUB
Codec ID/Info : The same subtitle format used on DVDs
Language : French
Default : No
Forced : No

Text #3
ID : 5
Format : VobSub
Codec ID : S_VOBSUB
Codec ID/Info : The same subtitle format used on DVDs
Language : German
Default : No
Forced : No

Text #4
ID : 6
Format : VobSub
Codec ID : S_VOBSUB
Codec ID/Info : The same subtitle format used on DVDs
Language : Spanish
Default : No
Forced : No

Text #5
ID : 7
Format : VobSub
Codec ID : S_VOBSUB
Codec ID/Info : The same subtitle format used on DVDs
Language : Italian
Default : No
Forced : No

Text #6
ID : 8
Format : VobSub
Codec ID : S_VOBSUB
Codec ID/Info : The same subtitle format used on DVDs
Language : Dutch
Default : No
Forced : No

Menu
00:00:00.000 : en:Chapter 01
00:01:40.800 : en:Chapter 02
00:02:45.665 : en:Chapter 03
00:08:19.365 : en:Chapter 04
00:13:38.083 : en:Chapter 05
00:16:46.038 : en:Chapter 06
00:20:07.472 : en:Chapter 07
00:23:37.816 : en:Chapter 08
00:27:53.004 : en:Chapter 09
00:32:39.057 : en:Chapter 10
00:36:12.336 : en:Chapter 11
00:42:21.071 : en:Chapter 12
00:47:40.257 : en:Chapter 13
00:53:30.273 : en:Chapter 14
00:56:09.766 : en:Chapter 15
01:02:20.269 : en:Chapter 16
01:10:01.864 : en:Chapter 17
01:12:12.194 : en:Chapter 18
01:17:28.076 : en:Chapter 19
01:19:16.785 : en:Chapter 20
01:22:24.472 : en:Chapter 21
01:27:28.343 : en:Chapter 22
01:33:32.707 : en:Chapter 23
01:42:57.337 : en:Chapter 24
01:48:22.662 : en:Chapter 25
01:53:29.636 : en:Chapter 26
01:57:51.731 : en:Chapter 27
02:01:03.155 : en:Chapter 28
02:05:03.395 : en:Chapter 29
02:10:30.889 : en:Chapter 30

All screenshots taken from BDRip

Carlo Rizzi, Netherlands Philharmonic Orchestra - Puccini: La Fanciulla del West (2010) [Blu-Ray]