Subcategories

Herbert von Karajan, Wiener Philharmoniker - Puccini: Madama Butterfly (2014/1974) [BDRip]

Posted By: Vilboa
Herbert von Karajan, Wiener Philharmoniker - Puccini: Madama Butterfly (2014/1974) [BDRip]

Herbert von Karajan, Wiener Philharmoniker - Puccini: Madama Butterfly (2014/1974) [BDRip]
BluRay-rip | AVC | MKV 1920x1080 / 6215 kbps / 29,97 fps | 146 min | 7,90 Gb
Audio: Italiano / DTS / 6ch / 48.0 KHz / 24 bits
Classical | Deutsche Grammophon | Sub: Italian, English, German, French, Spanish, Chinese, Korean

In his sumptuous filming of Puccini's opera, directer Jean-Pierre Ponnelle uses an array of cinematic effects (including a memorable dream sequence) to evoke the protagonists' irreconcilably separate lives and worlds. As Butterfly, Mirella Freni is unbearably moving in one of the finest performances of her career, while Plácido Domingo makes Lt. Pinkerton a more sympathetic figure then usual.

Cast:
Cio-Cio-San (Butterfly) - Mirella Freni
B.F. Pinkerton - Plácido Domingo
Suzuki - Christa Ludwig
Sharpless - Robert Kerns
Goro - Michel Sénéchal
Il Bonzo - Marius Rintzler
Kate Pinkerton: Elke Schary
Il Principle Yamadori - Giorgio Stendoro
Konzertvereinigung Wiener Staatsopernchor
Wiener Philharmoniker
Conductor - Herbert von Karajan
Staged, Directed aand Designed: Jean-Pierre Ponnelle


General
Unique ID : 204197865000848689444257393950211721496 (0x999F140A0F6E784E94488AAB27C44918)
Complete name : C:\Madama Butterfly.mkv
Format : Matroska
Format version : Version 2
File size : 7.91 GiB
Duration : 2h 26mn
Overall bit rate : 7 726 Kbps
Movie name : Madama Butterfly
Encoded date : UTC 2019-11-15 08:09:29
Writing application : DVDFab 9.1.6.8
Writing library : libebml v0.7.8 + libmatroska v0.8.1

Video
ID : 1
Format : AVC
Format/Info : Advanced Video Codec
Format profile : High@L4.1
Format settings, CABAC : Yes
Format settings, ReFrames : 2 frames
Codec ID : V_MPEG4/ISO/AVC
Duration : 2h 26mn
Bit rate : 6 215 Kbps
Width : 1 920 pixels
Height : 1 080 pixels
Display aspect ratio : 16:9
Frame rate mode : Constant
Frame rate : 29.970 fps
Color space : YUV
Chroma subsampling : 4:2:0
Bit depth : 8 bits
Scan type : Progressive
Bits/(Pixel*Frame) : 0.100
Stream size : 6.21 GiB (78%)
Writing library : x264 core 142
Encoding settings : cabac=1 / ref=1 / deblock=1:-1:-1 / analyse=0x3:0 / me=hex / subme=5 / psy=0 / mixed_ref=0 / me_range=16 / chroma_me=1 / trellis=0 / 8x8dct=1 / cqm=0 / deadzone=21,11 / fast_pskip=1 / chroma_qp_offset=0 / threads=8 / lookahead_threads=2 / sliced_threads=0 / nr=0 / decimate=1 / interlaced=0 / bluray_compat=0 / constrained_intra=0 / bframes=2 / b_pyramid=0 / b_adapt=1 / b_bias=0 / direct=1 / weightb=1 / open_gop=0 / weightp=0 / keyint=24 / keyint_min=13 / scenecut=40 / intra_refresh=0 / rc=abr / mbtree=0 / bitrate=6215 / ratetol=1.0 / qcomp=0.60 / qpmin=0 / qpmax=69 / qpstep=4 / ip_ratio=1.40 / pb_ratio=1.30 / aq=1:1.00
Default : Yes
Forced : No
Color primaries : BT.709
Transfer characteristics : BT.709
Matrix coefficients : BT.709
Color range : Limited

Audio
ID : 2
Format : DTS
Format/Info : Digital Theater Systems
Mode : 16
Format settings, Endianness : Big
Codec ID : A_DTS
Duration : 2h 26mn
Bit rate mode : Constant
Bit rate : 1 509 Kbps
Channel(s) : 6 channels
Channel positions : Front: L C R, Side: L R, LFE
Sampling rate : 48.0 KHz
Bit depth : 24 bits
Compression mode : Lossy
Stream size : 1.54 GiB (20%)
Language : Italian
Default : Yes
Forced : No

Text #1
ID : 3
Format : VobSub
Codec ID : S_VOBSUB
Codec ID/Info : The same subtitle format used on DVDs
Language : Italian
Default : Yes
Forced : No

Text #2
ID : 4
Format : VobSub
Codec ID : S_VOBSUB
Codec ID/Info : The same subtitle format used on DVDs
Language : English
Default : No
Forced : No

Text #3
ID : 5
Format : VobSub
Codec ID : S_VOBSUB
Codec ID/Info : The same subtitle format used on DVDs
Language : German
Default : No
Forced : No

Text #4
ID : 6
Format : VobSub
Codec ID : S_VOBSUB
Codec ID/Info : The same subtitle format used on DVDs
Language : French
Default : No
Forced : No

Text #5
ID : 7
Format : VobSub
Codec ID : S_VOBSUB
Codec ID/Info : The same subtitle format used on DVDs
Language : Spanish
Default : No
Forced : No

Text #6
ID : 8
Format : VobSub
Codec ID : S_VOBSUB
Codec ID/Info : The same subtitle format used on DVDs
Language : Chinese
Default : No
Forced : No

Text #7
ID : 9
Format : VobSub
Codec ID : S_VOBSUB
Codec ID/Info : The same subtitle format used on DVDs
Language : Korean
Default : No
Forced : No

Menu
00:00:00.000 : en:Chapter 01
00:00:34.334 : en:Chapter 02
00:02:45.165 : en:Chapter 03
00:07:11.297 : en:Chapter 04
00:10:36.235 : en:Chapter 05
00:15:04.937 : en:Chapter 06
00:18:48.927 : en:Chapter 07
00:22:39.691 : en:Chapter 08
00:26:02.627 : en:Chapter 09
00:28:40.351 : en:Chapter 10
00:32:23.975 : en:Chapter 11
00:37:22.139 : en:Chapter 12
00:39:24.895 : en:Chapter 13
00:43:07.751 : en:Chapter 14
00:47:06.490 : en:Chapter 15
00:55:01.431 : en:Chapter 16
01:02:36.352 : en:Chapter 17
01:07:07.690 : en:Chapter 18
01:09:47.116 : en:Chapter 19
01:14:51.053 : en:Chapter 20
01:16:30.152 : en:Chapter 21
01:19:48.917 : en:Chapter 22
01:25:11.139 : en:Chapter 23
01:30:30.591 : en:Chapter 24
01:35:14.108 : en:Chapter 25
01:40:53.981 : en:Chapter 26
01:45:42.803 : en:Chapter 27
01:48:52.559 : en:Chapter 28
01:56:53.239 : en:Chapter 29
02:01:51.203 : en:Chapter 30
02:05:48.140 : en:Chapter 31
02:10:48.440 : en:Chapter 32
02:16:19.404 : en:Chapter 33
02:19:15.613 : en:Chapter 34
02:24:42.573 : en:Chapter 35

Herbert von Karajan, Wiener Philharmoniker - Puccini: Madama Butterfly (2014/1974) [BDRip]