Subcategories

Queen - At The Beeb (1989) [Japanese edition]

Posted By: v3122
Queen - At The Beeb (1989) [Japanese edition]

Lazy Cowgirls - Tapping The Source (1987)
EAC | Flac(Image) + Cue + Log & MP3 CBR 320Kbps
Bomp! Records / BCD-4025 | ~ 211 or 70 Mb | Scans(jpg) -> 15 Mb
Punk Rock

At the Beeb is a live album by the English rock band Queen, released on vinyl, cassette tape, and CD in 1989. Subsequently, it was released by Hollywood Records in 1995 in the United States and Canada under the title Queen at the BBC on CD and as limited edition picture disc vinyl.

The album comprises tracks recorded in two sessions for the BBC Radio 1 Sound of the 70s programme. The first four tracks were recorded on 5 February 1973; the rest were recorded on 3 December 1973.

All but one track appeared on the album Queen; the exception is "Ogre Battle" which appeared on Queen II. However, the versions featured on At the Beeb are different from the original versions, being closer to the songs as performed live. This is most notable on "Ogre Battle", as it starts right away with its riff (without any long intro), does not have any effects that the version on Queen II has and sounds much less polished. The BBC version of "Ogre Battle" did originally have a long intro featuring a grand guitar build up. It was not used for this release, allegedly because the original tape was damaged…

~ wiki
Queen - At The Beeb (1989):

Queen - At The Beeb (1989) [Japanese edition]

Tracklist:

01. My Fairy King (04:06)
02. Keep Yourself Alive (03:48)
03. Doin' Alright (04:11)
04. Liar (06:30)
05. Ogre Battle (03:57)
06. Great King Rat (05:59)
07. Modern Times Rock 'N' Roll (02:00)
08. Son And Daughter (07:09)

Exact Audio Copy V1.0 beta 4 from 7. December 2014

EAC extraction logfile from 5. January 2015, 22:16

Queen / At The Beeb (1996, TECX-20726)

Used drive : Optiarc BD RW BD-5300S Adapter: 0 ID: 0

Read mode : Secure
Utilize accurate stream : Yes
Defeat audio cache : Yes
Make use of C2 pointers : No

Read offset correction : 6
Overread into Lead-In and Lead-Out : No
Fill up missing offset samples with silence : Yes
Delete leading and trailing silent blocks : No
Null samples used in CRC calculations : Yes
Used interface : Installed external ASPI interface

Used output format : User Defined Encoder
Selected bitrate : 128 kBit/s
Quality : High
Add ID3 tag : Yes
Command line compressor : C:\Program Files (x86)\Exact Audio Copy\Flac\flac.exe
Additional command line options : -V -8 -T "Date=%year%" -T "Genre=%genre%" %source%


TOC of the extracted CD

Track | Start | Length | Start sector | End sector
––––––––––––––––––––––––––––-
1 | 0:00.00 | 4:06.60 | 0 | 18509
2 | 4:06.60 | 3:48.17 | 18510 | 35626
3 | 7:55.02 | 4:11.08 | 35627 | 54459
4 | 12:06.10 | 6:30.07 | 54460 | 83716
5 | 18:36.17 | 3:57.68 | 83717 | 101559
6 | 22:34.10 | 5:59.40 | 101560 | 128524
7 | 28:33.50 | 2:00.15 | 128525 | 137539
8 | 30:33.65 | 7:09.47 | 137540 | 169761


Range status and errors

Selected range

Filename G:\CD\Queen - At The Beeb.wav

Peak level 100.0 %
Extraction speed 7.8 X
Range quality 100.0 %
Test CRC 87D67450
Copy CRC 87D67450
Copy OK

No errors occurred


AccurateRip summary

Track 1 cannot be verified as accurate (confidence 1) [C3999D72], AccurateRip returned [8A14DC53] (AR v2)
Track 2 cannot be verified as accurate (confidence 1) [3313FDD3], AccurateRip returned [32DBF0FE] (AR v2)
Track 3 cannot be verified as accurate (confidence 1) [27C330EC], AccurateRip returned [BA86E6B8] (AR v2)
Track 4 cannot be verified as accurate (confidence 1) [77B4D32A], AccurateRip returned [7C351F7A] (AR v2)
Track 5 accurately ripped (confidence 1) [49390DF5] (AR v1)
Track 6 cannot be verified as accurate (confidence 1) [E225FB95], AccurateRip returned [AA737365] (AR v2)
Track 7 cannot be verified as accurate (confidence 1) [50EB2BC4], AccurateRip returned [4DBD1AD2] (AR v2)
Track 8 cannot be verified as accurate (confidence 1) [2A8F2FA9], AccurateRip returned [BA8BA39B] (AR v2)

1 track(s) accurately ripped
7 track(s) could not be verified as accurate

Some tracks could not be verified as accurate

End of status report

–– CUETools DB Plugin V2.1.4

[CTDB TOCID: RW5INOYIjJq44RIAjBAxQ6sHfV0-] found
Submit result: RW5INOYIjJq44RIAjBAxQ6sHfV0- has been confirmed
Track | CTDB Status
1 | (13/13) Accurately ripped
2 | (13/13) Accurately ripped
3 | (13/13) Accurately ripped
4 | (13/13) Accurately ripped
5 | (13/13) Accurately ripped
6 | (13/13) Accurately ripped
7 | (13/13) Accurately ripped
8 | (13/13) Accurately ripped


==== Log checksum 1280F6391A9322E92B0256329FCB214B497890F64CEDE477C5BF66BEFB674B60 ====


[CUETools log; Date: 31.12.2015 19:08:45; Version: 2.1.4]
[CTDB TOCID: RW5INOYIjJq44RIAjBAxQ6sHfV0-] found.
Track | CTDB Status
1 | (19/19) Accurately ripped
2 | (19/19) Accurately ripped
3 | (19/19) Accurately ripped
4 | (19/19) Accurately ripped
5 | (19/19) Accurately ripped
6 | (19/19) Accurately ripped
7 | (19/19) Accurately ripped
8 | (19/19) Accurately ripped
[AccurateRip ID: 000b2265-004b0924-6c08d708] found.
Track [ CRC | V2 ] Status
01 [9031dac1|c3999d72] (0+1/4) Accurately ripped
02 [f27d24b9|3313fdd3] (0+1/4) Accurately ripped
03 [8016285b|27c330ec] (0+1/4) Accurately ripped
04 [ae05b75d|77b4d32a] (0+1/5) Accurately ripped
05 [49390df5|e73d1763] (1+1/5) Accurately ripped
06 [7022b1da|e225fb95] (0+1/4) Accurately ripped
07 [8d524788|50eb2bc4] (0+1/4) Accurately ripped
08 [f9b00be1|2a8f2fa9] (0+1/4) Accurately ripped
Offsetted by -1535:
01 [8a14dc53] (1/4) Accurately ripped
02 [32dbf0fe] (1/4) Accurately ripped
03 [ba86e6b8] (1/4) Accurately ripped
04 [f7a93796] (1/5) Accurately ripped
05 [d4d423e3] (1/5) Accurately ripped
06 [aa737365] (1/4) Accurately ripped
07 [4dbd1ad2] (1/4) Accurately ripped
08 [ba8ba39b] (1/4) Accurately ripped
Offsetted by -1289:
01 [c7f871fd] (0/4) No match
02 [d9b36692] (0/4) No match
03 [2193d6c6] (0/4) No match
04 [7c351f7a] (1/5) Accurately ripped
05 [1221316c] (0/5) No match
06 [b728c608] (0/4) No match
07 [0f02462a] (0/4) No match
08 [c1336daf] (0/4) No match

Track Peak [ CRC32 ] [W/O NULL] [ LOG ]
– 100,0 [87D67450] [65724137] CRC32
01 79,3 [8231D91C] [EBED0754]
02 100,0 [B6C921DF] [4FB62D08]
03 94,4 [99BB5304] [FA5CD728]
04 100,0 [C4C7C6B2] [181F9C56]
05 100,0 [A90848BB] [D8D77F5B]
06 100,0 [F3FD9A4C] [3FD4BAFA]
07 90,6 [BF5EBFA0] [58DC670C]
08 100,0 [D76DA911] [5540C4B0]


Queen - At The Beeb (1989) [Japanese edition]

All thanks go to the original releaser

Queen in my Blog

Download Queen - At The Beeb (1989):