Subcategories

Queen - On Air (2016) [6CD Box Set]

Posted By: v3122
Queen - On Air (2016) [6CD Box Set]

Queen - On Air (2016)
EAC | Flac(Image) + Cue + Log & MP3 CBR 320Kbps
Virgin/EMI Records, 0602557082319 | ~ 2083 or 941 Mb | Artwork(jpg) -> 80 Mb
Classic Rock, Hard Rock, Interviews

On Air is a compilation album by the British rock band Queen. It was released in November 2016 in a two disc CD format, a six disc deluxe CD format and a 3LP vinyl release. The two disc format features the complete BBC studio sessions; the six disc format adds a disc featuring several songs from three live concerts spanning between 1973 and 1986 and three discs featuring various interviews broadcast on Capital Radio and BBC Radio 1…

~ wiki
Queen - On Air (2016):

Queen - On Air (2016) [6CD Box Set]

Tracklist CD1 - The BBC Sessions:

01. My Fairy King (Session 1 - February 1973) (4:17)
02. Keep Yourself Alive (Session 1 - February 1973) (3:53)
03. Doing All Right (Session 1 - February 1973) (4:18)
04. Liar (Session 1 - February 1973) (6:38)
05. See What a Fool I've Been (Session 2 - July 1973) (4:28)
06. Keep Yourself Alive (Session 2 - July 1973) (3:56)
07. Liar (Session 2 - July 1973) (6:37)
08. Son and Daughter (Session 2 - July 1973) (6:15)
09. Ogre Battle (Session 3 - December 1973) (4:49)
10. Modern Times Rock'n'Roll (Session 3 - December 1973) (2:06)
11. Great King Rat (Session 3 - December 1973) (5:57)
12. Son and Daughter (Session 3 - December 1973) (7:18)

Exact Audio Copy V1.0 beta 3 from 29. August 2011

EAC extraction logfile from 4. November 2016, 22:13

Queen / On Air

Used drive : TSSTcorpDVDWBD SH-B123L Adapter: 2 ID: 0

Read mode : Secure
Utilize accurate stream : Yes
Defeat audio cache : Yes
Make use of C2 pointers : No

Read offset correction : 6
Overread into Lead-In and Lead-Out : No
Fill up missing offset samples with silence : Yes
Delete leading and trailing silent blocks : No
Null samples used in CRC calculations : Yes
Used interface : Native Win32 interface for Win NT & 2000
Gap handling : Appended to previous track

Used output format : User Defined Encoder
Selected bitrate : 128 kBit/s
Quality : High
Add ID3 tag : No
Command line compressor : C:\Program Files (x86)\Exact Audio Copy\Flac\flac.exe
Additional command line options : -8 -V -T "ARTIST=%artist%" -T "TITLE=%title%" -T "ALBUM=%albumtitle%" -T "DATE=%year%" -T "TRACKNUMBER=%tracknr%" -T "GENRE=%genre%" -T "PERFORMER=%albuminterpret%" -T "COMPOSER=%composer%" %haslyrics%–tag-from-file=LYRICS="%lyricsfile%"%haslyrics% -T "ALBUMARTIST=%albumartist%" -T "DISCNUMBER=%cdnumber%" -T "TOTALDISCS=%totalcds%" -T "TOTALTRACKS=%numtracks%" -T "COMMENT=%comment%" %source% -o %dest%


TOC of the extracted CD

Track | Start | Length | Start sector | End sector
––––––––––––––––––––––––––––-
1 | 0:00.00 | 4:17.00 | 0 | 19274
2 | 4:17.00 | 3:53.15 | 19275 | 36764
3 | 8:10.15 | 4:17.38 | 36765 | 56077
4 | 12:27.53 | 6:38.08 | 56078 | 85935
5 | 19:05.61 | 4:28.21 | 85936 | 106056
6 | 23:34.07 | 3:56.31 | 106057 | 123787
7 | 27:30.38 | 6:37.37 | 123788 | 153599
8 | 34:08.00 | 6:14.48 | 153600 | 181697
9 | 40:22.48 | 4:48.39 | 181698 | 203336
10 | 45:11.12 | 2:06.02 | 203337 | 212788
11 | 47:17.14 | 5:57.02 | 212789 | 239565
12 | 53:14.16 | 7:17.46 | 239566 | 272386


Track 1

Filename C:\Music\Queen\On Air (6 CD Set)\Disc 1 - The BBC Sessions\01 - My Fairy King (Session 1 - February 1973).wav

Pre-gap length 0:00:02.00

Peak level 97.9 %
Extraction speed 2.1 X
Track quality 100.0 %
Test CRC F4885296
Copy CRC F4885296
Track not present in AccurateRip database
Copy OK

Track 2

Filename C:\Music\Queen\On Air (6 CD Set)\Disc 1 - The BBC Sessions\02 - Keep Yourself Alive (Session 1 - February 1973).wav

Peak level 98.0 %
Extraction speed 2.2 X
Track quality 100.0 %
Test CRC 2B68361F
Copy CRC 2B68361F
Track not present in AccurateRip database
Copy OK

Track 3

Filename C:\Music\Queen\On Air (6 CD Set)\Disc 1 - The BBC Sessions\03 - Doing All Right (Session 1 - February 1973).wav

Peak level 94.4 %
Extraction speed 2.4 X
Track quality 100.0 %
Test CRC 7B9BD1BE
Copy CRC 7B9BD1BE
Track not present in AccurateRip database
Copy OK

Track 4

Filename C:\Music\Queen\On Air (6 CD Set)\Disc 1 - The BBC Sessions\04 - Liar (Session 1 - February 1973).wav

Peak level 99.1 %
Extraction speed 2.8 X
Track quality 100.0 %
Test CRC DED59C91
Copy CRC DED59C91
Track not present in AccurateRip database
Copy OK

Track 5

Filename C:\Music\Queen\On Air (6 CD Set)\Disc 1 - The BBC Sessions\05 - See What a Fool I've Been (Session 2 - July 1973).wav

Pre-gap length 0:00:03.73

Peak level 99.2 %
Extraction speed 2.9 X
Track quality 100.0 %
Test CRC 24AF73E0
Copy CRC 24AF73E0
Track not present in AccurateRip database
Copy OK

Track 6

Filename C:\Music\Queen\On Air (6 CD Set)\Disc 1 - The BBC Sessions\06 - Keep Yourself Alive (Session 2 - July 1973).wav

Peak level 98.7 %
Extraction speed 3.0 X
Track quality 100.0 %
Test CRC C985B417
Copy CRC C985B417
Track not present in AccurateRip database
Copy OK

Track 7

Filename C:\Music\Queen\On Air (6 CD Set)\Disc 1 - The BBC Sessions\07 - Liar (Session 2 - July 1973).wav

Peak level 97.6 %
Extraction speed 3.4 X
Track quality 100.0 %
Test CRC 88791CCF
Copy CRC 88791CCF
Track not present in AccurateRip database
Copy OK

Track 8

Filename C:\Music\Queen\On Air (6 CD Set)\Disc 1 - The BBC Sessions\08 - Son and Daughter (Session 2 - July 1973).wav

Peak level 100.0 %
Extraction speed 3.6 X
Track quality 100.0 %
Test CRC EC66A77E
Copy CRC EC66A77E
Track not present in AccurateRip database
Copy OK

Track 9

Filename C:\Music\Queen\On Air (6 CD Set)\Disc 1 - The BBC Sessions\09 - Ogre Battle (Session 3 - December 1973).wav

Pre-gap length 0:00:03.77

Peak level 96.7 %
Extraction speed 3.1 X
Track quality 99.9 %
Test CRC E6294758
Copy CRC E6294758
Track not present in AccurateRip database
Copy OK

Track 10

Filename C:\Music\Queen\On Air (6 CD Set)\Disc 1 - The BBC Sessions\10 - Modern Times Rock'n'Roll (Session 3 - December 1973).wav

Peak level 96.8 %
Extraction speed 3.3 X
Track quality 100.0 %
Test CRC 3CD48354
Copy CRC 3CD48354
Track not present in AccurateRip database
Copy OK

Track 11

Filename C:\Music\Queen\On Air (6 CD Set)\Disc 1 - The BBC Sessions\11 - Great King Rat (Session 3 - December 1973).wav

Peak level 96.8 %
Extraction speed 4.0 X
Track quality 100.0 %
Test CRC 63FF4345
Copy CRC 63FF4345
Track not present in AccurateRip database
Copy OK

Track 12

Filename C:\Music\Queen\On Air (6 CD Set)\Disc 1 - The BBC Sessions\12 - Son and Daughter (Session 3 - December 1973).wav

Peak level 100.0 %
Extraction speed 3.5 X
Track quality 99.9 %
Test CRC 98B42BAE
Copy CRC 98B42BAE
Track not present in AccurateRip database
Copy OK


None of the tracks are present in the AccurateRip database

No errors occurred

End of status report

==== Log checksum 99528CF374AC1451CCE2A4CF16E9697F48F0DD4B590C28ED53007EE351748001 ====


Queen - On Air (2016) [6CD Box Set]

Tracklist CD2 - The BBC Sessions:

01. Modern Times Rock'n'Roll (Session 4 - April 1974) (2:53)
02. Nevermore (Session 4 - April 1974) (1:30)
03. White Queen (As It Began) (Session 4 - April 1974) (5:00)
04. Now I'm Here (Session 5 - October 1974) (4:26)
05. Stone Cold Crazy (Session 5 - October 1974) (2:18)
06. Flick of the Wrist (Session 5 - October 1974) (3:31)
07. Tenement Funster (Session 5 - October 1974) (3:16)
08. We Will Rock You (Session 6 - October 1977) (1:36)
09. We Will Rock You (Fast) (Session 6 - October 1977) (2:52)
10. Spread Your Wings (Session 6 - October 1977) (5:33)
11. It's Late (Session 6 - October 1977) (6:37)
12. My Melancholy Blues (Session 6 - October 1977) (3:15)

Exact Audio Copy V1.0 beta 3 from 29. August 2011

EAC extraction logfile from 4. November 2016, 22:57

Queen / On Air

Used drive : TSSTcorpDVDWBD SH-B123L Adapter: 2 ID: 0

Read mode : Secure
Utilize accurate stream : Yes
Defeat audio cache : Yes
Make use of C2 pointers : No

Read offset correction : 6
Overread into Lead-In and Lead-Out : No
Fill up missing offset samples with silence : Yes
Delete leading and trailing silent blocks : No
Null samples used in CRC calculations : Yes
Used interface : Native Win32 interface for Win NT & 2000
Gap handling : Appended to previous track

Used output format : User Defined Encoder
Selected bitrate : 128 kBit/s
Quality : High
Add ID3 tag : No
Command line compressor : C:\Program Files (x86)\Exact Audio Copy\Flac\flac.exe
Additional command line options : -8 -V -T "ARTIST=%artist%" -T "TITLE=%title%" -T "ALBUM=%albumtitle%" -T "DATE=%year%" -T "TRACKNUMBER=%tracknr%" -T "GENRE=%genre%" -T "PERFORMER=%albuminterpret%" -T "COMPOSER=%composer%" %haslyrics%–tag-from-file=LYRICS="%lyricsfile%"%haslyrics% -T "ALBUMARTIST=%albumartist%" -T "DISCNUMBER=%cdnumber%" -T "TOTALDISCS=%totalcds%" -T "TOTALTRACKS=%numtracks%" -T "COMMENT=%comment%" %source% -o %dest%


TOC of the extracted CD

Track | Start | Length | Start sector | End sector
––––––––––––––––––––––––––––-
1 | 0:00.00 | 2:53.31 | 0 | 13005
2 | 2:53.31 | 1:30.20 | 13006 | 19775
3 | 4:23.51 | 5:00.34 | 19776 | 42309
4 | 9:24.10 | 4:25.39 | 42310 | 62223
5 | 13:49.49 | 2:17.71 | 62224 | 72569
6 | 16:07.45 | 3:31.23 | 72570 | 88417
7 | 19:38.68 | 3:16.12 | 88418 | 103129
8 | 22:55.05 | 1:35.41 | 103130 | 110295
9 | 24:30.46 | 2:51.53 | 110296 | 123173
10 | 27:22.24 | 5:32.47 | 123174 | 148120
11 | 32:54.71 | 6:36.70 | 148121 | 177890
12 | 39:31.66 | 3:15.34 | 177891 | 192549


Track 1

Filename C:\Music\Queen\On Air (6 CD Set)\Disc 2 - The BBC Sessions\01 - Modern Times Rock'n'Roll (Session 4 - April 1974).wav

Pre-gap length 0:00:02.00

Peak level 98.1 %
Extraction speed 1.9 X
Track quality 100.0 %
Test CRC E7248E66
Copy CRC E7248E66
Track not present in AccurateRip database
Copy OK

Track 2

Filename C:\Music\Queen\On Air (6 CD Set)\Disc 2 - The BBC Sessions\02 - Nevermore (Session 4 - April 1974).wav

Peak level 96.0 %
Extraction speed 1.3 X
Track quality 99.8 %
Test CRC F3B37EAB
Copy CRC F3B37EAB
Track not present in AccurateRip database
Copy OK

Track 3

Filename C:\Music\Queen\On Air (6 CD Set)\Disc 2 - The BBC Sessions\03 - White Queen (As It Began) (Session 4 - April 1974).wav

Peak level 96.6 %
Extraction speed 2.1 X
Track quality 99.9 %
Test CRC 5B88A4F5
Copy CRC 5B88A4F5
Track not present in AccurateRip database
Copy OK

Track 4

Filename C:\Music\Queen\On Air (6 CD Set)\Disc 2 - The BBC Sessions\04 - Now I'm Here (Session 5 - October 1974).wav

Pre-gap length 0:00:03.76

Peak level 99.4 %
Extraction speed 2.5 X
Track quality 100.0 %
Test CRC 1DE74235
Copy CRC 1DE74235
Track not present in AccurateRip database
Copy OK

Track 5

Filename C:\Music\Queen\On Air (6 CD Set)\Disc 2 - The BBC Sessions\05 - Stone Cold Crazy (Session 5 - October 1974).wav

Peak level 98.8 %
Extraction speed 2.4 X
Track quality 100.0 %
Test CRC 3046D90F
Copy CRC 3046D90F
Track not present in AccurateRip database
Copy OK

Track 6

Filename C:\Music\Queen\On Air (6 CD Set)\Disc 2 - The BBC Sessions\06 - Flick of the Wrist (Session 5 - October 1974).wav

Peak level 100.0 %
Extraction speed 2.7 X
Track quality 100.0 %
Test CRC 46E5A83D
Copy CRC 46E5A83D
Track not present in AccurateRip database
Copy OK

Track 7

Filename C:\Music\Queen\On Air (6 CD Set)\Disc 2 - The BBC Sessions\07 - Tenement Funster (Session 5 - October 1974).wav

Peak level 98.8 %
Extraction speed 2.8 X
Track quality 100.0 %
Test CRC 5973C46A
Copy CRC 5973C46A
Track not present in AccurateRip database
Copy OK

Track 8

Filename C:\Music\Queen\On Air (6 CD Set)\Disc 2 - The BBC Sessions\08 - We Will Rock You (Session 6 - October 1977).wav

Pre-gap length 0:00:03.74

Peak level 98.9 %
Extraction speed 2.5 X
Track quality 100.0 %
Test CRC 977D23D5
Copy CRC 977D23D5
Track not present in AccurateRip database
Copy OK

Track 9

Filename C:\Music\Queen\On Air (6 CD Set)\Disc 2 - The BBC Sessions\09 - We Will Rock You (Fast) (Session 6 - October 1977).wav

Peak level 100.0 %
Extraction speed 2.9 X
Track quality 100.0 %
Test CRC 48B72786
Copy CRC 48B72786
Track not present in AccurateRip database
Copy OK

Track 10

Filename C:\Music\Queen\On Air (6 CD Set)\Disc 2 - The BBC Sessions\10 - Spread Your Wings (Session 6 - October 1977).wav

Peak level 100.0 %
Extraction speed 2.8 X
Track quality 99.9 %
Test CRC 8817D4D6
Copy CRC 8817D4D6
Track not present in AccurateRip database
Copy OK

Track 11

Filename C:\Music\Queen\On Air (6 CD Set)\Disc 2 - The BBC Sessions\11 - It's Late (Session 6 - October 1977).wav

Peak level 99.2 %
Extraction speed 3.0 X
Track quality 99.9 %
Test CRC 96693267
Copy CRC 96693267
Track not present in AccurateRip database
Copy OK

Track 12

Filename C:\Music\Queen\On Air (6 CD Set)\Disc 2 - The BBC Sessions\12 - My Melancholy Blues (Session 6 - October 1977).wav

Peak level 98.8 %
Extraction speed 2.2 X
Track quality 99.8 %
Test CRC C3126C1E
Copy CRC C3126C1E
Track not present in AccurateRip database
Copy OK


None of the tracks are present in the AccurateRip database

No errors occurred

End of status report

==== Log checksum 1C7E4562C012F21C49C96E4B3FE781F997715EB65EDDBB5E95226493D816662A ====


Queen - On Air (2016) [6CD Box Set]

Tracklist CD3 - Queen Live On Air:

01. Procession (Intro Tape) (London, England - September 1973) (1:42)
02. Father to Son (London, England - September 1973) (5:29)
03. Son and Daughter (London, England - September 1973) (3:45)
04. Guitar Solo (London, England - September 1973) (1:26)
05. Son and Daughter (Reprise) (London, England - September 1973) (2:08)
06. Ogre Battle (London, England - September 1973) (5:22)
07. Liar (London, England - September 1973) (7:27)
08. Jailhouse Rock (London, England - September 1973) (1:07)
09. Intro (São Paulo, Brazil - March 1981) (0:26)
10. We Will Rock You (Fast) (São Paulo, Brazil - March 1981) (3:03)
11. Let Me Entertain You (São Paulo, Brazil - March 1981) (3:21)
12. I'm in Love With My Car (São Paulo, Brazil - March 1981) (2:06)
13. Alright Alright (São Paulo, Brazil - March 1981) (2:40)
14. Dragon Attack (São Paulo, Brazil - March 1981) (3:28)
15. Now I'm Here (Reprise) (São Paulo, Brazil - March 1981) (1:46)
16. Love of My Life (São Paulo, Brazil - March 1981) (4:42)
17. A Kind of Magic (Mannheim, Germany - June 1986) (6:26)
18. Vocal Improvisation (Mannheim, Germany - June 1986) (1:03)
19. Under Pressure (Mannheim, Germany - June 1986) (3:38)
20. Is This the World We Created…? (Mannheim, Germany - June 1986) (2:49)
21. (You're So Square) Baby I Don't Care (Mannheim, Germany - June 1986) (1:27)
22. Hello Mary Lou (Goodbye Heart) (Mannheim, Germany - June 1986) (1:40)
23. Crazy Little Thing Called Love (Mannheim, Germany - June 1986) (4:55)
24. God Save the Queen (Mannheim, Germany - June 1986) (1:24)

Exact Audio Copy V1.0 beta 3 from 29. August 2011

EAC extraction logfile from 5. November 2016, 0:03

Queen / On Air

Used drive : TSSTcorpDVDWBD SH-B123L Adapter: 2 ID: 0

Read mode : Secure
Utilize accurate stream : Yes
Defeat audio cache : Yes
Make use of C2 pointers : No

Read offset correction : 6
Overread into Lead-In and Lead-Out : No
Fill up missing offset samples with silence : Yes
Delete leading and trailing silent blocks : No
Null samples used in CRC calculations : Yes
Used interface : Native Win32 interface for Win NT & 2000
Gap handling : Appended to previous track

Used output format : User Defined Encoder
Selected bitrate : 128 kBit/s
Quality : High
Add ID3 tag : No
Command line compressor : C:\Program Files (x86)\Exact Audio Copy\Flac\flac.exe
Additional command line options : -8 -V -T "ARTIST=%artist%" -T "TITLE=%title%" -T "ALBUM=%albumtitle%" -T "DATE=%year%" -T "TRACKNUMBER=%tracknr%" -T "GENRE=%genre%" -T "PERFORMER=%albuminterpret%" -T "COMPOSER=%composer%" %haslyrics%–tag-from-file=LYRICS="%lyricsfile%"%haslyrics% -T "ALBUMARTIST=%albumartist%" -T "DISCNUMBER=%cdnumber%" -T "TOTALDISCS=%totalcds%" -T "TOTALTRACKS=%numtracks%" -T "COMMENT=%comment%" %source% -o %dest%


TOC of the extracted CD

Track | Start | Length | Start sector | End sector
––––––––––––––––––––––––––––-
1 | 0:00.00 | 1:41.48 | 0 | 7622
2 | 1:41.48 | 5:29.19 | 7623 | 32316
3 | 7:10.67 | 3:44.62 | 32317 | 49178
4 | 10:55.54 | 1:25.57 | 49179 | 55610
5 | 12:21.36 | 2:08.17 | 55611 | 65227
6 | 14:29.53 | 5:22.22 | 65228 | 89399
7 | 19:52.00 | 7:26.63 | 89400 | 122912
8 | 27:18.63 | 1:06.70 | 122913 | 127932
9 | 28:25.58 | 0:26.20 | 127933 | 129902
10 | 28:52.03 | 3:03.02 | 129903 | 143629
11 | 31:55.05 | 3:20.74 | 143630 | 158703
12 | 35:16.04 | 2:05.38 | 158704 | 168116
13 | 37:21.42 | 2:40.12 | 168117 | 180128
14 | 40:01.54 | 3:27.70 | 180129 | 195723
15 | 43:29.49 | 1:46.05 | 195724 | 203678
16 | 45:15.54 | 4:41.63 | 203679 | 224816
17 | 49:57.42 | 6:25.63 | 224817 | 253754
18 | 56:23.30 | 1:03.09 | 253755 | 258488
19 | 57:26.39 | 3:37.58 | 258489 | 274821
20 | 61:04.22 | 2:49.21 | 274822 | 287517
21 | 63:53.43 | 1:27.20 | 287518 | 294062
22 | 65:20.63 | 1:39.67 | 294063 | 301554
23 | 67:00.55 | 4:55.14 | 301555 | 323693
24 | 71:55.69 | 1:23.72 | 323694 | 329990


Track 1

Filename C:\Music\Queen\On Air (6 CD Set)\Disc 3 - Queen Live On Air\01 - Procession (Intro Tape) (London, England - September 1973).wav

Pre-gap length 0:00:02.00

Peak level 98.4 %
Extraction speed 1.9 X
Track quality 100.0 %
Test CRC 97F51B7A
Copy CRC 97F51B7A
Track not present in AccurateRip database
Copy OK

Track 2

Filename C:\Music\Queen\On Air (6 CD Set)\Disc 3 - Queen Live On Air\02 - Father to Son (London, England - September 1973).wav

Peak level 99.0 %
Extraction speed 2.3 X
Track quality 100.0 %
Test CRC B8D2A5CE
Copy CRC B8D2A5CE
Track not present in AccurateRip database
Copy OK

Track 3

Filename C:\Music\Queen\On Air (6 CD Set)\Disc 3 - Queen Live On Air\03 - Son and Daughter (London, England - September 1973).wav

Peak level 99.0 %
Extraction speed 2.5 X
Track quality 100.0 %
Test CRC 0FFADE9D
Copy CRC 0FFADE9D
Track not present in AccurateRip database
Copy OK

Track 4

Filename C:\Music\Queen\On Air (6 CD Set)\Disc 3 - Queen Live On Air\04 - Guitar Solo (London, England - September 1973).wav

Peak level 98.8 %
Extraction speed 2.1 X
Track quality 100.0 %
Test CRC 23F15DE9
Copy CRC 23F15DE9
Track not present in AccurateRip database
Copy OK

Track 5

Filename C:\Music\Queen\On Air (6 CD Set)\Disc 3 - Queen Live On Air\05 - Son and Daughter (Reprise) (London, England - September 1973).wav

Peak level 98.9 %
Extraction speed 2.4 X
Track quality 100.0 %
Test CRC B791E6A4
Copy CRC B791E6A4
Track not present in AccurateRip database
Copy OK

Track 6

Filename C:\Music\Queen\On Air (6 CD Set)\Disc 3 - Queen Live On Air\06 - Ogre Battle (London, England - September 1973).wav

Peak level 99.6 %
Extraction speed 2.9 X
Track quality 100.0 %
Test CRC 1DC38ED3
Copy CRC 1DC38ED3
Track not present in AccurateRip database
Copy OK

Track 7

Filename C:\Music\Queen\On Air (6 CD Set)\Disc 3 - Queen Live On Air\07 - Liar (London, England - September 1973).wav

Peak level 99.0 %
Extraction speed 2.9 X
Track quality 99.9 %
Test CRC 59BF018C
Copy CRC 59BF018C
Track not present in AccurateRip database
Copy OK

Track 8

Filename C:\Music\Queen\On Air (6 CD Set)\Disc 3 - Queen Live On Air\08 - Jailhouse Rock (London, England - September 1973).wav

Peak level 99.0 %
Extraction speed 2.4 X
Track quality 100.0 %
Test CRC BAEB8DDC
Copy CRC BAEB8DDC
Track not present in AccurateRip database
Copy OK

Track 9

Filename C:\Music\Queen\On Air (6 CD Set)\Disc 3 - Queen Live On Air\09 - Intro (São Paulo, Brazil - March 1981).wav

Peak level 96.2 %
Extraction speed 1.5 X
Track quality 100.0 %
Test CRC 203E105B
Copy CRC 203E105B
Track not present in AccurateRip database
Copy OK

Track 10

Filename C:\Music\Queen\On Air (6 CD Set)\Disc 3 - Queen Live On Air\10 - We Will Rock You (Fast) (São Paulo, Brazil - March 1981).wav

Peak level 98.9 %
Extraction speed 3.2 X
Track quality 100.0 %
Test CRC EBAB97BB
Copy CRC EBAB97BB
Track not present in AccurateRip database
Copy OK

Track 11

Filename C:\Music\Queen\On Air (6 CD Set)\Disc 3 - Queen Live On Air\11 - Let Me Entertain You (São Paulo, Brazil - March 1981).wav

Peak level 98.9 %
Extraction speed 3.3 X
Track quality 100.0 %
Test CRC 287C1F65
Copy CRC 287C1F65
Track not present in AccurateRip database
Copy OK

Track 12

Filename C:\Music\Queen\On Air (6 CD Set)\Disc 3 - Queen Live On Air\12 - I'm in Love With My Car (São Paulo, Brazil - March 1981).wav

Peak level 99.3 %
Extraction speed 2.0 X
Track quality 99.9 %
Test CRC 90C795CB
Copy CRC 90C795CB
Track not present in AccurateRip database
Copy OK

Track 13

Filename C:\Music\Queen\On Air (6 CD Set)\Disc 3 - Queen Live On Air\13 - Alright Alright (São Paulo, Brazil - March 1981).wav

Peak level 99.1 %
Extraction speed 3.4 X
Track quality 100.0 %
Test CRC BDD5573E
Copy CRC BDD5573E
Track not present in AccurateRip database
Copy OK

Track 14

Filename C:\Music\Queen\On Air (6 CD Set)\Disc 3 - Queen Live On Air\14 - Dragon Attack (São Paulo, Brazil - March 1981).wav

Peak level 98.9 %
Extraction speed 3.6 X
Track quality 100.0 %
Test CRC 6381D780
Copy CRC 6381D780
Track not present in AccurateRip database
Copy OK

Track 15

Filename C:\Music\Queen\On Air (6 CD Set)\Disc 3 - Queen Live On Air\15 - Now I'm Here (Reprise) (São Paulo, Brazil - March 1981).wav

Peak level 99.0 %
Extraction speed 3.2 X
Track quality 100.0 %
Test CRC D314094E
Copy CRC D314094E
Track not present in AccurateRip database
Copy OK

Track 16

Filename C:\Music\Queen\On Air (6 CD Set)\Disc 3 - Queen Live On Air\16 - Love of My Life (São Paulo, Brazil - March 1981).wav

Peak level 100.0 %
Extraction speed 3.0 X
Track quality 99.9 %
Test CRC A785904B
Copy CRC A785904B
Track not present in AccurateRip database
Copy OK

Track 17

Filename C:\Music\Queen\On Air (6 CD Set)\Disc 3 - Queen Live On Air\17 - A Kind of Magic (Mannheim, Germany - June 1986).wav

Peak level 97.6 %
Extraction speed 4.2 X
Track quality 100.0 %
Test CRC 312C0653
Copy CRC 312C0653
Track not present in AccurateRip database
Copy OK

Track 18

Filename C:\Music\Queen\On Air (6 CD Set)\Disc 3 - Queen Live On Air\18 - Vocal Improvisation (Mannheim, Germany - June 1986).wav

Peak level 83.2 %
Extraction speed 3.0 X
Track quality 100.0 %
Test CRC 2B93D38A
Copy CRC 2B93D38A
Track not present in AccurateRip database
Copy OK

Track 19

Filename C:\Music\Queen\On Air (6 CD Set)\Disc 3 - Queen Live On Air\19 - Under Pressure (Mannheim, Germany - June 1986).wav

Peak level 97.7 %
Extraction speed 2.9 X
Track quality 99.9 %
Test CRC 5DE3DB8A
Copy CRC 5DE3DB8A
Track not present in AccurateRip database
Copy OK

Track 20

Filename C:\Music\Queen\On Air (6 CD Set)\Disc 3 - Queen Live On Air\20 - Is This the World We Created… (Mannheim, Germany - June 1986).wav

Peak level 96.0 %
Extraction speed 2.7 X
Track quality 99.9 %
Test CRC 1FB9459B
Copy CRC 1FB9459B
Track not present in AccurateRip database
Copy OK

Track 21

Filename C:\Music\Queen\On Air (6 CD Set)\Disc 3 - Queen Live On Air\21 - (You're So Square) Baby I Don't Care (Mannheim, Germany - June 1986).wav

Peak level 97.8 %
Extraction speed 1.8 X
Track quality 99.8 %
Test CRC 407BF293
Copy CRC 407BF293
Track not present in AccurateRip database
Copy OK

Track 22

Filename C:\Music\Queen\On Air (6 CD Set)\Disc 3 - Queen Live On Air\22 - Hello Mary Lou (Goodbye Heart) (Mannheim, Germany - June 1986).wav

Peak level 97.7 %
Extraction speed 3.6 X
Track quality 100.0 %
Test CRC D445D5BE
Copy CRC D445D5BE
Track not present in AccurateRip database
Copy OK

Track 23

Filename C:\Music\Queen\On Air (6 CD Set)\Disc 3 - Queen Live On Air\23 - Crazy Little Thing Called Love (Mannheim, Germany - June 1986).wav

Peak level 98.1 %
Extraction speed 4.6 X
Track quality 100.0 %
Test CRC 887FA05E
Copy CRC 887FA05E
Track not present in AccurateRip database
Copy OK

Track 24

Filename C:\Music\Queen\On Air (6 CD Set)\Disc 3 - Queen Live On Air\24 - God Save the Queen (Mannheim, Germany - June 1986).wav

Peak level 88.0 %
Extraction speed 3.6 X
Track quality 100.0 %
Test CRC 29282F05
Copy CRC 29282F05
Track not present in AccurateRip database
Copy OK


None of the tracks are present in the AccurateRip database

No errors occurred

End of status report

==== Log checksum C0BEDE7B5FB4A0264C0DB6FF000D5C377B87C3BFE56248DF4CC01B46720FF6AE ====


Queen - On Air (2016) [6CD Box Set]

Tracklist CD4 - The Interviews (1976-1980):

01. Freddie with Kenny Everett (Capital Radio - November 1976) (3:06)
02. Freddie with Kenny Everett (Capital Radio - November 1976) (2:27)
03. Freddie with Kenny Everett (Capital Radio - November 1976) (2:52)
04. Freddie with Kenny Everett (Capital Radio - November 1976) (1:52)
05. Freddie with Kenny Everett (Capital Radio - November 1976) (1:13)
06. Freddie with Kenny Everett (Capital Radio - November 1976) (0:42)
07. Freddie with Kenny Everett (Capital Radio - November 1976) (1:32)
08. Freddie with Kenny Everett (Capital Radio - November 1976) (0:53)
09. Freddie with Kenny Everett (Capital Radio - November 1976) (1:19)
10. Queen Interview with Tom Browne (BBC Radio 1 - Christmas 1977) (3:09)
11. Queen Interview with Tom Browne (BBC Radio 1 - Christmas 1977) (1:08)
12. Queen Interview with Tom Browne (BBC Radio 1 - Christmas 1977) (1:49)
13. Queen Interview with Tom Browne (BBC Radio 1 - Christmas 1977) (2:17)
14. Queen Interview with Tom Browne (BBC Radio 1 - Christmas 1977) (2:49)
15. Queen Interview with Tom Browne (BBC Radio 1 - Christmas 1977) (3:55)
16. Queen Interview with Tom Browne (BBC Radio 1 - Christmas 1977) (1:37)
17. Queen Interview with Tom Browne (BBC Radio 1 - Christmas 1977) (1:03)
18. Queen Interview with Tom Browne (BBC Radio 1 - Christmas 1977) (0:56)
19. Queen Interview with Tom Browne (BBC Radio 1 - Christmas 1977) (2:12)
20. Queen Interview with Tom Browne (BBC Radio 1 - Christmas 1977) (1:42)
21. Queen Interview with Tom Browne (BBC Radio 1 - Christmas 1977) (3:13)
22. Queen Interview with Tom Browne (BBC Radio 1 - Christmas 1977) (1:17)
23. Queen Interview with Tom Browne (BBC Radio 1 - Christmas 1977) (2:03)
24. Queen Interview with Tom Browne (BBC Radio 1 - Christmas 1977) (1:29)
25. Queen Interview with Tom Browne (BBC Radio 1 - Christmas 1977) (2:16)
26. Queen Interview with Tom Browne (BBC Radio 1 - Christmas 1977) (1:03)
27. Queen Interview with Tom Browne (BBC Radio 1 - Christmas 1977) (3:17)
28. Queen Interview with Tom Browne (BBC Radio 1 - Christmas 1977) (1:03)
29. Queen Interview with Tom Browne (BBC Radio 1 - Christmas 1977) (1:15)
30. Queen Interview with Tom Browne (BBC Radio 1 - Christmas 1977) (1:01)
31. Roger with Richard Skinner (BBC Radio 1 - June 1979) (4:32)
32. Roger with Tommy Vance (BBC Radio 1 - December 1980) (1:16)
33. Roger with Tommy Vance (BBC Radio 1 - December 1980) (0:46)
34. Roger with Tommy Vance (BBC Radio 1 - December 1980) (0:36)
35. Roger with Tommy Vance (BBC Radio 1 - December 1980) (0:36)
36. Roger with Tommy Vance (BBC Radio 1 - December 1980) (2:40)
37. Roy Thomas Baker 'The Record Producers' (BBC Radio 1) (2:32)
38. Roy Thomas Baker 'The Record Producers' (BBC Radio 1) (3:36)
39. Roy Thomas Baker 'The Record Producers' (BBC Radio 1) (2:27)
40. Roy Thomas Baker 'The Record Producers' (BBC Radio 1) (2:02)

Exact Audio Copy V1.0 beta 3 from 29. August 2011

EAC extraction logfile from 5. November 2016, 1:09

Queen / On Air

Used drive : TSSTcorpDVDWBD SH-B123L Adapter: 2 ID: 0

Read mode : Secure
Utilize accurate stream : Yes
Defeat audio cache : Yes
Make use of C2 pointers : No

Read offset correction : 6
Overread into Lead-In and Lead-Out : No
Fill up missing offset samples with silence : Yes
Delete leading and trailing silent blocks : No
Null samples used in CRC calculations : Yes
Used interface : Native Win32 interface for Win NT & 2000
Gap handling : Appended to previous track

Used output format : User Defined Encoder
Selected bitrate : 128 kBit/s
Quality : High
Add ID3 tag : No
Command line compressor : C:\Program Files (x86)\Exact Audio Copy\Flac\flac.exe
Additional command line options : -8 -V -T "ARTIST=%artist%" -T "TITLE=%title%" -T "ALBUM=%albumtitle%" -T "DATE=%year%" -T "TRACKNUMBER=%tracknr%" -T "GENRE=%genre%" -T "PERFORMER=%albuminterpret%" -T "COMPOSER=%composer%" %haslyrics%–tag-from-file=LYRICS="%lyricsfile%"%haslyrics% -T "ALBUMARTIST=%albumartist%" -T "DISCNUMBER=%cdnumber%" -T "TOTALDISCS=%totalcds%" -T "TOTALTRACKS=%numtracks%" -T "COMMENT=%comment%" %source% -o %dest%


TOC of the extracted CD

Track | Start | Length | Start sector | End sector
––––––––––––––––––––––––––––-
1 | 0:00.00 | 3:06.24 | 0 | 13973
2 | 3:06.24 | 2:27.16 | 13974 | 25014
3 | 5:33.40 | 2:51.40 | 25015 | 37879
4 | 8:25.05 | 1:51.40 | 37880 | 46244
5 | 10:16.45 | 1:13.29 | 46245 | 51748
6 | 11:29.74 | 0:42.02 | 51749 | 54900
7 | 12:12.01 | 1:32.22 | 54901 | 61822
8 | 13:44.23 | 0:53.25 | 61823 | 65822
9 | 14:37.48 | 1:19.11 | 65823 | 71758
10 | 15:56.59 | 3:08.68 | 71759 | 85926
11 | 19:05.52 | 1:08.05 | 85927 | 91031
12 | 20:13.57 | 1:49.06 | 91032 | 99212
13 | 22:02.63 | 2:17.12 | 99213 | 109499
14 | 24:20.00 | 2:49.32 | 109500 | 122206
15 | 27:09.32 | 3:54.74 | 122207 | 139830
16 | 31:04.31 | 1:37.34 | 139831 | 147139
17 | 32:41.65 | 1:02.59 | 147140 | 151848
18 | 33:44.49 | 0:56.29 | 151849 | 156077
19 | 34:41.03 | 2:11.43 | 156078 | 165945
20 | 36:52.46 | 1:41.46 | 165946 | 173566
21 | 38:34.17 | 3:12.74 | 173567 | 188040
22 | 41:47.16 | 1:16.43 | 188041 | 193783
23 | 43:03.59 | 2:02.69 | 193784 | 203002
24 | 45:06.53 | 1:28.66 | 203003 | 209668
25 | 46:35.44 | 2:15.58 | 209669 | 219851
26 | 48:51.27 | 1:03.01 | 219852 | 224577
27 | 49:54.28 | 3:16.58 | 224578 | 239335
28 | 53:11.11 | 1:02.71 | 239336 | 244056
29 | 54:14.07 | 1:14.67 | 244057 | 249673
30 | 55:28.74 | 1:01.15 | 249674 | 254263
31 | 56:30.14 | 4:32.08 | 254264 | 274671
32 | 61:02.22 | 1:15.44 | 274672 | 280340
33 | 62:17.66 | 0:45.72 | 280341 | 283787
34 | 63:03.63 | 0:36.21 | 283788 | 286508
35 | 63:40.09 | 0:35.44 | 286509 | 289177
36 | 64:15.53 | 2:39.70 | 289178 | 301172
37 | 66:55.48 | 2:32.03 | 301173 | 312575
38 | 69:27.51 | 3:35.40 | 312576 | 328740
39 | 73:03.16 | 2:27.32 | 328741 | 339797
40 | 75:30.48 | 2:01.56 | 339798 | 348928


Track 1

Filename C:\Music\Queen\On Air (6 CD Set)\Disc 4 - The Interviews (1976-1980)\01 - Freddie with Kenny Everett (Capitol Radio - November 1976).wav

Pre-gap length 0:00:02.00

Peak level 94.4 %
Extraction speed 2.2 X
Track quality 100.0 %
Test CRC 3EF62B01
Copy CRC 3EF62B01
Track not present in AccurateRip database
Copy OK

Track 2

Filename C:\Music\Queen\On Air (6 CD Set)\Disc 4 - The Interviews (1976-1980)\02 - Freddie with Kenny Everett (Capitol Radio - November 1976).wav

Peak level 91.3 %
Extraction speed 2.2 X
Track quality 100.0 %
Test CRC 8E350308
Copy CRC 8E350308
Track not present in AccurateRip database
Copy OK

Track 3

Filename C:\Music\Queen\On Air (6 CD Set)\Disc 4 - The Interviews (1976-1980)\03 - Freddie with Kenny Everett (Capitol Radio - November 1976).wav

Peak level 90.9 %
Extraction speed 2.4 X
Track quality 100.0 %
Test CRC E1BE5E31
Copy CRC E1BE5E31
Track not present in AccurateRip database
Copy OK

Track 4

Filename C:\Music\Queen\On Air (6 CD Set)\Disc 4 - The Interviews (1976-1980)\04 - Freddie with Kenny Everett (Capitol Radio - November 1976).wav

Peak level 91.0 %
Extraction speed 1.5 X
Track quality 99.9 %
Test CRC AACA6E44
Copy CRC AACA6E44
Track not present in AccurateRip database
Copy OK

Track 5

Filename C:\Music\Queen\On Air (6 CD Set)\Disc 4 - The Interviews (1976-1980)\05 - Freddie with Kenny Everett (Capitol Radio - November 1976).wav

Peak level 89.2 %
Extraction speed 1.4 X
Track quality 99.8 %
Test CRC 02DA39A9
Copy CRC 02DA39A9
Track not present in AccurateRip database
Copy OK

Track 6

Filename C:\Music\Queen\On Air (6 CD Set)\Disc 4 - The Interviews (1976-1980)\06 - Freddie with Kenny Everett (Capitol Radio - November 1976).wav

Peak level 89.2 %
Extraction speed 1.6 X
Track quality 100.0 %
Test CRC 48CD5452
Copy CRC 48CD5452
Track not present in AccurateRip database
Copy OK

Track 7

Filename C:\Music\Queen\On Air (6 CD Set)\Disc 4 - The Interviews (1976-1980)\07 - Freddie with Kenny Everett (Capitol Radio - November 1976).wav

Peak level 88.3 %
Extraction speed 1.6 X
Track quality 99.8 %
Test CRC 4D2D4C73
Copy CRC 4D2D4C73
Track not present in AccurateRip database
Copy OK

Track 8

Filename C:\Music\Queen\On Air (6 CD Set)\Disc 4 - The Interviews (1976-1980)\08 - Freddie with Kenny Everett (Capitol Radio - November 1976).wav

Peak level 92.6 %
Extraction speed 1.9 X
Track quality 100.0 %
Test CRC 0E3A156B
Copy CRC 0E3A156B
Track not present in AccurateRip database
Copy OK

Track 9

Filename C:\Music\Queen\On Air (6 CD Set)\Disc 4 - The Interviews (1976-1980)\09 - Freddie with Kenny Everett (Capitol Radio - November 1976).wav

Peak level 91.4 %
Extraction speed 2.2 X
Track quality 100.0 %
Test CRC 0BE3A245
Copy CRC 0BE3A245
Track not present in AccurateRip database
Copy OK

Track 10

Filename C:\Music\Queen\On Air (6 CD Set)\Disc 4 - The Interviews (1976-1980)\10 - Queen Interview with Tom Browne (BBC Radio 1 - Christmas 1977).wav

Peak level 91.0 %
Extraction speed 2.2 X
Track quality 99.9 %
Test CRC C52FFBDE
Copy CRC C52FFBDE
Track not present in AccurateRip database
Copy OK

Track 11

Filename C:\Music\Queen\On Air (6 CD Set)\Disc 4 - The Interviews (1976-1980)\11 - Queen Interview with Tom Browne (BBC Radio 1 - Christmas 1977).wav

Peak level 94.0 %
Extraction speed 1.4 X
Track quality 99.8 %
Test CRC 7476DD67
Copy CRC 7476DD67
Track not present in AccurateRip database
Copy OK

Track 12

Filename C:\Music\Queen\On Air (6 CD Set)\Disc 4 - The Interviews (1976-1980)\12 - Queen Interview with Tom Browne (BBC Radio 1 - Christmas 1977).wav

Peak level 95.6 %
Extraction speed 2.6 X
Track quality 100.0 %
Test CRC A0A11B0F
Copy CRC A0A11B0F
Track not present in AccurateRip database
Copy OK

Track 13

Filename C:\Music\Queen\On Air (6 CD Set)\Disc 4 - The Interviews (1976-1980)\13 - Queen Interview with Tom Browne (BBC Radio 1 - Christmas 1977).wav

Peak level 88.2 %
Extraction speed 2.9 X
Track quality 100.0 %
Test CRC DD910A3B
Copy CRC DD910A3B
Track not present in AccurateRip database
Copy OK

Track 14

Filename C:\Music\Queen\On Air (6 CD Set)\Disc 4 - The Interviews (1976-1980)\14 - Queen Interview with Tom Browne (BBC Radio 1 - Christmas 1977).wav

Peak level 88.6 %
Extraction speed 3.1 X
Track quality 100.0 %
Test CRC 32BE4A9E
Copy CRC 32BE4A9E
Track not present in AccurateRip database
Copy OK

Track 15

Filename C:\Music\Queen\On Air (6 CD Set)\Disc 4 - The Interviews (1976-1980)\15 - Queen Interview with Tom Browne (BBC Radio 1 - Christmas 1977).wav

Peak level 94.5 %
Extraction speed 3.3 X
Track quality 100.0 %
Test CRC 26D9CBF1
Copy CRC 26D9CBF1
Track not present in AccurateRip database
Copy OK

Track 16

Filename C:\Music\Queen\On Air (6 CD Set)\Disc 4 - The Interviews (1976-1980)\16 - Queen Interview with Tom Browne (BBC Radio 1 - Christmas 1977).wav

Peak level 77.2 %
Extraction speed 2.9 X
Track quality 100.0 %
Test CRC 8DD7927F
Copy CRC 8DD7927F
Track not present in AccurateRip database
Copy OK

Track 17

Filename C:\Music\Queen\On Air (6 CD Set)\Disc 4 - The Interviews (1976-1980)\17 - Queen Interview with Tom Browne (BBC Radio 1 - Christmas 1977).wav

Peak level 83.2 %
Extraction speed 2.5 X
Track quality 100.0 %
Test CRC 99D0EBC6
Copy CRC 99D0EBC6
Track not present in AccurateRip database
Copy OK

Track 18

Filename C:\Music\Queen\On Air (6 CD Set)\Disc 4 - The Interviews (1976-1980)\18 - Queen Interview with Tom Browne (BBC Radio 1 - Christmas 1977).wav

Peak level 70.9 %
Extraction speed 2.4 X
Track quality 100.0 %
Test CRC 814D38FE
Copy CRC 814D38FE
Track not present in AccurateRip database
Copy OK

Track 19

Filename C:\Music\Queen\On Air (6 CD Set)\Disc 4 - The Interviews (1976-1980)\19 - Queen Interview with Tom Browne (BBC Radio 1 - Christmas 1977).wav

Peak level 82.0 %
Extraction speed 3.2 X
Track quality 100.0 %
Test CRC 454202E4
Copy CRC 454202E4
Track not present in AccurateRip database
Copy OK

Track 20

Filename C:\Music\Queen\On Air (6 CD Set)\Disc 4 - The Interviews (1976-1980)\20 - Queen Interview with Tom Browne (BBC Radio 1 - Christmas 1977).wav

Peak level 77.8 %
Extraction speed 3.0 X
Track quality 100.0 %
Test CRC EE3A7050
Copy CRC EE3A7050
Track not present in AccurateRip database
Copy OK

Track 21

Filename C:\Music\Queen\On Air (6 CD Set)\Disc 4 - The Interviews (1976-1980)\21 - Queen Interview with Tom Browne (BBC Radio 1 - Christmas 1977).wav

Peak level 88.9 %
Extraction speed 3.6 X
Track quality 100.0 %
Test CRC 70C1DF84
Copy CRC 70C1DF84
Track not present in AccurateRip database
Copy OK

Track 22

Filename C:\Music\Queen\On Air (6 CD Set)\Disc 4 - The Interviews (1976-1980)\22 - Queen Interview with Tom Browne (BBC Radio 1 - Christmas 1977).wav

Peak level 84.2 %
Extraction speed 2.9 X
Track quality 100.0 %
Test CRC DC95B942
Copy CRC DC95B942
Track not present in AccurateRip database
Copy OK

Track 23

Filename C:\Music\Queen\On Air (6 CD Set)\Disc 4 - The Interviews (1976-1980)\23 - Queen Interview with Tom Browne (BBC Radio 1 - Christmas 1977).wav

Peak level 84.2 %
Extraction speed 3.4 X
Track quality 100.0 %
Test CRC 58E9BA7E
Copy CRC 58E9BA7E
Track not present in AccurateRip database
Copy OK

Track 24

Filename C:\Music\Queen\On Air (6 CD Set)\Disc 4 - The Interviews (1976-1980)\24 - Queen Interview with Tom Browne (BBC Radio 1 - Christmas 1977).wav

Peak level 85.5 %
Extraction speed 3.1 X
Track quality 100.0 %
Test CRC FB003FBA
Copy CRC FB003FBA
Track not present in AccurateRip database
Copy OK

Track 25

Filename C:\Music\Queen\On Air (6 CD Set)\Disc 4 - The Interviews (1976-1980)\25 - Queen Interview with Tom Browne (BBC Radio 1 - Christmas 1977).wav

Peak level 85.8 %
Extraction speed 2.3 X
Track quality 99.9 %
Test CRC 66D2F971
Copy CRC 66D2F971
Track not present in AccurateRip database
Copy OK

Track 26

Filename C:\Music\Queen\On Air (6 CD Set)\Disc 4 - The Interviews (1976-1980)\26 - Queen Interview with Tom Browne (BBC Radio 1 - Christmas 1977).wav

Peak level 73.6 %
Extraction speed 2.9 X
Track quality 100.0 %
Test CRC 6E1FE966
Copy CRC 6E1FE966
Track not present in AccurateRip database
Copy OK

Track 27

Filename C:\Music\Queen\On Air (6 CD Set)\Disc 4 - The Interviews (1976-1980)\27 - Queen Interview with Tom Browne (BBC Radio 1 - Christmas 1977).wav

Peak level 81.2 %
Extraction speed 3.9 X
Track quality 100.0 %
Test CRC D1119644
Copy CRC D1119644
Track not present in AccurateRip database
Copy OK

Track 28

Filename C:\Music\Queen\On Air (6 CD Set)\Disc 4 - The Interviews (1976-1980)\28 - Queen Interview with Tom Browne (BBC Radio 1 - Christmas 1977).wav

Peak level 82.1 %
Extraction speed 3.0 X
Track quality 100.0 %
Test CRC C8B99D21
Copy CRC C8B99D21
Track not present in AccurateRip database
Copy OK

Track 29

Filename C:\Music\Queen\On Air (6 CD Set)\Disc 4 - The Interviews (1976-1980)\29 - Queen Interview with Tom Browne (BBC Radio 1 - Christmas 1977).wav

Peak level 77.1 %
Extraction speed 3.2 X
Track quality 100.0 %
Test CRC 7C845AAF
Copy CRC 7C845AAF
Track not present in AccurateRip database
Copy OK

Track 30

Filename C:\Music\Queen\On Air (6 CD Set)\Disc 4 - The Interviews (1976-1980)\30 - Queen Interview with Tom Browne (BBC Radio 1 - Christmas 1977).wav

Peak level 81.7 %
Extraction speed 3.0 X
Track quality 100.0 %
Test CRC B85430BA
Copy CRC B85430BA
Track not present in AccurateRip database
Copy OK

Track 31

Filename C:\Music\Queen\On Air (6 CD Set)\Disc 4 - The Interviews (1976-1980)\31 - Roger with Richard Skinner (BBC Radio 1 - June 1979).wav

Peak level 94.4 %
Extraction speed 4.4 X
Track quality 100.0 %
Test CRC 528D4B70
Copy CRC 528D4B70
Track not present in AccurateRip database
Copy OK

Track 32

Filename C:\Music\Queen\On Air (6 CD Set)\Disc 4 - The Interviews (1976-1980)\32 - Roger with Tommy Vance (BBC Radio 1 - December 1980).wav

Peak level 93.4 %
Extraction speed 3.3 X
Track quality 100.0 %
Test CRC B9D5D997
Copy CRC B9D5D997
Track not present in AccurateRip database
Copy OK

Track 33

Filename C:\Music\Queen\On Air (6 CD Set)\Disc 4 - The Interviews (1976-1980)\33 - Roger with Tommy Vance (BBC Radio 1 - December 1980).wav

Peak level 93.4 %
Extraction speed 2.8 X
Track quality 100.0 %
Test CRC 374A7AD2
Copy CRC 374A7AD2
Track not present in AccurateRip database
Copy OK

Track 34

Filename C:\Music\Queen\On Air (6 CD Set)\Disc 4 - The Interviews (1976-1980)\34 - Roger with Tommy Vance (BBC Radio 1 - December 1980).wav

Peak level 93.4 %
Extraction speed 2.5 X
Track quality 100.0 %
Test CRC 8CC0A1BB
Copy CRC 8CC0A1BB
Track not present in AccurateRip database
Copy OK

Track 35

Filename C:\Music\Queen\On Air (6 CD Set)\Disc 4 - The Interviews (1976-1980)\35 - Roger with Tommy Vance (BBC Radio 1 - December 1980).wav

Peak level 82.2 %
Extraction speed 2.4 X
Track quality 100.0 %
Test CRC E4DB780C
Copy CRC E4DB780C
Track not present in AccurateRip database
Copy OK

Track 36

Filename C:\Music\Queen\On Air (6 CD Set)\Disc 4 - The Interviews (1976-1980)\36 - Roger with Tommy Vance (BBC Radio 1 - December 1980).wav

Peak level 94.4 %
Extraction speed 4.2 X
Track quality 100.0 %
Test CRC 895C4E02
Copy CRC 895C4E02
Track not present in AccurateRip database
Copy OK

Track 37

Filename C:\Music\Queen\On Air (6 CD Set)\Disc 4 - The Interviews (1976-1980)\37 - Roy Thomas Baker 'The Record Producers' (BBC Radio 1).wav

Peak level 86.7 %
Extraction speed 2.6 X
Track quality 99.9 %
Test CRC 67ED1089
Copy CRC 67ED1089
Track not present in AccurateRip database
Copy OK

Track 38

Filename C:\Music\Queen\On Air (6 CD Set)\Disc 4 - The Interviews (1976-1980)\38 - Roy Thomas Baker 'The Record Producers' (BBC Radio 1).wav

Peak level 90.5 %
Extraction speed 4.5 X
Track quality 100.0 %
Test CRC E06CC336
Copy CRC E06CC336
Track not present in AccurateRip database
Copy OK

Track 39

Filename C:\Music\Queen\On Air (6 CD Set)\Disc 4 - The Interviews (1976-1980)\39 - Roy Thomas Baker 'The Record Producers' (BBC Radio 1).wav

Peak level 86.0 %
Extraction speed 4.3 X
Track quality 100.0 %
Test CRC 9A1BCF36
Copy CRC 9A1BCF36
Track not present in AccurateRip database
Copy OK

Track 40

Filename C:\Music\Queen\On Air (6 CD Set)\Disc 4 - The Interviews (1976-1980)\40 - Roy Thomas Baker 'The Record Producers' (BBC Radio 1).wav

Peak level 85.9 %
Extraction speed 4.1 X
Track quality 100.0 %
Test CRC AC8F3EFF
Copy CRC AC8F3EFF
Track not present in AccurateRip database
Copy OK


None of the tracks are present in the AccurateRip database

No errors occurred

End of status report

==== Log checksum 51B23AF37CFEED7F03083F0A6612F94397BDC351B5C873521BBB33ABFC50B0D7 ====


Queen - On Air (2016) [6CD Box Set]

Tracklist CD5 - The Interviews (1981-1986):

01. John Interview (BBC Radio 1 - March 1981) (2:26)
02. Brian on 'Rock On' with John Tobler (BBC Radio 1 - June 1982) (1:52)
03. Brian on 'Rock On' with John Tobler (BBC Radio 1 - June 1982) (0:23)
04. Brian on 'Rock On' with John Tobler (BBC Radio 1 - June 1982) (1:51)
05. Brian on 'Rock On' with John Tobler (BBC Radio 1 - June 1982) (1:57)
06. Brian on 'Rock On' with John Tobler (BBC Radio 1 - June 1982) (1:24)
07. Brian on 'Rock On' with John Tobler (BBC Radio 1 - June 1982) (1:21)
08. Brian on 'Rock On' with John Tobler (BBC Radio 1 - June 1982) (2:20)
09. Brian on 'Saturday Live' with Richard Skinner and Andy Foster (BBC Radio 1 - March 1984) (4:25)
10. Brian on 'Saturday Live' with Richard Skinner and Andy Foster (BBC Radio 1 - March 1984) (2:47)
11. Brian on 'Saturday Live' with Richard Skinner and Andy Foster (BBC Radio 1 - March 1984) (2:16)
12. Brian on 'Saturday Live' with Richard Skinner and Andy Foster (BBC Radio 1 - March 1984) (0:31)
13. Brian on 'Saturday Live' with Richard Skinner and Andy Foster (BBC Radio 1 - March 1984) (1:47)
14. Freddie on 'Newsbeat' (BBC Radio 1 - August 1984) (2:34)
15. Brian on 'Newsbeat' (BBC Radio 1 - September 1984) (2:47)
16. Freddie on 'Saturday Live' with Graham Neale (BBC Radio 1 - September 1984) (5:15)
17. Freddie with Simon Bates (BBC Radio 1 - April 1985) (6:18)
18. Freddie with Simon Bates (BBC Radio 1 - April 1985) (2:18)
19. Freddie with Simon Bates (BBC Radio 1 - April 1985) (2:30)
20. Freddie with Simon Bates (BBC Radio 1 - April 1985) (2:53)
21. Freddie with Simon Bates (BBC Radio 1 - April 1985) (3:43)
22. Freddie with Simon Bates (BBC Radio 1 - April 1985) (2:51)
23. Freddie with Simon Bates (BBC Radio 1 - April 1985) (3:07)
24. Freddie with Simon Bates (BBC Radio 1 - April 1985) (0:44)
25. Freddie with Simon Bates (BBC Radio 1 - April 1985) (4:27)
26. Brian on 'The Way It Is' with David 'Kid' Jensen (Capital Radio - July 1986) (4:40)

Exact Audio Copy V1.0 beta 3 from 29. August 2011

EAC extraction logfile from 5. November 2016, 5:19

Queen / On Air

Used drive : TSSTcorpDVDWBD SH-B123L Adapter: 2 ID: 0

Read mode : Secure
Utilize accurate stream : Yes
Defeat audio cache : Yes
Make use of C2 pointers : No

Read offset correction : 6
Overread into Lead-In and Lead-Out : Yes
Fill up missing offset samples with silence : Yes
Delete leading and trailing silent blocks : No
Null samples used in CRC calculations : Yes
Used interface : Native Win32 interface for Win NT & 2000
Gap handling : Appended to previous track

Used output format : User Defined Encoder
Selected bitrate : 128 kBit/s
Quality : High
Add ID3 tag : No
Command line compressor : C:\Program Files (x86)\Exact Audio Copy\Flac\flac.exe
Additional command line options : -8 -V -T "ARTIST=%artist%" -T "TITLE=%title%" -T "ALBUM=%albumtitle%" -T "DATE=%year%" -T "TRACKNUMBER=%tracknr%" -T "GENRE=%genre%" -T "PERFORMER=%albuminterpret%" -T "COMPOSER=%composer%" %haslyrics%–tag-from-file=LYRICS="%lyricsfile%"%haslyrics% -T "ALBUMARTIST=%albumartist%" -T "DISCNUMBER=%cdnumber%" -T "TOTALDISCS=%totalcds%" -T "TOTALTRACKS=%numtracks%" -T "COMMENT=%comment%" %source% -o %dest%


TOC of the extracted CD

Track | Start | Length | Start sector | End sector
––––––––––––––––––––––––––––-
1 | 0:00.00 | 2:26.31 | 0 | 10980
2 | 2:26.31 | 1:52.01 | 10981 | 19381
3 | 4:18.32 | 0:22.61 | 19382 | 21092
4 | 4:41.18 | 1:50.41 | 21093 | 29383
5 | 6:31.59 | 1:57.22 | 29384 | 38180
6 | 8:29.06 | 1:24.06 | 38181 | 44486
7 | 9:53.12 | 1:20.71 | 44487 | 50557
8 | 11:14.08 | 2:20.36 | 50558 | 61093
9 | 13:34.44 | 4:24.73 | 61094 | 80966
10 | 17:59.42 | 2:47.07 | 80967 | 93498
11 | 20:46.49 | 2:16.01 | 93499 | 103699
12 | 23:02.50 | 0:30.66 | 103700 | 106015
13 | 23:33.41 | 1:46.74 | 106016 | 114039
14 | 25:20.40 | 2:34.29 | 114040 | 125618
15 | 27:54.69 | 2:47.22 | 125619 | 138165
16 | 30:42.16 | 5:14.68 | 138166 | 161783
17 | 35:57.09 | 6:17.67 | 161784 | 190125
18 | 42:15.01 | 2:18.12 | 190126 | 200487
19 | 44:33.13 | 2:30.04 | 200488 | 211741
20 | 47:03.17 | 2:53.12 | 211742 | 224728
21 | 49:56.29 | 3:42.60 | 224729 | 241438
22 | 53:39.14 | 2:51.21 | 241439 | 254284
23 | 56:30.35 | 3:07.15 | 254285 | 268324
24 | 59:37.50 | 0:43.64 | 268325 | 271613
25 | 60:21.39 | 4:26.74 | 271614 | 291637
26 | 64:48.38 | 4:39.42 | 291638 | 312604


Track 1

Filename C:\Music\Queen\On Air (6 CD Set)\Disc 5 - The Interviews (1981-1986)\01 - John Interview (BBC Radio 1 - March 1981).wav

Pre-gap length 0:00:02.00

Peak level 94.4 %
Extraction speed 1.5 X
Track quality 99.9 %
Test CRC 376EEFBA
Copy CRC 376EEFBA
Track not present in AccurateRip database
Copy OK

Track 2

Filename C:\Music\Queen\On Air (6 CD Set)\Disc 5 - The Interviews (1981-1986)\02 - Brian on 'Rock On' with John Tobler (BBC Radio 1 - June 1982).wav

Peak level 73.8 %
Extraction speed 1.8 X
Track quality 100.0 %
Test CRC BC686037
Copy CRC BC686037
Track not present in AccurateRip database
Copy OK

Track 3

Filename C:\Music\Queen\On Air (6 CD Set)\Disc 5 - The Interviews (1981-1986)\03 - Brian on 'Rock On' with John Tobler (BBC Radio 1 - June 1982).wav

Peak level 94.4 %
Extraction speed 0.9 X
Track quality 100.0 %
Test CRC 9B3E2097
Copy CRC 9B3E2097
Track not present in AccurateRip database
Copy OK

Track 4

Filename C:\Music\Queen\On Air (6 CD Set)\Disc 5 - The Interviews (1981-1986)\04 - Brian on 'Rock On' with John Tobler (BBC Radio 1 - June 1982).wav

Peak level 90.1 %
Extraction speed 1.5 X
Track quality 99.9 %
Test CRC 61A591F4
Copy CRC 61A591F4
Track not present in AccurateRip database
Copy OK

Track 5

Filename C:\Music\Queen\On Air (6 CD Set)\Disc 5 - The Interviews (1981-1986)\05 - Brian on 'Rock On' with John Tobler (BBC Radio 1 - June 1982).wav

Peak level 94.4 %
Extraction speed 2.0 X
Track quality 100.0 %
Test CRC 2A190E61
Copy CRC 2A190E61
Track not present in AccurateRip database
Copy OK

Track 6

Filename C:\Music\Queen\On Air (6 CD Set)\Disc 5 - The Interviews (1981-1986)\06 - Brian on 'Rock On' with John Tobler (BBC Radio 1 - June 1982).wav

Peak level 94.4 %
Extraction speed 1.9 X
Track quality 100.0 %
Test CRC 1B1397C5
Copy CRC 1B1397C5
Track not present in AccurateRip database
Copy OK

Track 7

Filename C:\Music\Queen\On Air (6 CD Set)\Disc 5 - The Interviews (1981-1986)\07 - Brian on 'Rock On' with John Tobler (BBC Radio 1 - June 1982).wav

Peak level 92.4 %
Extraction speed 1.9 X
Track quality 100.0 %
Test CRC BD854F9C
Copy CRC BD854F9C
Track not present in AccurateRip database
Copy OK

Track 8

Filename C:\Music\Queen\On Air (6 CD Set)\Disc 5 - The Interviews (1981-1986)\08 - Brian on 'Rock On' with John Tobler (BBC Radio 1 - June 1982).wav

Peak level 94.4 %
Extraction speed 2.3 X
Track quality 100.0 %
Test CRC 5AF1138E
Copy CRC 5AF1138E
Track not present in AccurateRip database
Copy OK

Track 9

Filename C:\Music\Queen\On Air (6 CD Set)\Disc 5 - The Interviews (1981-1986)\09 - Brian on 'Saturday Live' with Richard Skinner and Andy Foster (BBC Radio 1 - March 1984).wav

Peak level 94.1 %
Extraction speed 2.7 X
Track quality 100.0 %
Test CRC 151C2E09
Copy CRC 151C2E09
Track not present in AccurateRip database
Copy OK

Track 10

Filename C:\Music\Queen\On Air (6 CD Set)\Disc 5 - The Interviews (1981-1986)\10 - Brian on 'Saturday Live' with Richard Skinner and Andy Foster (BBC Radio 1 - March 1984).wav

Peak level 94.1 %
Extraction speed 2.6 X
Track quality 100.0 %
Test CRC 1C5D2CD4
Copy CRC 1C5D2CD4
Track not present in AccurateRip database
Copy OK

Track 11

Filename C:\Music\Queen\On Air (6 CD Set)\Disc 5 - The Interviews (1981-1986)\11 - Brian on 'Saturday Live' with Richard Skinner and Andy Foster (BBC Radio 1 - March 1984).wav

Peak level 94.0 %
Extraction speed 2.6 X
Track quality 100.0 %
Test CRC 52508469
Copy CRC 52508469
Track not present in AccurateRip database
Copy OK

Track 12

Filename C:\Music\Queen\On Air (6 CD Set)\Disc 5 - The Interviews (1981-1986)\12 - Brian on 'Saturday Live' with Richard Skinner and Andy Foster (BBC Radio 1 - March 1984).wav

Peak level 94.4 %
Extraction speed 0.8 X
Track quality 99.6 %
Test CRC 2ECE5BC9
Copy CRC 2ECE5BC9
Track not present in AccurateRip database
Copy OK

Track 13

Filename C:\Music\Queen\On Air (6 CD Set)\Disc 5 - The Interviews (1981-1986)\13 - Brian on 'Saturday Live' with Richard Skinner and Andy Foster (BBC Radio 1 - March 1984).wav

Peak level 94.1 %
Extraction speed 2.5 X
Track quality 100.0 %
Test CRC 9A59F06D
Copy CRC 9A59F06D
Track not present in AccurateRip database
Copy OK

Track 14

Filename C:\Music\Queen\On Air (6 CD Set)\Disc 5 - The Interviews (1981-1986)\14 - Freddie on 'Newsbeat' (BBC Radio 1 - August 1984).wav

Peak level 94.4 %
Extraction speed 2.1 X
Track quality 99.9 %
Test CRC ED394036
Copy CRC ED394036
Track not present in AccurateRip database
Copy OK

Track 15

Filename C:\Music\Queen\On Air (6 CD Set)\Disc 5 - The Interviews (1981-1986)\15 - Brian on 'Newsbeat' (BBC Radio 1 - September 1984).wav

Peak level 94.4 %
Extraction speed 2.2 X
Track quality 99.9 %
Test CRC B67FCBE5
Copy CRC B67FCBE5
Track not present in AccurateRip database
Copy OK

Track 16

Filename C:\Music\Queen\On Air (6 CD Set)\Disc 5 - The Interviews (1981-1986)\16 - Freddie on 'Saturday Live' with Graham Neale (BBC Radio 1 - September 1984).wav

Peak level 94.4 %
Extraction speed 3.4 X
Track quality 100.0 %
Test CRC 6A1648C2
Copy CRC 6A1648C2
Track not present in AccurateRip database
Copy OK

Track 17

Filename C:\Music\Queen\On Air (6 CD Set)\Disc 5 - The Interviews (1981-1986)\17 - Freddie with Simon Bates (BBC Radio 1 - April 1985).wav

Peak level 81.2 %
Extraction speed 3.7 X
Track quality 100.0 %
Test CRC DFB5B366
Copy CRC DFB5B366
Track not present in AccurateRip database
Copy OK

Track 18

Filename C:\Music\Queen\On Air (6 CD Set)\Disc 5 - The Interviews (1981-1986)\18 - Freddie with Simon Bates (BBC Radio 1 - April 1985).wav

Peak level 64.8 %
Extraction speed 3.3 X
Track quality 100.0 %
Test CRC 2B311897
Copy CRC 2B311897
Track not present in AccurateRip database
Copy OK

Track 19

Filename C:\Music\Queen\On Air (6 CD Set)\Disc 5 - The Interviews (1981-1986)\19 - Freddie with Simon Bates (BBC Radio 1 - April 1985).wav

Peak level 94.4 %
Extraction speed 2.3 X
Track quality 99.9 %
Test CRC EB403980
Copy CRC EB403980
Track not present in AccurateRip database
Copy OK

Track 20

Filename C:\Music\Queen\On Air (6 CD Set)\Disc 5 - The Interviews (1981-1986)\20 - Freddie with Simon Bates (BBC Radio 1 - April 1985).wav

Peak level 68.3 %
Extraction speed 2.6 X
Track quality 99.9 %
Test CRC FA1071AF
Copy CRC FA1071AF
Track not present in AccurateRip database
Copy OK

Track 21

Filename C:\Music\Queen\On Air (6 CD Set)\Disc 5 - The Interviews (1981-1986)\21 - Freddie with Simon Bates (BBC Radio 1 - April 1985).wav

Peak level 66.9 %
Extraction speed 1.5 X
Track quality 99.7 %
Test CRC 93BB5210
Copy CRC 93BB5210
Track not present in AccurateRip database
Copy OK

Track 22

Filename C:\Music\Queen\On Air (6 CD Set)\Disc 5 - The Interviews (1981-1986)\22 - Freddie with Simon Bates (BBC Radio 1 - April 1985).wav

Peak level 94.4 %
Extraction speed 0.6 X
Track quality 99.4 %
Test CRC 2CA4159E
Copy CRC 2CA4159E
Track not present in AccurateRip database
Copy OK

Track 23

Filename C:\Music\Queen\On Air (6 CD Set)\Disc 5 - The Interviews (1981-1986)\23 - Freddie with Simon Bates (BBC Radio 1 - April 1985).wav

Peak level 80.7 %
Extraction speed 1.0 X
Track quality 99.6 %
Test CRC 2D8AA877
Copy CRC 2D8AA877
Track not present in AccurateRip database
Copy OK

Track 24

Filename C:\Music\Queen\On Air (6 CD Set)\Disc 5 - The Interviews (1981-1986)\24 - Freddie with Simon Bates (BBC Radio 1 - April 1985).wav

Peak level 73.9 %
Extraction speed 2.4 X
Track quality 100.0 %
Test CRC F3B428FE
Copy CRC F3B428FE
Track not present in AccurateRip database
Copy OK

Track 25

Filename C:\Music\Queen\On Air (6 CD Set)\Disc 5 - The Interviews (1981-1986)\25 - Freddie with Simon Bates (BBC Radio 1 - April 1985).wav

Peak level 77.5 %
Extraction speed 1.0 X
Track quality 99.6 %
Test CRC 253E3B32
Copy CRC 253E3B32
Track not present in AccurateRip database
Copy OK

Track 26

Filename C:\Music\Queen\On Air (6 CD Set)\Disc 5 - The Interviews (1981-1986)\26 - Brian on 'The Way It Is' with David 'Kid' Jensen (Capital Radio - July 1986).wav

Peak level 94.4 %
Extraction speed 1.5 X
Track quality 99.7 %
Test CRC E50D2544
Copy CRC E50D2544
Track not present in AccurateRip database
Copy OK


None of the tracks are present in the AccurateRip database

No errors occurred

End of status report

==== Log checksum 0A6CD67FBF30216E649565BC8833712D8C8E42B38F45BB327EB7AF0AA7D953A1 ====


Queen - On Air (2016) [6CD Box Set]

Tracklist CD6 - The Interviews (1986-1992):

01. Roger Interview 'My Top Ten' with Andy Peebles (BBC Radio 1 - May 1986) (2:10)
02. Roger Interview 'My Top Ten' with Andy Peebles (BBC Radio 1 - May 1986) (4:11)
03. Roger Interview 'My Top Ten' with Andy Peebles (BBC Radio 1 - May 1986) (4:59)
04. Roger Interview 'My Top Ten' with Andy Peebles (BBC Radio 1 - May 1986) (2:01)
05. Roger Interview 'My Top Ten' with Andy Peebles (BBC Radio 1 - May 1986) (1:35)
06. Roger Interview 'My Top Ten' with Andy Peebles (BBC Radio 1 - May 1986) (3:18)
07. Roger Interview 'My Top Ten' with Andy Peebles (BBC Radio 1 - May 1986) (0:11)
08. Roger Interview 'My Top Ten' with Andy Peebles (BBC Radio 1 - May 1986) (2:09)
09. Roger Interview 'My Top Ten' with Andy Peebles (BBC Radio 1 - May 1986) (1:34)
10. Roger Interview 'My Top Ten' with Andy Peebles (BBC Radio 1 - May 1986) (1:50)
11. Roger Interview 'My Top Ten' with Andy Peebles (BBC Radio 1 - May 1986) (0:47)
12. 'Queen For an Hour' Interview with Mike Read (BBC Radio 1 - May 1989) (4:45)
13. 'Queen For an Hour' Interview with Mike Read (BBC Radio 1 - May 1989) (5:17)
14. 'Queen For an Hour' Interview with Mike Read (BBC Radio 1 - May 1989) (3:22)
15. 'Queen For an Hour' Interview with Mike Read (BBC Radio 1 - May 1989) (0:57)
16. 'Queen For an Hour' Interview with Mike Read (BBC Radio 1 - May 1989) (6:10)
17. 'Queen For an Hour' Interview with Mike Read (BBC Radio 1 - May 1989) (6:38)
18. 'Queen For an Hour' Interview with Mike Read (BBC Radio 1 - May 1989) (1:23)
19. 'Queen For an Hour' Interview with Mike Read (BBC Radio 1 - May 1989) (9:45)
20. 'Queen For an Hour' Interview with Mike Read (BBC Radio 1 - May 1989) (1:27)
21. 'Queen For an Hour' Interview with Mike Read (BBC Radio 1 - May 1989) (1:33)
22. Brian with Simon Bates (BBC Radio 2 - August 1992) (5:54)
23. Brian with Johnnie Walker (BBC Radio 2 - October 1992) (2:51)

Exact Audio Copy V1.0 beta 3 from 29. August 2011

EAC extraction logfile from 5. November 2016, 6:15

Queen / On Air

Used drive : TSSTcorpDVDWBD SH-B123L Adapter: 2 ID: 0

Read mode : Secure
Utilize accurate stream : Yes
Defeat audio cache : Yes
Make use of C2 pointers : No

Read offset correction : 6
Overread into Lead-In and Lead-Out : No
Fill up missing offset samples with silence : Yes
Delete leading and trailing silent blocks : No
Null samples used in CRC calculations : Yes
Used interface : Native Win32 interface for Win NT & 2000
Gap handling : Appended to previous track

Used output format : User Defined Encoder
Selected bitrate : 128 kBit/s
Quality : High
Add ID3 tag : No
Command line compressor : C:\Program Files (x86)\Exact Audio Copy\Flac\flac.exe
Additional command line options : -8 -V -T "ARTIST=%artist%" -T "TITLE=%title%" -T "ALBUM=%albumtitle%" -T "DATE=%year%" -T "TRACKNUMBER=%tracknr%" -T "GENRE=%genre%" -T "PERFORMER=%albuminterpret%" -T "COMPOSER=%composer%" %haslyrics%–tag-from-file=LYRICS="%lyricsfile%"%haslyrics% -T "ALBUMARTIST=%albumartist%" -T "DISCNUMBER=%cdnumber%" -T "TOTALDISCS=%totalcds%" -T "TOTALTRACKS=%numtracks%" -T "COMMENT=%comment%" %source% -o %dest%


TOC of the extracted CD

Track | Start | Length | Start sector | End sector
––––––––––––––––––––––––––––-
1 | 0:00.00 | 2:10.32 | 0 | 9781
2 | 2:10.32 | 4:10.55 | 9782 | 28586
3 | 6:21.12 | 4:58.40 | 28587 | 50976
4 | 11:19.52 | 2:01.19 | 50977 | 60070
5 | 13:20.71 | 1:35.10 | 60071 | 67205
6 | 14:56.06 | 3:18.32 | 67206 | 82087
7 | 18:14.38 | 0:11.26 | 82088 | 82938
8 | 18:25.64 | 2:09.04 | 82939 | 92617
9 | 20:34.68 | 1:33.47 | 92618 | 99639
10 | 22:08.40 | 1:50.17 | 99640 | 107906
11 | 23:58.57 | 0:46.50 | 107907 | 111406
12 | 24:45.32 | 4:45.33 | 111407 | 132814
13 | 29:30.65 | 5:17.00 | 132815 | 156589
14 | 34:47.65 | 3:22.23 | 156590 | 171762
15 | 38:10.13 | 0:56.52 | 171763 | 176014
16 | 39:06.65 | 6:09.39 | 176015 | 203728
17 | 45:16.29 | 6:37.72 | 203729 | 233575
18 | 51:54.26 | 1:23.19 | 233576 | 239819
19 | 53:17.45 | 9:45.34 | 239820 | 283728
20 | 63:03.04 | 1:27.00 | 283729 | 290253
21 | 64:30.04 | 1:33.15 | 290254 | 297243
22 | 66:03.19 | 5:54.06 | 297244 | 323799
23 | 71:57.25 | 2:51.31 | 323800 | 336655


Track 1

Filename C:\Music\Queen\On Air (6 CD Set)\Disc 6 - The Interviews (1986-1992)\01 - Roger Interview 'My Top Ten' with Andy Peebles (BBC Radio 1 - May 1986).wav

Pre-gap length 0:00:02.00

Peak level 76.8 %
Extraction speed 2.0 X
Track quality 100.0 %
Test CRC C820C36B
Copy CRC C820C36B
Track not present in AccurateRip database
Copy OK

Track 2

Filename C:\Music\Queen\On Air (6 CD Set)\Disc 6 - The Interviews (1986-1992)\02 - Roger Interview 'My Top Ten' with Andy Peebles (BBC Radio 1 - May 1986).wav

Peak level 74.8 %
Extraction speed 2.3 X
Track quality 100.0 %
Test CRC 2D0E4DB8
Copy CRC 2D0E4DB8
Track not present in AccurateRip database
Copy OK

Track 3

Filename C:\Music\Queen\On Air (6 CD Set)\Disc 6 - The Interviews (1986-1992)\03 - Roger Interview 'My Top Ten' with Andy Peebles (BBC Radio 1 - May 1986).wav

Peak level 77.4 %
Extraction speed 2.6 X
Track quality 100.0 %
Test CRC B1DCEB52
Copy CRC B1DCEB52
Track not present in AccurateRip database
Copy OK

Track 4

Filename C:\Music\Queen\On Air (6 CD Set)\Disc 6 - The Interviews (1986-1992)\04 - Roger Interview 'My Top Ten' with Andy Peebles (BBC Radio 1 - May 1986).wav

Peak level 80.7 %
Extraction speed 2.3 X
Track quality 100.0 %
Test CRC 14719AB8
Copy CRC 14719AB8
Track not present in AccurateRip database
Copy OK

Track 5

Filename C:\Music\Queen\On Air (6 CD Set)\Disc 6 - The Interviews (1986-1992)\05 - Roger Interview 'My Top Ten' with Andy Peebles (BBC Radio 1 - May 1986).wav

Peak level 74.8 %
Extraction speed 2.3 X
Track quality 100.0 %
Test CRC 524FD3C7
Copy CRC 524FD3C7
Track not present in AccurateRip database
Copy OK

Track 6

Filename C:\Music\Queen\On Air (6 CD Set)\Disc 6 - The Interviews (1986-1992)\06 - Roger Interview 'My Top Ten' with Andy Peebles (BBC Radio 1 - May 1986).wav

Peak level 76.4 %
Extraction speed 2.8 X
Track quality 100.0 %
Test CRC C18E27F9
Copy CRC C18E27F9
Track not present in AccurateRip database
Copy OK

Track 7

Filename C:\Music\Queen\On Air (6 CD Set)\Disc 6 - The Interviews (1986-1992)\07 - Roger Interview 'My Top Ten' with Andy Peebles (BBC Radio 1 - May 1986).wav

Peak level 66.9 %
Extraction speed 0.7 X
Track quality 100.0 %
Test CRC A1B731F4
Copy CRC A1B731F4
Track not present in AccurateRip database
Copy OK

Track 8

Filename C:\Music\Queen\On Air (6 CD Set)\Disc 6 - The Interviews (1986-1992)\08 - Roger Interview 'My Top Ten' with Andy Peebles (BBC Radio 1 - May 1986).wav

Peak level 76.2 %
Extraction speed 2.6 X
Track quality 100.0 %
Test CRC 7915977A
Copy CRC 7915977A
Track not present in AccurateRip database
Copy OK

Track 9

Filename C:\Music\Queen\On Air (6 CD Set)\Disc 6 - The Interviews (1986-1992)\09 - Roger Interview 'My Top Ten' with Andy Peebles (BBC Radio 1 - May 1986).wav

Peak level 78.5 %
Extraction speed 1.6 X
Track quality 99.8 %
Test CRC 99F3E491
Copy CRC 99F3E491
Track not present in AccurateRip database
Copy OK

Track 10

Filename C:\Music\Queen\On Air (6 CD Set)\Disc 6 - The Interviews (1986-1992)\10 - Roger Interview 'My Top Ten' with Andy Peebles (BBC Radio 1 - May 1986).wav

Peak level 81.6 %
Extraction speed 1.8 X
Track quality 99.9 %
Test CRC 87730B92
Copy CRC 87730B92
Track not present in AccurateRip database
Copy OK

Track 11

Filename C:\Music\Queen\On Air (6 CD Set)\Disc 6 - The Interviews (1986-1992)\11 - Roger Interview 'My Top Ten' with Andy Peebles (BBC Radio 1 - May 1986).wav

Peak level 94.4 %
Extraction speed 2.0 X
Track quality 100.0 %
Test CRC 7381D8F6
Copy CRC 7381D8F6
Track not present in AccurateRip database
Copy OK

Track 12

Filename C:\Music\Queen\On Air (6 CD Set)\Disc 6 - The Interviews (1986-1992)\12 - 'Queen For an Hour' Interview with Mike Read (BBC Radio 1 - May 1989).wav

Peak level 94.1 %
Extraction speed 3.3 X
Track quality 100.0 %
Test CRC BBD8D59C
Copy CRC BBD8D59C
Track not present in AccurateRip database
Copy OK

Track 13

Filename C:\Music\Queen\On Air (6 CD Set)\Disc 6 - The Interviews (1986-1992)\13 - 'Queen For an Hour' Interview with Mike Read (BBC Radio 1 - May 1989).wav

Peak level 98.2 %
Extraction speed 3.5 X
Track quality 100.0 %
Test CRC 54A7ED8C
Copy CRC 54A7ED8C
Track not present in AccurateRip database
Copy OK

Track 14

Filename C:\Music\Queen\On Air (6 CD Set)\Disc 6 - The Interviews (1986-1992)\14 - 'Queen For an Hour' Interview with Mike Read (BBC Radio 1 - May 1989).wav

Peak level 96.9 %
Extraction speed 3.5 X
Track quality 100.0 %
Test CRC 5334801F
Copy CRC 5334801F
Track not present in AccurateRip database
Copy OK

Track 15

Filename C:\Music\Queen\On Air (6 CD Set)\Disc 6 - The Interviews (1986-1992)\15 - 'Queen For an Hour' Interview with Mike Read (BBC Radio 1 - May 1989).wav

Peak level 94.5 %
Extraction speed 2.5 X
Track quality 100.0 %
Test CRC 47AC306A
Copy CRC 47AC306A
Track not present in AccurateRip database
Copy OK

Track 16

Filename C:\Music\Queen\On Air (6 CD Set)\Disc 6 - The Interviews (1986-1992)\16 - 'Queen For an Hour' Interview with Mike Read (BBC Radio 1 - May 1989).wav

Peak level 95.6 %
Extraction speed 3.2 X
Track quality 99.9 %
Test CRC 8308C6EA
Copy CRC 8308C6EA
Track not present in AccurateRip database
Copy OK

Track 17

Filename C:\Music\Queen\On Air (6 CD Set)\Disc 6 - The Interviews (1986-1992)\17 - 'Queen For an Hour' Interview with Mike Read (BBC Radio 1 - May 1989).wav

Peak level 95.8 %
Extraction speed 4.2 X
Track quality 100.0 %
Test CRC 3FF1ACA3
Copy CRC 3FF1ACA3
Track not present in AccurateRip database
Copy OK

Track 18

Filename C:\Music\Queen\On Air (6 CD Set)\Disc 6 - The Interviews (1986-1992)\18 - 'Queen For an Hour' Interview with Mike Read (BBC Radio 1 - May 1989).wav

Peak level 96.4 %
Extraction speed 3.2 X
Track quality 100.0 %
Test CRC C3DBCF75
Copy CRC C3DBCF75
Track not present in AccurateRip database
Copy OK

Track 19

Filename C:\Music\Queen\On Air (6 CD Set)\Disc 6 - The Interviews (1986-1992)\19 - 'Queen For an Hour' Interview with Mike Read (BBC Radio 1 - May 1989).wav

Peak level 98.7 %
Extraction speed 4.6 X
Track quality 100.0 %
Test CRC 4099C4B2
Copy CRC 4099C4B2
Track not present in AccurateRip database
Copy OK

Track 20

Filename C:\Music\Queen\On Air (6 CD Set)\Disc 6 - The Interviews (1986-1992)\20 - 'Queen For an Hour' Interview with Mike Read (BBC Radio 1 - May 1989).wav

Peak level 95.2 %
Extraction speed 3.3 X
Track quality 100.0 %
Test CRC F63249F7
Copy CRC F63249F7
Track not present in AccurateRip database
Copy OK

Track 21

Filename C:\Music\Queen\On Air (6 CD Set)\Disc 6 - The Interviews (1986-1992)\21 - 'Queen For an Hour' Interview with Mike Read (BBC Radio 1 - May 1989).wav

Peak level 95.0 %
Extraction speed 3.7 X
Track quality 100.0 %
Test CRC 73545D8B
Copy CRC 73545D8B
Track not present in AccurateRip database
Copy OK

Track 22

Filename C:\Music\Queen\On Air (6 CD Set)\Disc 6 - The Interviews (1986-1992)\22 - Brian with Simon Bates (BBC Radio 2 - August 1992).wav

Peak level 94.4 %
Extraction speed 4.7 X
Track quality 100.0 %
Test CRC BC59C856
Copy CRC BC59C856
Track not present in AccurateRip database
Copy OK

Track 23

Filename C:\Music\Queen\On Air (6 CD Set)\Disc 6 - The Interviews (1986-1992)\23 - Brian with Johnnie Walker (BBC Radio 2 - October 1992).wav

Peak level 94.4 %
Extraction speed 4.3 X
Track quality 100.0 %
Test CRC 3F29CE48
Copy CRC 3F29CE48
Track not present in AccurateRip database
Copy OK


None of the tracks are present in the AccurateRip database

No errors occurred

End of status report

==== Log checksum 4BC9E6C53AE4B088CBC9078BC4A5AE7E5AFAC2663A0D2001CEC269C50399DD15 ====


Queen - On Air (2016) [6CD Box Set]

All thanks go to the original releaser

Queen in my Blog

Download Queen - On Air (2016):