Tags
Language
Tags

Queen - Stone Cold Classics (2006)

Posted By: Rtax
Queen - Stone Cold Classics (2006)

Queen - Stone Cold Classics (2006)
EAC Rip | FLAC (tracks, cue, log) - 374 MB
59:14 | Pop Rock, Arena Rock, Classic Rock | Label: Hollywood Records

Stone Cold Classics is a compilation album by English rock band Queen released on 11 April 2006, in conjunction with the broadcast of an episode of the U.S. television series American Idol, in which contestants performed songs from the Queen catalogue.

Tracklist
1. Stone Cold Crazy 2:16
2. Tie Your Mother Down 3:48
3. Fat Bottomed Girls 3:24
4. Another One Bites The Dust 3:37
5. Crazy Little Thing Called Love 2:44
6. We Will Rock You 2:02
7. We Are The Champions 3:01
8. Radio Ga Ga 5:49
9. Bohemian Rhapsody 5:55
10. The Show Must Go On 4:35
11. These Are The Days Of Our Lives 4:15
12. I Want It All 4:32

Bonus Tracks Performed By Queen + Paul Rodgers
13. All Right Now 6:56
14. Feel Like Makin' Love 6:20
Exact Audio Copy V1.6 from 23. October 2020

EAC extraction logfile from 4. February 2021, 14:52

Queen / Stone Cold Classics

Used drive : SONY DVD RW DRU-830A Adapter: 1 ID: 0

Read mode : Secure
Utilize accurate stream : Yes
Defeat audio cache : Yes
Make use of C2 pointers : No

Read offset correction : 6
Overread into Lead-In and Lead-Out : No
Fill up missing offset samples with silence : Yes
Delete leading and trailing silent blocks : No
Null samples used in CRC calculations : Yes
Used interface : Native Win32 interface for Win NT & 2000
Gap handling : Appended to previous track

Used output format : User Defined Encoder
Selected bitrate : 1024 kBit/s
Quality : High
Add ID3 tag : No
Command line compressor : C:\Program Files (x86)\Exact Audio Copy\Flac\flac.exe
Additional command line options : -8 -e -p -V -T "ARTIST=%artist%" -T "TITLE=%title%" -T "ALBUM=%albumtitle%" -T "DATE=%year%" -T "TRACKNUMBER=%tracknr%" -T "GENRE=%genre%" -T "PERFORMER=%albuminterpret%" -T "COMPOSER=%composer%" %haslyrics%–tag-from-file=LYRICS="%lyricsfile%"%haslyrics% -T "ALBUMARTIST=%albumartist%" -T "DISCNUMBER=%cdnumber%" -T "TOTALDISCS=%totalcds%" -T "TOTALTRACKS=%numtracks%" -T "COMMENT=%comment%" %source% -o %dest%


TOC of the extracted CD

Track | Start | Length | Start sector | End sector
––––––––––––––––––––––––––––-
1 | 0:00.00 | 2:15.64 | 0 | 10188
2 | 2:15.64 | 3:48.01 | 10189 | 27289
3 | 6:03.65 | 3:24.37 | 27290 | 42626
4 | 9:28.27 | 3:36.66 | 42627 | 58892
5 | 13:05.18 | 2:44.28 | 58893 | 71220
6 | 15:49.46 | 2:01.72 | 71221 | 80367
7 | 17:51.43 | 3:01.09 | 80368 | 93951
8 | 20:52.52 | 5:49.24 | 93952 | 120150
9 | 26:42.01 | 5:55.30 | 120151 | 146805
10 | 32:37.31 | 4:34.43 | 146806 | 167398
11 | 37:11.74 | 4:14.39 | 167399 | 186487
12 | 41:26.38 | 4:31.50 | 186488 | 206862
13 | 45:58.13 | 6:56.02 | 206863 | 238064
14 | 52:54.15 | 6:20.33 | 238065 | 266597


Track 1

Filename C:\EAC Rips\Queen - Stone Cold Classics (2006) [FLAC]\01 - Queen - Stone Cold Crazy.wav

Pre-gap length 0:00:02.00

Peak level 89.8 %
Extraction speed 4.4 X
Track quality 100.0 %
Test CRC B5F432F2
Copy CRC B5F432F2
Accurately ripped (confidence 26) [346BADC2] (AR v2)
Copy OK

Track 2

Filename C:\EAC Rips\Queen - Stone Cold Classics (2006) [FLAC]\02 - Queen - Tie Your Mother Down.wav

Pre-gap length 0:00:00.04

Peak level 98.7 %
Extraction speed 5.1 X
Track quality 100.0 %
Test CRC 5451C841
Copy CRC 5451C841
Accurately ripped (confidence 28) [76E0CE45] (AR v2)
Copy OK

Track 3

Filename C:\EAC Rips\Queen - Stone Cold Classics (2006) [FLAC]\03 - Queen - Fat Bottomed Girls.wav

Pre-gap length 0:00:01.21

Peak level 97.7 %
Extraction speed 4.7 X
Track quality 99.9 %
Test CRC EFBC736A
Copy CRC EFBC736A
Accurately ripped (confidence 28) [BEAC485D] (AR v2)
Copy OK

Track 4

Filename C:\EAC Rips\Queen - Stone Cold Classics (2006) [FLAC]\04 - Queen - Another One Bites the Dust.wav

Pre-gap length 0:00:00.04

Peak level 97.7 %
Extraction speed 5.8 X
Track quality 100.0 %
Test CRC 5F50DB38
Copy CRC 5F50DB38
Accurately ripped (confidence 28) [0C431BB0] (AR v2)
Copy OK

Track 5

Filename C:\EAC Rips\Queen - Stone Cold Classics (2006) [FLAC]\05 - Queen - Crazy Little Thing Called Love.wav

Pre-gap length 0:00:00.04

Peak level 97.7 %
Extraction speed 5.7 X
Track quality 100.0 %
Test CRC 2D008099
Copy CRC 2D008099
Accurately ripped (confidence 28) [08E16EEC] (AR v2)
Copy OK

Track 6

Filename C:\EAC Rips\Queen - Stone Cold Classics (2006) [FLAC]\06 - Queen - We Will Rock You.wav

Pre-gap length 0:00:00.02

Peak level 97.7 %
Extraction speed 5.6 X
Track quality 100.0 %
Test CRC 56BF13A5
Copy CRC 56BF13A5
Accurately ripped (confidence 28) [DB306C66] (AR v2)
Copy OK

Track 7

Filename C:\EAC Rips\Queen - Stone Cold Classics (2006) [FLAC]\07 - Queen - We Are the Champions.wav

Pre-gap length 0:00:00.04

Peak level 97.7 %
Extraction speed 6.3 X
Track quality 100.0 %
Test CRC 2C4407C9
Copy CRC 2C4407C9
Accurately ripped (confidence 28) [0D2638D3] (AR v2)
Copy OK

Track 8

Filename C:\EAC Rips\Queen - Stone Cold Classics (2006) [FLAC]\08 - Queen - Radio Ga Ga.wav

Pre-gap length 0:00:00.04

Peak level 94.0 %
Extraction speed 7.3 X
Track quality 100.0 %
Test CRC 8CCAB42B
Copy CRC 8CCAB42B
Accurately ripped (confidence 28) [A5B61B77] (AR v2)
Copy OK

Track 9

Filename C:\EAC Rips\Queen - Stone Cold Classics (2006) [FLAC]\09 - Queen - Bohemian Rhapsody.wav

Pre-gap length 0:00:00.04

Peak level 94.9 %
Extraction speed 7.7 X
Track quality 100.0 %
Test CRC 30A56F89
Copy CRC 30A56F89
Accurately ripped (confidence 28) [C0B07C94] (AR v2)
Copy OK

Track 10

Filename C:\EAC Rips\Queen - Stone Cold Classics (2006) [FLAC]\10 - Queen - The Show Must Go On.wav

Peak level 93.3 %
Extraction speed 7.1 X
Track quality 99.9 %
Test CRC 69FAD5DE
Copy CRC 69FAD5DE
Accurately ripped (confidence 28) [D8DE9733] (AR v2)
Copy OK

Track 11

Filename C:\EAC Rips\Queen - Stone Cold Classics (2006) [FLAC]\11 - Queen - These Are the Days of Our Lives.wav

Pre-gap length 0:00:01.06

Peak level 82.9 %
Extraction speed 8.1 X
Track quality 100.0 %
Test CRC B6626CC8
Copy CRC B6626CC8
Accurately ripped (confidence 28) [29E72A77] (AR v2)
Copy OK

Track 12

Filename C:\EAC Rips\Queen - Stone Cold Classics (2006) [FLAC]\12 - Queen - I Want It All.wav

Pre-gap length 0:00:00.04

Peak level 99.3 %
Extraction speed 8.5 X
Track quality 100.0 %
Test CRC 64C2F226
Copy CRC 64C2F226
Accurately ripped (confidence 28) [A7E573B9] (AR v2)
Copy OK

Track 13

Filename C:\EAC Rips\Queen - Stone Cold Classics (2006) [FLAC]\13 - Queen + Paul Rodgers - All Right Now (live).wav

Pre-gap length 0:00:00.04

Peak level 98.8 %
Extraction speed 9.2 X
Track quality 100.0 %
Test CRC C8F842ED
Copy CRC C8F842ED
Accurately ripped (confidence 28) [98E74DFE] (AR v2)
Copy OK

Track 14

Filename C:\EAC Rips\Queen - Stone Cold Classics (2006) [FLAC]\14 - Queen + Paul Rodgers - Feel Like Makin’ Love (live).wav

Pre-gap length 0:00:01.05

Peak level 98.3 %
Extraction speed 8.8 X
Track quality 99.9 %
Test CRC 91F605AF
Copy CRC 91F605AF
Accurately ripped (confidence 27) [0BC45460] (AR v2)
Copy OK


All tracks accurately ripped

No errors occurred

End of status report

–– CUETools DB Plugin V2.1.6

[CTDB TOCID: F9jZFa9hiO9HtXXJ008DLM3ELbY-] found
Submit result: F9jZFa9hiO9HtXXJ008DLM3ELbY- has been confirmed
Track | CTDB Status
1 | (72/73) Accurately ripped
2 | (71/73) Accurately ripped
3 | (73/73) Accurately ripped
4 | (72/73) Accurately ripped
5 | (73/73) Accurately ripped
6 | (73/73) Accurately ripped
7 | (73/73) Accurately ripped
8 | (73/73) Accurately ripped
9 | (71/73) Accurately ripped
10 | (72/73) Accurately ripped
11 | (72/73) Accurately ripped
12 | (72/73) Accurately ripped
13 | (73/73) Accurately ripped
14 | (70/73) Accurately ripped


==== Log checksum C40F8491CC90677D58C4A44A230E4EBC56E92149AD4E3B4E453BC6961EDAD187 ====