Tags
Language
Tags

Queensrÿche - Greatest Hits (2000) [Japan SHM-CD 2014] Repost

Posted By: Andi_Deris
Queensrÿche - Greatest Hits (2000) [Japan SHM-CD 2014] Repost

Queensrÿche - Greatest Hits (2000) [Japan SHM-CD 2014]
EAC Rip | FLAC: Image+Cue+Log | 602 Mb | MP3 CBR 320 kbps | 212 Mb | Scans | 129 Mb | Time: 01:17:35
Universal/EMI Music Japan Inc. | UICY-76341
Heavy Metal, Progressive Metal

Greatest Hits is a compilation album from the American progressive metal band Queensrÿche, released in 2000. It includes material from all of the band's studio releases up to 1997 (1999's Q2K is excluded), as well as the 1997 B-side "Chasing Blue Sky" and an alternate version of "Someone Else?" featuring the full band.

Queensrÿche - Greatest Hits (2000) [Japan SHM-CD 2014] Repost




Track Listing

01. Queen Of The Reich (4:22)
02. The Lady Wore Black (6:14)
03. Warning (4:45)
04. Take Hold Of The Flame (4:55)
05. Walk In The Shadows (3:34)
06. I Dream In Infrared (4:18)
07. I Don't Believe In Love (4:24)
08. Eyes Of A Stranger (6:36)
09. Jet City Woman (5:21)
10. Empire (5:23)
11. Silent Lucidity (5:45)
12. I Am I (3:59)
13. Bridge (3:31)
14. Sign Of The Times (3:34)
15. Chasing Blue Sky (Bonus Track) (3:41)
16. Someone Else? (Bonus Track / With Full Band) (7:13)

Produced by David Brown & Cheryl Pawelski

Notes

All tracks 24-Bit Digitally Remastered

Exact Audio Copy V0.99 prebeta 5 from 4. May 2009

Archivo Log de extracciones desde 14. Agosto 2014, 15:07

QUEENSRÿCHE / Greatest Hits - Japan SHM-CD (76341)

Usar unidad : HL-DT-STDVDRAM GH22NS70 Adapter: 0 ID: 0

Modo de Lectura : Seguro
Utilizar Corriente Exacta : Sí
Descartar Audio caché : Sí
Utilizar los punteros C2 : No

Corrección de Desplazamiento de Lectura : 667
Sobreleer tanto en Lead-In como en Lead-Out : No
Rellenar las muestras faltantes con silencios : Sí
Eliminar silencios inicial y final : No
Se han usado muestras nulas en los cálculos CRC : Sí
Interfaz usada : Interfaz propio de Win32 para Windowns NT y 2000

Formato de Salida utilizado : Compresor definido por el usuario
Bitrate seleccionado : 32 kBit/s
Calidad : Alta
Añadir Etiqueta ID3 : No
Compresor de linea de comandos : C:\Program Files (x86)\Exact Audio Copy\Flac\flac.exe
Opciones adicionales en línea de comandos : -6 -V %s


TOC del CD extraido

Pista | Inicio | Duración | Sector inicial | Sector final
––––––––––––––––––––––––––––––-
1 | 0:00.00 | 4:22.42 | 0 | 19691
2 | 4:22.42 | 6:14.70 | 19692 | 47811
3 | 10:37.37 | 4:45.25 | 47812 | 69211
4 | 15:22.62 | 4:55.53 | 69212 | 91389
5 | 20:18.40 | 3:34.10 | 91390 | 107449
6 | 23:52.50 | 4:18.05 | 107450 | 126804
7 | 28:10.55 | 4:24.02 | 126805 | 146606
8 | 32:34.57 | 6:36.15 | 146607 | 176321
9 | 39:10.72 | 5:21.55 | 176322 | 200451
10 | 44:32.52 | 5:23.53 | 200452 | 224729
11 | 49:56.30 | 5:45.62 | 224730 | 250666
12 | 55:42.17 | 3:59.13 | 250667 | 268604
13 | 59:41.30 | 3:31.05 | 268605 | 284434
14 | 63:12.35 | 3:34.37 | 284435 | 300521
15 | 66:46.72 | 3:41.15 | 300522 | 317111
16 | 70:28.12 | 7:13.50 | 317112 | 349636


Gama de estados y errores

Seleccionar gama

Nombre de Archivo E:\Música\EAC\Queensryche\Greatest Hits\QUEENSRÿCHE - Greatest Hits - Japan SHM-CD (76341).wav

Nivel Pico 98.8 %
Gama de Calidad 100.0 %
Test CRC 07FD8A9E
Copiar CRC 07FD8A9E
Copia OK

Sin Errores


Resumen AccurateRip

Pista 1 no presente en la base de datos
Pista 2 no presente en la base de datos
Pista 3 no presente en la base de datos
Pista 4 no presente en la base de datos
Pista 5 no presente en la base de datos
Pista 6 no presente en la base de datos
Pista 7 no presente en la base de datos
Pista 8 no presente en la base de datos
Pista 9 no se puede verificar como preciso (confianza 1) [CB09F65B], AccurateRip devuelto [D2DF35BE]
Pista 10 no se puede verificar como preciso (confianza 1) [1FB1192E], AccurateRip devuelto [79701073]
Pista 11 no presente en la base de datos
Pista 12 no presente en la base de datos
Pista 13 no presente en la base de datos
Pista 14 no presente en la base de datos
Pista 15 no presente en la base de datos
Pista 16 no presente en la base de datos

2 pista(s) no verificadas correctamente
14 pista(s) no disponibles en la base de datos AccurateRip

No se verificará ninguna pista como precisa
Puede que tengas una edición diferente a la(s) de la base de datos

Final del Informe


Many thanks to the original uploader: jarpomarx

SEE also:
Queensrÿche 1994 Promised Land [Japanese Ed.]
Queensrÿche 2013 Queensrÿche [Limited Ed. 2CD Mediabook]