Tags
Language
Tags
February 2023
Su Mo Tu We Th Fr Sa
29 30 31 1 2 3 4
5 6 7 8 9 10 11
12 13 14 15 16 17 18
19 20 21 22 23 24 25
26 27 28 1 2 3 4

R.E.M. - Murmur (1983) [2CD, Deluxe Edition]

Posted By: v3122
R.E.M. - Murmur (1983) [2CD, Deluxe Edition]

R.E.M. - Murmur (1983)
EAC | Flac(Image) + Cue + Log & MP3 CBR 320Kbps
2008 | Universal Music, 1788288 | ~ 782 or 245 Mb | Artwork(jpg) -> 14 Mb
Alternative Rock, Indie Rock

Leaving behind the garagey jangle pop of their first recordings, R.E.M. developed a strangely subdued variation of their trademark sound for their full-length debut album, Murmur. Heightening the enigmatic tendencies of Chronic Town by de-emphasizing the backbeat and accentuating the ambience of the ringing guitar, R.E.M. created a distinctive sound for the album – one that sounds eerily timeless. Even though it is firmly in the tradition of American folk-rock, post-punk, and garage rock, Murmur sounds as if it appeared out of nowhere, without any ties to the past, present, or future. Part of the distinctiveness lies in the atmospheric production, which exudes a detached sense of mystery, but it also comes from the remarkably accomplished songwriting. The songs on Murmur sound as if they've existed forever, yet they subvert folk and pop conventions by taking unpredictable twists and turns into melodic, evocative territory, whether it's the measured riffs of "Pilgrimage," the melancholic "Talk About the Passion," or the winding guitars and pianos of "Perfect Circle." R.E.M. may have made albums as good as Murmur in the years following its release, but they never again made anything that sounded quite like it.

by Stephen Thomas Erlewine, allmusic
R.E.M. - Murmur (1983):

R.E.M. - Murmur (1983) [2CD, Deluxe Edition]

Tracklist CD1:

01 Radio Free Europe 4:05
02 Pilgrimage 4:29
03 Laughing 3:58
04 Talk About The Passion 3:21
05 Moral Kiosk 3:32
06 Perfect Circle 3:31
07 Catapult 3:56
08 Sitting Still 3:18
09 9-9 3:03
10 Shaking Through 4:30
11 We Walk 3:01
12 West Of The Fields 3:21

Exact Audio Copy V0.99 prebeta 4 from 23. January 2008

EAC extraction logfile from 20. June 2009, 21:03

R.E.M. / Murmur (Deluxe Edition) CD1

Used drive : SONY DVD-ROM DDU1612 Adapter: 0 ID: 1

Read mode : Secure
Utilize accurate stream : Yes
Defeat audio cache : Yes
Make use of C2 pointers : No

Read offset correction : 12
Overread into Lead-In and Lead-Out : No
Fill up missing offset samples with silence : Yes
Delete leading and trailing silent blocks : No
Null samples used in CRC calculations : No
Used interface : Installed external ASPI interface
Gap handling : Appended to previous track

Used output format : User Defined Encoder
Selected bitrate : 768 kBit/s
Quality : High
Add ID3 tag : No
Command line compressor : C:\Programme\Exact Audio Copy\FLAC\FLAC.EXE
Additional command line options : -8 -V -T "artist=%a" -T "title=%t" -T "album=%g" -T "date=%y" -T "tracknumber=%n" -T "genre=%m" %s


TOC of the extracted CD

Track | Start | Length | Start sector | End sector
––––––––––––––––––––––––––––-
1 | 0:00.00 | 4:05.59 | 0 | 18433
2 | 4:05.59 | 4:29.27 | 18434 | 38635
3 | 8:35.11 | 3:58.53 | 38636 | 56538
4 | 12:33.64 | 3:21.35 | 56539 | 71648
5 | 15:55.24 | 3:32.18 | 71649 | 87566
6 | 19:27.42 | 3:31.11 | 87567 | 103402
7 | 22:58.53 | 3:56.10 | 103403 | 121112
8 | 26:54.63 | 3:18.59 | 121113 | 136021
9 | 30:13.47 | 3:03.37 | 136022 | 149783
10 | 33:17.09 | 4:30.42 | 149784 | 170075
11 | 37:47.51 | 3:01.21 | 170076 | 183671
12 | 40:48.72 | 3:21.45 | 183672 | 198791


Track 1

Filename C:\R.E.M. - Murmur (Deluxe Edition)\CD1 - The Album\01 Radio Free Europe.wav

Pre-gap length 0:00:02.00

Peak level 96.5 %
Track quality 100.0 %
Test CRC A481FC2B
Copy CRC A481FC2B
Copy OK

Track 2

Filename C:\R.E.M. - Murmur (Deluxe Edition)\CD1 - The Album\02 Pilgrimage.wav

Peak level 100.0 %
Track quality 100.0 %
Test CRC CBAD78B1
Copy CRC CBAD78B1
Copy OK

Track 3

Filename C:\R.E.M. - Murmur (Deluxe Edition)\CD1 - The Album\03 Laughing.wav

Peak level 95.7 %
Track quality 100.0 %
Test CRC CE333267
Copy CRC CE333267
Copy OK

Track 4

Filename C:\R.E.M. - Murmur (Deluxe Edition)\CD1 - The Album\04 Talk About The Passion.wav

Pre-gap length 0:00:01.09

Peak level 96.3 %
Track quality 100.0 %
Test CRC 7578B9AC
Copy CRC 7578B9AC
Copy OK

Track 5

Filename C:\R.E.M. - Murmur (Deluxe Edition)\CD1 - The Album\05 Moral Kiosk.wav

Peak level 97.2 %
Track quality 100.0 %
Test CRC D6FA41EA
Copy CRC D6FA41EA
Copy OK

Track 6

Filename C:\R.E.M. - Murmur (Deluxe Edition)\CD1 - The Album\06 Perfect Circle.wav

Pre-gap length 0:00:00.05

Peak level 93.6 %
Track quality 100.0 %
Test CRC 4371356C
Copy CRC 4371356C
Copy OK

Track 7

Filename C:\R.E.M. - Murmur (Deluxe Edition)\CD1 - The Album\07 Catapult.wav

Pre-gap length 0:00:00.03

Peak level 95.7 %
Track quality 100.0 %
Test CRC 71E8C455
Copy CRC 71E8C455
Copy OK

Track 8

Filename C:\R.E.M. - Murmur (Deluxe Edition)\CD1 - The Album\08 Sitting Still.wav

Peak level 96.8 %
Track quality 100.0 %
Test CRC 2971A8E8
Copy CRC 2971A8E8
Copy OK

Track 9

Filename C:\R.E.M. - Murmur (Deluxe Edition)\CD1 - The Album\09 9-9.wav

Pre-gap length 0:00:00.54

Peak level 94.3 %
Track quality 100.0 %
Test CRC 0B1C40B4
Copy CRC 0B1C40B4
Copy OK

Track 10

Filename C:\R.E.M. - Murmur (Deluxe Edition)\CD1 - The Album\10 Shaking Through.wav

Peak level 96.7 %
Track quality 100.0 %
Test CRC D1B69FD2
Copy CRC D1B69FD2
Copy OK

Track 11

Filename C:\R.E.M. - Murmur (Deluxe Edition)\CD1 - The Album\11 We Walk.wav

Peak level 96.9 %
Track quality 100.0 %
Test CRC 3DA808D3
Copy CRC 3DA808D3
Copy OK

Track 12

Filename C:\R.E.M. - Murmur (Deluxe Edition)\CD1 - The Album\12 West Of The Fields.wav

Peak level 98.8 %
Track quality 99.9 %
Test CRC 798A6C72
Copy CRC 798A6C72
Copy OK

No errors occurred

End of status report


[CUETools log; Date: 23.11.2018 21:01:28; Version: 2.1.4]
[AccurateRip ID: 00146187-00bc3d9b-b60a5a0c] found.
Track [ CRC | V2 ] Status
01 [f3631a29|e099b6dc] (088+130/218) Accurately ripped
02 [5d44c92d|df12239e] (088+132/220) Accurately ripped
03 [a778a5b1|b96506ac] (088+132/220) Accurately ripped
04 [7dce155b|cb906f83] (088+132/220) Accurately ripped
05 [47d6f024|177899ec] (088+132/220) Accurately ripped
06 [191d20b5|347a12cf] (089+132/221) Accurately ripped
07 [f89d54d8|3e6aafa8] (089+133/222) Accurately ripped
08 [3d314747|607b9948] (088+132/220) Accurately ripped
09 [287b9348|fff6f0bd] (088+133/221) Accurately ripped
10 [6f9b5795|050729b6] (088+131/219) Accurately ripped
11 [e6ca924b|e9647dc6] (089+133/222) Accurately ripped
12 [707e5865|dbed75b9] (088+132/220) Accurately ripped
Offsetted by 6:
01 [4fa06a12] (000/218) No match (V2 was not tested)
02 [d9601c30] (000/220) No match (V2 was not tested)
03 [daafaf03] (000/220) No match (V2 was not tested)
04 [3d08ea63] (000/220) No match (V2 was not tested)
05 [19254958] (000/220) No match (V2 was not tested)
06 [55f6adb9] (000/221) No match (V2 was not tested)
07 [be81b455] (000/222) No match (V2 was not tested)
08 [7a5cff9c] (000/220) No match (V2 was not tested)
09 [7e18a4aa] (000/221) No match (V2 was not tested)
10 [fd40faa6] (000/219) No match (V2 was not tested)
11 [45570f3a] (000/222) No match (V2 was not tested)
12 [df354be5] (000/220) No match (V2 was not tested)

Track Peak [ CRC32 ] [W/O NULL] [ LOG ]
– 100,0 [31E6BC23] [170D24F6]
01 96,5 [84EB09F4] [A481FC2B] W/O NULL
02 100,0 [8603C4E1] [CBAD78B1] W/O NULL
03 95,7 [7B1E835A] [CE333267] W/O NULL
04 96,3 [2E2B6392] [7578B9AC] W/O NULL
05 97,2 [4B32D169] [D6FA41EA] W/O NULL
06 93,6 [BA5D4392] [4371356C] W/O NULL
07 95,7 [398A81EA] [71E8C455] W/O NULL
08 96,8 [D5021E39] [2971A8E8] W/O NULL
09 94,3 [C02C64B7] [0B1C40B4] W/O NULL
10 96,7 [BB8C65E6] [D1B69FD2] W/O NULL
11 96,9 [E5FF2EB4] [3DA808D3] W/O NULL
12 98,8 [B3C5A239] [798A6C72] W/O NULL


R.E.M. - Murmur (1983) [2CD, Deluxe Edition]

Tracklist CD2 - Live at Larry's Hideaway (Toronto 9 Juli 1983):

00 Murmur Radio Promo 1:25 (Hidden Track in the Pre-Gap of Track 01)
01 Laughing 3:51
02 Pilgrimage 4:08
03 There She Goes Again 2:43
04 7 Chinese Bros. 4:15
05 Talk About The Passion 3:01
06 Sitting Still 4:10
07 Harborcoat 3:44
08 Catapult 3:52
09 Gardening At Night 3:33
10 9-9 3:15
11 Just A Touch 2:27
12 West Of The Fields 3:06
13 Radio Free Europe 4:57
14 We Walk 2:55
15 1,000,000 3:04
16 Carnival Of Sorts (Box Cars) 3:58

Exact Audio Copy V0.99 prebeta 4 from 23. January 2008

EAC extraction logfile from 20. June 2009, 20:01

R.E.M. / Murmur (Deluxe Edition) CD2

Used drive : SONY DVD-ROM DDU1612 Adapter: 0 ID: 1

Read mode : Secure
Utilize accurate stream : Yes
Defeat audio cache : Yes
Make use of C2 pointers : No

Read offset correction : 12
Overread into Lead-In and Lead-Out : No
Fill up missing offset samples with silence : Yes
Delete leading and trailing silent blocks : No
Null samples used in CRC calculations : No
Used interface : Installed external ASPI interface
Gap handling : Appended to previous track

Used output format : User Defined Encoder
Selected bitrate : 768 kBit/s
Quality : High
Add ID3 tag : No
Command line compressor : C:\Programme\Exact Audio Copy\FLAC\FLAC.EXE
Additional command line options : -8 -V -T "artist=%a" -T "title=%t" -T "album=%g" -T "date=%y" -T "tracknumber=%n" -T "genre=%m" %s


TOC of the extracted CD

Track | Start | Length | Start sector | End sector
––––––––––––––––––––––––––––-
1 | 1:25.30 | 3:51.70 | 6405 | 23799
2 | 5:17.25 | 4:08.34 | 23800 | 42433
3 | 9:25.59 | 2:43.64 | 42434 | 54722
4 | 12:09.48 | 4:15.34 | 54723 | 73881
5 | 16:25.07 | 3:01.57 | 73882 | 87513
6 | 19:26.64 | 4:10.18 | 87514 | 106281
7 | 23:37.07 | 3:44.15 | 106282 | 123096
8 | 27:21.22 | 3:52.59 | 123097 | 140555
9 | 31:14.06 | 3:33.27 | 140556 | 156557
10 | 34:47.33 | 3:15.59 | 156558 | 171241
11 | 38:03.17 | 2:27.00 | 171242 | 182266
12 | 40:30.17 | 3:06.09 | 182267 | 196225
13 | 43:36.26 | 4:57.23 | 196226 | 218523
14 | 48:33.49 | 2:55.50 | 218524 | 231698
15 | 51:29.24 | 3:04.53 | 231699 | 245551
16 | 54:34.02 | 3:58.31 | 245552 | 263432


Track 1

Filename C:\R.E.M. - Murmur (Deluxe Edition)\CD2 - Live at Larry's Hideaway\01 Laughing.wav

Pre-gap length 0:01:27.30

Peak level 99.3 %
Track quality 100.0 %
Test CRC D722AD5F
Copy CRC D722AD5F
Copy OK

Track 2

Filename C:\R.E.M. - Murmur (Deluxe Edition)\CD2 - Live at Larry's Hideaway\02 Pilgrimage.wav

Peak level 99.8 %
Track quality 100.0 %
Test CRC 96BB218C
Copy CRC 96BB218C
Copy OK

Track 3

Filename C:\R.E.M. - Murmur (Deluxe Edition)\CD2 - Live at Larry's Hideaway\03 There She Goes Again.wav

Peak level 99.8 %
Track quality 100.0 %
Test CRC B8B0B6AC
Copy CRC B8B0B6AC
Copy OK

Track 4

Filename C:\R.E.M. - Murmur (Deluxe Edition)\CD2 - Live at Larry's Hideaway\04 7 Chinese Bros..wav

Peak level 99.8 %
Track quality 100.0 %
Test CRC DDE9F0A8
Copy CRC DDE9F0A8
Copy OK

Track 5

Filename C:\R.E.M. - Murmur (Deluxe Edition)\CD2 - Live at Larry's Hideaway\05 Talk About The Passion.wav

Peak level 99.6 %
Track quality 100.0 %
Test CRC F469985A
Copy CRC F469985A
Copy OK

Track 6

Filename C:\R.E.M. - Murmur (Deluxe Edition)\CD2 - Live at Larry's Hideaway\06 Sitting Still.wav

Peak level 99.8 %
Track quality 100.0 %
Test CRC C2513D32
Copy CRC C2513D32
Copy OK

Track 7

Filename C:\R.E.M. - Murmur (Deluxe Edition)\CD2 - Live at Larry's Hideaway\07 Harborcoat.wav

Pre-gap length 0:00:52.11

Peak level 99.8 %
Track quality 100.0 %
Test CRC 1F6E70C0
Copy CRC 1F6E70C0
Copy OK

Track 8

Filename C:\R.E.M. - Murmur (Deluxe Edition)\CD2 - Live at Larry's Hideaway\08 Catapult.wav

Peak level 99.8 %
Track quality 99.9 %
Test CRC BF095040
Copy CRC BF095040
Copy OK

Track 9

Filename C:\R.E.M. - Murmur (Deluxe Edition)\CD2 - Live at Larry's Hideaway\09 Gardening At Night.wav

Peak level 99.8 %
Track quality 100.0 %
Test CRC 949B8F57
Copy CRC 949B8F57
Copy OK

Track 10

Filename C:\R.E.M. - Murmur (Deluxe Edition)\CD2 - Live at Larry's Hideaway\10 9-9.wav

Peak level 99.8 %
Track quality 100.0 %
Test CRC 5FA40C83
Copy CRC 5FA40C83
Copy OK

Track 11

Filename C:\R.E.M. - Murmur (Deluxe Edition)\CD2 - Live at Larry's Hideaway\11 Just A Touch.wav

Peak level 99.5 %
Track quality 100.0 %
Test CRC 4364136B
Copy CRC 4364136B
Copy OK

Track 12

Filename C:\R.E.M. - Murmur (Deluxe Edition)\CD2 - Live at Larry's Hideaway\12 West Of The Fields.wav

Peak level 99.8 %
Track quality 100.0 %
Test CRC 362DDBE8
Copy CRC 362DDBE8
Copy OK

Track 13

Filename C:\R.E.M. - Murmur (Deluxe Edition)\CD2 - Live at Larry's Hideaway\13 Radio Free Europe.wav

Peak level 99.8 %
Track quality 100.0 %
Test CRC 52B099D2
Copy CRC 52B099D2
Copy OK

Track 14

Filename C:\R.E.M. - Murmur (Deluxe Edition)\CD2 - Live at Larry's Hideaway\14 We Walk.wav

Pre-gap length 0:01:11.14

Peak level 97.1 %
Track quality 99.9 %
Test CRC B1F9AA8C
Copy CRC B1F9AA8C
Copy OK

Track 15

Filename C:\R.E.M. - Murmur (Deluxe Edition)\CD2 - Live at Larry's Hideaway\15 1,000,000.wav

Peak level 99.8 %
Track quality 100.0 %
Test CRC FC00CB6B
Copy CRC FC00CB6B
Copy OK

Track 16

Filename C:\R.E.M. - Murmur (Deluxe Edition)\CD2 - Live at Larry's Hideaway\16 Carnival Of Sorts (Box Cars).wav

Peak level 99.8 %
Track quality 99.9 %
Test CRC D315C1B2
Copy CRC D315C1B2
Copy OK

No errors occurred

End of status report

––––––––––––––––––––––––––––––

Exact Audio Copy V0.99 prebeta 4 from 23. January 2008

EAC extraction logfile from 20. June 2009, 20:10

R.E.M. / Murmur (Deluxe Edition) CD2

Used drive : SONY DVD-ROM DDU1612 Adapter: 0 ID: 1

Read mode : Secure
Utilize accurate stream : Yes
Defeat audio cache : Yes
Make use of C2 pointers : No

Read offset correction : 12
Overread into Lead-In and Lead-Out : No
Fill up missing offset samples with silence : Yes
Delete leading and trailing silent blocks : No
Null samples used in CRC calculations : No
Used interface : Installed external ASPI interface
Gap handling : Appended to next track

Used output format : Internal WAV Routines
Sample format : 44.100 Hz; 16 Bit; Stereo


TOC of the extracted CD

Track | Start | Length | Start sector | End sector
––––––––––––––––––––––––––––-
1 | 1:25.30 | 3:51.70 | 6405 | 23799
2 | 5:17.25 | 4:08.34 | 23800 | 42433
3 | 9:25.59 | 2:43.64 | 42434 | 54722
4 | 12:09.48 | 4:15.34 | 54723 | 73881
5 | 16:25.07 | 3:01.57 | 73882 | 87513
6 | 19:26.64 | 4:10.18 | 87514 | 106281
7 | 23:37.07 | 3:44.15 | 106282 | 123096
8 | 27:21.22 | 3:52.59 | 123097 | 140555
9 | 31:14.06 | 3:33.27 | 140556 | 156557
10 | 34:47.33 | 3:15.59 | 156558 | 171241
11 | 38:03.17 | 2:27.00 | 171242 | 182266
12 | 40:30.17 | 3:06.09 | 182267 | 196225
13 | 43:36.26 | 4:57.23 | 196226 | 218523
14 | 48:33.49 | 2:55.50 | 218524 | 231698
15 | 51:29.24 | 3:04.53 | 231699 | 245551
16 | 54:34.02 | 3:58.31 | 245552 | 263432


Track 1

Filename C:\R.E.M. - Murmur (Deluxe Edition)\CD2 - Live at Larry's Hideaway\01 Laughing.wav

Pre-gap length 0:01:27.30

Peak level 99.3 %
Track quality 100.0 %
Test CRC CF7F81AE
Copy CRC CF7F81AE
Copy OK

No errors occurred

End of status report


[CUETools log; Date: 23.11.2018 21:05:50; Version: 2.1.4]
Pregap length 01:25:30.
CDDBId mismatch: 050D6310 vs EF0DAD11
Padded some input files to a frame boundary.
[AccurateRip ID: 00250284-01d466fe-ef0dad11] disk not present in database.

Track Peak [ CRC32 ] [W/O NULL] [ LOG ]
– 99,8 [DCB4CC09] [5DA3BF5C]
01 89,9 [91939B41] [CC05286B] [D722AD5F]: W/O NULL for track 2
02 99,3 [A6652DFB] [D722AD5F] [96BB218C]: W/O NULL for track 3
03 99,8 [C0895EE3] [96BB218C] [B8B0B6AC]: W/O NULL for track 4
04 99,8 [322148D7] [B8B0B6AC] [DDE9F0A8]: W/O NULL for track 5
05 99,8 [01299096] [DDE9F0A8] [F469985A]: W/O NULL for track 6
06 99,6 [888DF5CF] [F469985A] [C2513D32]: W/O NULL for track 7
07 99,8 [ACE4C533] [C2513D32] [1F6E70C0]: W/O NULL for track 8
08 99,8 [011D8A96] [1F6E70C0] [BF095040]: W/O NULL for track 9
09 99,8 [6CF87F5E] [BF095040] [949B8F57]: W/O NULL for track 10
10 99,8 [89983A3C] [949B8F57] [5FA40C83]: W/O NULL for track 11
11 99,8 [C6DC5C1A] [5FA40C83] [4364136B]: W/O NULL for track 12
12 99,5 [8E40F2A0] [4364136B] [362DDBE8]: W/O NULL for track 13
13 99,8 [78FB1C90] [362DDBE8] [52B099D2]: W/O NULL for track 14
14 99,8 [FD4B4F10] [52B099D2] [B1F9AA8C]: W/O NULL for track 15
15 97,1 [8C293D94] [B1F9AA8C] [FC00CB6B]: W/O NULL for track 16
16 99,8 [3C76D03A] [FC00CB6B] [D315C1B2]: W/O NULL for track 17
17 99,8 [A1C0516D] [D315C1B2] [CF7F81AE]


R.E.M. - Murmur (1983) [2CD, Deluxe Edition]

All thanks go to the original releaser

R.E.M. or R.E.M. in my Blog

Download R.E.M. - Murmur (1983):