Subcategories
Tags
Language
Tags

Ramin Djawadi - Westworld: Season 2 (Music from the HBO® Series) (2018)

Posted By: Aregak
Ramin Djawadi - Westworld: Season 2 (Music from the HBO® Series) (2018)

Ramin Djawadi - Westworld: Season 2 (Music from the HBO® Series) (2018)
EAC Rip | FLAC, TRACKS+CUE, LOG, Scans | 01:39:30 | 559.54 MB
Score | WaterTower Music / 19075881442

A multi-talented producer of music for films, television, and video games, Iranian-German composer Ramin Djawadi honed his considerable talents alongside contemporaries like Klaus Badelt, John Debney, Harry Gregson-Williams, and Steve Jablonsky while working for veteran composer Hans Zimmer's Remote Control Productions film score company. He worked as an assistant to Badelt before venturing out on his own with the RZA-assisted score for director David Goyer's Blade: Trinity (2004). He continued to work with Goyer, providing music for both film (The Unborn) and television (FlashForward), earning an Emmy nomination for the latter. In 2008 Djawadi, a longtime fan of the Marvel characters, provided the guitar-heavy score for director Jon Favreau's big-screen rendering of Iron Man, and in 2011, he provided the memorable (and oft-covered) theme and incidental music for HBO's massively popular fantasy series Game of Thrones. Subsequent film scores have included Clash of the Titans, Red Dawn, Pacific Rim, Warcraft, and The Great Wall, while his work in television expanded to vampire horror show The Strain, sci-fi techno thriller Person of Interest, and HBO's sci-fi/western hybrid Westworld. ~ James Christopher Monger
Track List:
Track list - CD 1:
01. Main Title Theme - Westworld [0:01:41.36]
02. Journey Into Night [0:05:29.69]
03. Runaway [0:02:48.30] Written by Emile Haynie, Jeff Bhasker, John Roger Branch, Kanye West, Malik Yusef El Shabaz Jones, Mike Dean, Pete Rock & Terrence Thornton
04. Myself [0:04:02.61]
05. The Entertainer [0:01:06.37] Written by Scott Joplin
06. Is This Now? [0:04:23.73]
07. Seven Nation Army [0:02:12.51] Written by Jack White
08. The Raj [0:02:47.59]
09. Les Éscorchés [0:04:12.33]
10. Heart-Shaped Box (Orchestral) [0:03:24.47] Written by Kurt Cobain
11. Akane no Mai [0:03:33.66]
12. Paint It, Black [0:05:42.37] Written by Keith Richards & Mick Jagger
13. C.R.E.A.M. [0:01:46.14] Written by Clifford Smith, Corey Woods, David Porter, Dennis David Coles, Gary E. Grice, Isaac Hayes, Jason S. Hunter, Lamont Hawkins, Robert F. Diggs & Russell T. Jones
14. Virtù e Fortuna [0:02:18.32]
15. A New Voice [0:03:29.49]

Track list - CD 2:
01. Kiksuya [0:03:23.74]
02. I Remember You [0:05:23.00]
03. Heart-Shaped Box (Piano) [0:01:57.02] Written by Kurt Cobain
04. Take My Heart When You Go [0:04:10.19]
05. Virus [0:02:52.19]
06. My Favorite [0:03:35.41]
07. Vanishing Point [0:03:01.59]
08. My Speech [0:01:17.38]
09. A Passage to Another World [0:04:14.11]
10. I Promise [0:04:34.27]
11. Core Drive [0:03:53.13]
12. Westworld [0:05:21.41]
13. Codex [0:03:34.14] Written by Colin Charles Greenwood, Edward John O'Brien, Jonathan Greenwood, Philip James Selway & Thomas Edward Yorke
14. We'll Meet Again [0:03:10.44]

Total duration: 00:49:00 + 00:50:30 = 01:39:30


Exact Audio Copy V1.3 from 2. September 2016

EAC extraction logfile from 27. August 2018, 12:10

Ramin Djawadi / Westworld - Season 2

Used drive : PLEXTOR CD-R PX-230A Adapter: 1 ID: 0

Read mode : Secure
Utilize accurate stream : Yes
Defeat audio cache : Yes
Make use of C2 pointers : No

Read offset correction : 738
Overread into Lead-In and Lead-Out : No
Fill up missing offset samples with silence : Yes
Delete leading and trailing silent blocks : No
Null samples used in CRC calculations : Yes
Used interface : Native Win32 interface for Win NT & 2000
Gap handling : Appended to previous track

Used output format : User Defined Encoder
Selected bitrate : 1024 kBit/s
Quality : High
Add ID3 tag : No
Command line compressor : C:\Program Files\Exact Audio Copy\Flac\flac.exe
Additional command line options : -6 -V -T "ARTIST=%artist%" -T "TITLE=%title%" -T "ALBUM=%albumtitle%" -T "DATE=%year%" -T "TRACKNUMBER=%tracknr%" -T "GENRE=%genre%" -T "COMMENT=%comment%" -T "ALBUMARTIST=%albuminterpret%" -T "COMPOSER=%composer%" -T "DISCNUMBER=%cdnumber%" -T "TOTALDISCS=%totalcds%" -T "TOTALTRACKS=%numtracks%" %source% -o %dest%


TOC of the extracted CD

Track | Start | Length | Start sector | End sector
––––––––––––––––––––––––––––-
1 | 0:00.00 | 1:41.36 | 0 | 7610
2 | 1:41.36 | 5:29.69 | 7611 | 32354
3 | 7:11.30 | 2:48.30 | 32355 | 44984
4 | 9:59.60 | 4:02.61 | 44985 | 63195
5 | 14:02.46 | 1:06.37 | 63196 | 68182
6 | 15:09.08 | 4:23.73 | 68183 | 87980
7 | 19:33.06 | 2:12.51 | 87981 | 97931
8 | 21:45.57 | 2:47.59 | 97932 | 110515
9 | 24:33.41 | 4:12.33 | 110516 | 129448
10 | 28:45.74 | 3:24.47 | 129449 | 144795
11 | 32:10.46 | 3:33.66 | 144796 | 160836
12 | 35:44.37 | 5:42.37 | 160837 | 186523
13 | 41:26.74 | 1:46.14 | 186524 | 194487
14 | 43:13.13 | 2:18.32 | 194488 | 204869
15 | 45:31.45 | 3:29.49 | 204870 | 220593


Track 1

Filename C:\Ripped by Filex\01 - Main Title Theme - Westworld.wav

Pre-gap length 0:00:02.00

Peak level 97.7 %
Extraction speed 5.7 X
Track quality 100.0 %
Test CRC A161C2B4
Copy CRC A161C2B4
Track not present in AccurateRip database
Copy OK

Track 2

Filename C:\Ripped by Filex\02 - Journey Into Night.wav

Peak level 100.0 %
Extraction speed 7.2 X
Track quality 100.0 %
Test CRC 5F3B7D54
Copy CRC 5F3B7D54
Track not present in AccurateRip database
Copy OK

Track 3

Filename C:\Ripped by Filex\03 - Runaway.wav

Peak level 97.7 %
Extraction speed 6.7 X
Track quality 100.0 %
Test CRC 398243BA
Copy CRC 398243BA
Track not present in AccurateRip database
Copy OK

Track 4

Filename C:\Ripped by Filex\04 - Myself.wav

Peak level 97.7 %
Extraction speed 7.4 X
Track quality 100.0 %
Test CRC CB8CC353
Copy CRC CB8CC353
Track not present in AccurateRip database
Copy OK

Track 5

Filename C:\Ripped by Filex\05 - The Entertainer.wav

Peak level 97.7 %
Extraction speed 6.2 X
Track quality 100.0 %
Test CRC CBE783EC
Copy CRC CBE783EC
Track not present in AccurateRip database
Copy OK

Track 6

Filename C:\Ripped by Filex\06 - Is This Now.wav

Peak level 100.0 %
Extraction speed 7.9 X
Track quality 100.0 %
Test CRC 30BA5E99
Copy CRC 30BA5E99
Track not present in AccurateRip database
Copy OK

Track 7

Filename C:\Ripped by Filex\07 - Seven Nation Army.wav

Peak level 97.7 %
Extraction speed 7.6 X
Track quality 100.0 %
Test CRC 4704B233
Copy CRC 4704B233
Track not present in AccurateRip database
Copy OK

Track 8

Filename C:\Ripped by Filex\08 - The Raj.wav

Peak level 100.0 %
Extraction speed 8.2 X
Track quality 100.0 %
Test CRC 8E84408E
Copy CRC 8E84408E
Track not present in AccurateRip database
Copy OK

Track 9

Filename C:\Ripped by Filex\09 - Les Éscorchés.wav

Peak level 100.0 %
Extraction speed 8.6 X
Track quality 100.0 %
Test CRC 3391625C
Copy CRC 3391625C
Track not present in AccurateRip database
Copy OK

Track 10

Filename C:\Ripped by Filex\10 - Heart-Shaped Box (Orchestral).wav

Peak level 100.0 %
Extraction speed 8.4 X
Track quality 100.0 %
Test CRC B10DFDD4
Copy CRC B10DFDD4
Track not present in AccurateRip database
Copy OK

Track 11

Filename C:\Ripped by Filex\11 - Akane no Mai.wav

Peak level 91.4 %
Extraction speed 8.8 X
Track quality 100.0 %
Test CRC 60349A16
Copy CRC 60349A16
Track not present in AccurateRip database
Copy OK

Track 12

Filename C:\Ripped by Filex\12 - Paint It, Black.wav

Peak level 98.8 %
Extraction speed 9.5 X
Track quality 100.0 %
Test CRC C6BF1FF6
Copy CRC C6BF1FF6
Track not present in AccurateRip database
Copy OK

Track 13

Filename C:\Ripped by Filex\13 - C.R.E.A.M..wav

Peak level 98.2 %
Extraction speed 8.5 X
Track quality 100.0 %
Test CRC 000C3B35
Copy CRC 000C3B35
Track not present in AccurateRip database
Copy OK

Track 14

Filename C:\Ripped by Filex\14 - Virtù e Fortuna.wav

Peak level 100.0 %
Extraction speed 7.2 X
Track quality 99.9 %
Test CRC 70246A3E
Copy CRC 70246A3E
Track not present in AccurateRip database
Copy OK

Track 15

Filename C:\Ripped by Filex\15 - A New Voice.wav

Peak level 97.7 %
Extraction speed 9.2 X
Track quality 100.0 %
Test CRC B9800B1A
Copy CRC B9800B1A
Track not present in AccurateRip database
Copy OK


None of the tracks are present in the AccurateRip database

No errors occurred

End of status report

–– CUETools DB Plugin V2.1.6

[CTDB TOCID: JiJFOlJS4fOelCXfUqLlfTYcDUY-] found
Submit result: JiJFOlJS4fOelCXfUqLlfTYcDUY- has been confirmed
Track | CTDB Status
1 | (15/15) Accurately ripped
2 | (15/15) Accurately ripped
3 | (15/15) Accurately ripped
4 | (15/15) Accurately ripped
5 | (15/15) Accurately ripped
6 | (15/15) Accurately ripped
7 | (15/15) Accurately ripped
8 | (15/15) Accurately ripped
9 | (15/15) Accurately ripped
10 | (15/15) Accurately ripped
11 | (15/15) Accurately ripped
12 | (15/15) Accurately ripped
13 | (15/15) Accurately ripped
14 | (15/15) Accurately ripped
15 | (15/15) Accurately ripped


==== Log checksum 1840C6BE17F681673C7F69B5D1076148E355C08EB37DBD0DF5D64457E97A6B09 ====


Exact Audio Copy V1.3 from 2. September 2016

EAC extraction logfile from 27. August 2018, 12:38

Ramin Djawadi / Westworld - Season 2 (CD 2)

Used drive : PLEXTOR CD-R PX-230A Adapter: 1 ID: 0

Read mode : Secure
Utilize accurate stream : Yes
Defeat audio cache : Yes
Make use of C2 pointers : No

Read offset correction : 738
Overread into Lead-In and Lead-Out : No
Fill up missing offset samples with silence : Yes
Delete leading and trailing silent blocks : No
Null samples used in CRC calculations : Yes
Used interface : Native Win32 interface for Win NT & 2000
Gap handling : Appended to previous track

Used output format : User Defined Encoder
Selected bitrate : 1024 kBit/s
Quality : High
Add ID3 tag : No
Command line compressor : C:\Program Files\Exact Audio Copy\Flac\flac.exe
Additional command line options : -6 -V -T "ARTIST=%artist%" -T "TITLE=%title%" -T "ALBUM=%albumtitle%" -T "DATE=%year%" -T "TRACKNUMBER=%tracknr%" -T "GENRE=%genre%" -T "COMMENT=%comment%" -T "ALBUMARTIST=%albuminterpret%" -T "COMPOSER=%composer%" -T "DISCNUMBER=%cdnumber%" -T "TOTALDISCS=%totalcds%" -T "TOTALTRACKS=%numtracks%" %source% -o %dest%


TOC of the extracted CD

Track | Start | Length | Start sector | End sector
––––––––––––––––––––––––––––-
1 | 0:00.00 | 3:23.74 | 0 | 15298
2 | 3:23.74 | 5:23.00 | 15299 | 39523
3 | 8:46.74 | 1:57.02 | 39524 | 48300
4 | 10:44.01 | 4:10.19 | 48301 | 67069
5 | 14:54.20 | 2:52.19 | 67070 | 79988
6 | 17:46.39 | 3:35.41 | 79989 | 96154
7 | 21:22.05 | 3:01.59 | 96155 | 109788
8 | 24:23.64 | 1:17.38 | 109789 | 115601
9 | 25:41.27 | 4:14.11 | 115602 | 134662
10 | 29:55.38 | 4:34.27 | 134663 | 155239
11 | 34:29.65 | 3:53.13 | 155240 | 172727
12 | 38:23.03 | 5:21.41 | 172728 | 196843
13 | 43:44.44 | 3:34.14 | 196844 | 212907
14 | 47:18.58 | 3:10.44 | 212908 | 227201


Track 1

Filename C:\Ripped by Filex\01 - Kiksuya.wav

Pre-gap length 0:00:02.00

Peak level 77.5 %
Extraction speed 4.7 X
Track quality 100.0 %
Test CRC 8470481A
Copy CRC 8470481A
Track not present in AccurateRip database
Copy OK

Track 2

Filename C:\Ripped by Filex\02 - I Remember You.wav

Peak level 100.0 %
Extraction speed 5.0 X
Track quality 99.9 %
Test CRC EE6396D1
Copy CRC EE6396D1
Track not present in AccurateRip database
Copy OK

Track 3

Filename C:\Ripped by Filex\03 - Heart-Shaped Box (Piano).wav

Peak level 66.1 %
Extraction speed 3.5 X
Track quality 100.0 %
Test CRC 9FF8D044
Copy CRC 9FF8D044
Track not present in AccurateRip database
Copy OK

Track 4

Filename C:\Ripped by Filex\04 - Take My Heart When You Go.wav

Peak level 100.0 %
Extraction speed 5.0 X
Track quality 100.0 %
Test CRC 90C9F72D
Copy CRC 90C9F72D
Track not present in AccurateRip database
Copy OK

Track 5

Filename C:\Ripped by Filex\05 - Virus.wav

Peak level 100.0 %
Extraction speed 5.0 X
Track quality 100.0 %
Test CRC 9B21209F
Copy CRC 9B21209F
Track not present in AccurateRip database
Copy OK

Track 6

Filename C:\Ripped by Filex\06 - My Favorite.wav

Peak level 97.7 %
Extraction speed 5.2 X
Track quality 100.0 %
Test CRC BE5AF540
Copy CRC BE5AF540
Track not present in AccurateRip database
Copy OK

Track 7

Filename C:\Ripped by Filex\07 - Vanishing Point.wav

Peak level 100.0 %
Extraction speed 5.1 X
Track quality 100.0 %
Test CRC 9E0DE5B8
Copy CRC 9E0DE5B8
Track not present in AccurateRip database
Copy OK

Track 8

Filename C:\Ripped by Filex\08 - My Speech.wav

Peak level 97.7 %
Extraction speed 4.1 X
Track quality 100.0 %
Test CRC 52CF90A5
Copy CRC 52CF90A5
Track not present in AccurateRip database
Copy OK

Track 9

Filename C:\Ripped by Filex\09 - A Passage to Another World.wav

Peak level 98.8 %
Extraction speed 5.3 X
Track quality 100.0 %
Test CRC EB00FDA7
Copy CRC EB00FDA7
Track not present in AccurateRip database
Copy OK

Track 10

Filename C:\Ripped by Filex\10 - I Promise.wav

Peak level 98.3 %
Extraction speed 4.8 X
Track quality 100.0 %
Test CRC B12F041A
Copy CRC B12F041A
Track not present in AccurateRip database
Copy OK

Track 11

Filename C:\Ripped by Filex\11 - Core Drive.wav

Peak level 100.0 %
Extraction speed 5.0 X
Track quality 100.0 %
Test CRC A98E0F5C
Copy CRC A98E0F5C
Track not present in AccurateRip database
Copy OK

Track 12

Filename C:\Ripped by Filex\12 - Westworld.wav

Peak level 100.0 %
Extraction speed 5.4 X
Track quality 100.0 %
Test CRC 5BA3295D
Copy CRC 5BA3295D
Track not present in AccurateRip database
Copy OK

Track 13

Filename C:\Ripped by Filex\13 - Codex.wav

Peak level 97.7 %
Extraction speed 4.6 X
Track quality 100.0 %
Test CRC 348E74CD
Copy CRC 348E74CD
Track not present in AccurateRip database
Copy OK

Track 14

Filename C:\Ripped by Filex\14 - We'll Meet Again.wav

Peak level 97.7 %
Extraction speed 4.1 X
Track quality 99.9 %
Test CRC 5815FE04
Copy CRC 5815FE04
Track not present in AccurateRip database
Copy OK


None of the tracks are present in the AccurateRip database

No errors occurred

End of status report

–– CUETools DB Plugin V2.1.6

[CTDB TOCID: N1rW8NR5ZpVbK__Vks_KKs9Xy1I-] found
Submit result: N1rW8NR5ZpVbK__Vks_KKs9Xy1I- has been confirmed
Track | CTDB Status
1 | (15/15) Accurately ripped
2 | (15/15) Accurately ripped
3 | (15/15) Accurately ripped
4 | (15/15) Accurately ripped
5 | (15/15) Accurately ripped
6 | (15/15) Accurately ripped
7 | (15/15) Accurately ripped
8 | (15/15) Accurately ripped
9 | (15/15) Accurately ripped
10 | (15/15) Accurately ripped
11 | (15/15) Accurately ripped
12 | (15/15) Accurately ripped
13 | (15/15) Accurately ripped
14 | (15/15) Accurately ripped


==== Log checksum F8938E06E924E815A45C2402D1D692C8548558185B91B4163DA808388614186F ====