Tags
Language
Tags
June 2024
Su Mo Tu We Th Fr Sa
26 27 28 29 30 31 1
2 3 4 5 6 7 8
9 10 11 12 13 14 15
16 17 18 19 20 21 22
23 24 25 26 27 28 29
30 1 2 3 4 5 6

RSO Berlin, Riccardo Chailly - Mahler: Symphony No. 10 (2000)

Posted By: tirexiss
RSO Berlin, Riccardo Chailly - Mahler: Symphony No. 10 (2000)

RSO Berlin, Riccardo Chailly - Mahler: Symphony No. 10 (2000)
EAC | FLAC (image+.cue, log) | Covers Included | 01:18:45 | 359 MB
Genre: Classical | Label: Decca | Catalog: 466955

As we all know, Gustav Mahler didn't actually compose a 10th symphony, or if he did, it was "Das Lied von der Erde," which he didn't call his 10th symphony because he was superstitious enough to believe that since Beethoven died before he could write a 10th, so might Mahler. He turned out to be right. Of a "10th" symphony, he wrote only the first movement more or less completely; the second is half done; the third is mostly unorchestrated; and the last two are well structured but remain almost entirely unorchestrated. In 1959, musicologist Deryck Cooke put together what he called "a performing version of the draft for the 10th Symphony," and it has been played (and recorded) occasionally in that form and is deemed quite a success–a sort of "next best thing." Much of it is remarkable, top-drawer Mahler, with all the potency, sadness (he was grieving over his wife's infidelity while he was composing the last three movements), and even playfulness (the second movement) he was capable of. Riccardo Chailly leads a beautiful reading in this re-release of a 1988 recording, and it is recommended. For another take, with an alteration or two, an early Simon Rattle recording is worth hearing. But Mahlerites will need a 10th, even if it was cursed. – Robert Levine

RSO Berlin, Riccardo Chailly - Mahler: Symphony No. 10 (2000)

Track List:

01. Symphony No. 10 in F sharp major (realization by Deryck Cooke)- 1. Adagio [0:25:52.50]
02. Symphony No. 10 in F sharp major (realization by Deryck Cooke)- 2. Scherzo 1 [0:11:53.25]
03. Symphony No. 10 in F sharp major (realization by Deryck Cooke)- 3. Purgatorio [0:04:21.65]
04. Symphony No. 10 in F sharp major (realization by Deryck Cooke)- 4. Scherzo 2 [0:11:28.38]
05. Symphony No. 10 in F sharp major (realization by Deryck Cooke)- 5. Finale [0:25:08.15]

Performers:
Radio-Symphonie-Orchester Berlin
Riccardo Chailly - conductor

Exact Audio Copy V1.0 beta 3 from 29. August 2011

EAC extraction logfile from 11. February 2014, 16:45

Riccardo Chailly / Mahler - Symphony No.10 - Chailly

Used drive : TSSTcorpCDDVDW SH-222BB Adapter: 2 ID: 1

Read mode : Secure
Utilize accurate stream : Yes
Defeat audio cache : Yes
Make use of C2 pointers : No

Read offset correction : 6
Overread into Lead-In and Lead-Out : No
Fill up missing offset samples with silence : Yes
Delete leading and trailing silent blocks : No
Null samples used in CRC calculations : Yes
Used interface : Native Win32 interface for Win NT & 2000

Used output format : User Defined Encoder
Selected bitrate : 1024 kBit/s
Quality : High
Add ID3 tag : No
Command line compressor : C:\Program Files\Exact Audio Copy\Flac\flac.exe
Additional command line options : -8 -V -T "TITLE=%title%" -T "ARTIST=%artist%" -T "ALBUMARTIST=%albumartist%" -T "ALBUM=%albumtitle%" -T "DATE=%year%" -T "TRACKNUMBER=%tracknr%" -T "TRACKTOTAL=%numtracks%" -T "GENRE=%genre%" -T "COMMENT=%comment%" -T "PERFORMER=%albuminterpret%" -T "COMPOSER=%composer%" %source% -o %dest%


TOC of the extracted CD

Track | Start | Length | Start sector | End sector
––––––––––––––––––––––––––––-
1 | 0:00.32 | 25:52.50 | 32 | 116481
2 | 25:53.07 | 11:53.25 | 116482 | 169981
3 | 37:46.32 | 4:21.65 | 169982 | 189621
4 | 42:08.22 | 11:28.38 | 189622 | 241259
5 | 53:36.60 | 25:08.15 | 241260 | 354374


Range status and errors

Selected range

Filename E:\3000\[3893] Mahler – Symphony No.10 – Chailly\Mahler - Symphony No.10 - Chailly.wav

Peak level 100.0 %
Extraction speed 2.3 X
Range quality 99.9 %
Test CRC CD936B93
Copy CRC CD936B93
Copy OK

No errors occurred


AccurateRip summary

Track 1 accurately ripped (confidence 2) [CF0FD30F] (AR v2)
Track 2 accurately ripped (confidence 2) [96FEE176] (AR v2)
Track 3 accurately ripped (confidence 2) [11A8016A] (AR v2)
Track 4 accurately ripped (confidence 2) [D0300897] (AR v2)
Track 5 accurately ripped (confidence 2) [E36EF398] (AR v2)

All tracks accurately ripped

End of status report

Thanks to the Original ripper (unknown)!

Welcome to my blog!

Download: