Subcategories

Rage - Wings Of Rage (2020) [Japanese Edition]

Posted By: gribovar
Rage - Wings Of Rage (2020) [Japanese Edition]

Rage - Wings Of Rage (2020) [Japanese Edition]
EAC Rip | FLAC (image+.cue+log) - 417 MB | MP3 CBR 320 kbps (LAME 3.93) - 135 MB | Covers - 75 MB
Genre: Heavy/Power Metal | RAR 3% Rec. | Label: Ward Records (GQCS-90819)

Few metal acts can look back at as comprehensive, multi-faceted and varied a career as Rage. Founded in spring 1984 in Herne in Germany’s Ruhr region, the band surrounding vocalist/bassist Peavy Wagner has integrated a wide range of stylistic nuances into its musical concept. There have been releases which focused primarily on hard thrash sounds, but also recordings featuring anthemnic power metal as well as albums with a - in the true sense of the word - symphonic orientation. Wings Of Rage, the latest offering by the three-piece, consists of all this and much more. Peavy and his colleagues Marcos Rodriguez (guitar) and Vassilios Maniatopoulos (drums) have succeeded in summarising the diversity and experience of almost 36 years of band history in twelve topical songs, starting a new chapter at the same time.
Tracklist:
01. True
02. Let Them Rest In Peace
03. Chasing The Twilight Zone
04. Tomorrow
05. Wings Of Rage
06. Shadow Over Deadland (The Twilight Transition)
07. A Nameless Grave
08. Don't Let Me Down
09. Shine A Light
10. Htts 2.0
11. Blame It On the Truth
12. For Those Who Wish To Die
13. Down By Law (Studio Jam) (Bonus track)

Total time: 57:34

Exact Audio Copy V1.3 from 2. September 2016

EAC extraction logfile from 25. January 2020, 9:44

Rage / Wings Of Rage (GQCS 90819)

Used drive : PIONEER DVD-RW DVR-221 Adapter: 1 ID: 0

Read mode : Secure
Utilize accurate stream : Yes
Defeat audio cache : Yes
Make use of C2 pointers : No

Read offset correction : 6
Overread into Lead-In and Lead-Out : No
Fill up missing offset samples with silence : Yes
Delete leading and trailing silent blocks : No
Null samples used in CRC calculations : Yes
Used interface : Installed external ASPI interface

Used output format : User Defined Encoder
Selected bitrate : 1024 kBit/s
Quality : High
Add ID3 tag : No
Command line compressor : C:\Program Files\Exact Audio Copy\FLAC\FLAC.EXE
Additional command line options : -V -8 -T "Date=%year%" -T "Genre=%genre%" -T "COMMENT=Ripped by Hellwings71" -8 -V %source%


TOC of the extracted CD

Track | Start | Length | Start sector | End sector
––––––––––––––––––––––––––––-
1 | 0:00.00 | 5:01.50 | 0 | 22624
2 | 5:01.50 | 4:30.49 | 22625 | 42923
3 | 9:32.24 | 4:30.03 | 42924 | 63176
4 | 14:02.27 | 5:02.29 | 63177 | 85855
5 | 19:04.56 | 4:30.61 | 85856 | 106166
6 | 23:35.42 | 0:35.41 | 106167 | 108832
7 | 24:11.08 | 5:59.16 | 108833 | 135773
8 | 30:10.24 | 4:56.41 | 135774 | 158014
9 | 35:06.65 | 6:43.38 | 158015 | 188277
10 | 41:50.28 | 3:30.03 | 188278 | 204030
11 | 45:20.31 | 3:54.29 | 204031 | 221609
12 | 49:14.60 | 5:28.19 | 221610 | 246228
13 | 54:43.04 | 2:51.26 | 246229 | 259079


Range status and errors

Selected range

Filename D:\Program Files\CD Images\Hellwings71\Rage - Wings Of Rage 2020 (Japanese)\Rage - Wings Of Rage (GQCS 90819).wav

Peak level 100.0 %
Extraction speed 7.4 X
Range quality 100.0 %
Test CRC FA52B9E7
Copy CRC FA52B9E7
Copy OK

No errors occurred


AccurateRip summary

Track 1 not present in database
Track 2 not present in database
Track 3 not present in database
Track 4 not present in database
Track 5 not present in database
Track 6 not present in database
Track 7 not present in database
Track 8 not present in database
Track 9 not present in database
Track 10 not present in database
Track 11 not present in database
Track 12 not present in database
Track 13 not present in database

None of the tracks are present in the AccurateRip database

End of status report

–– CUETools DB Plugin V2.1.6

[CTDB TOCID: 1SyN.jAsImVbK2WbShezkmkBzhM-] found
Submit result: 1SyN.jAsImVbK2WbShezkmkBzhM- has been confirmed
Track | CTDB Status
1 | (5/5) Accurately ripped
2 | (5/5) Accurately ripped
3 | (5/5) Accurately ripped
4 | (5/5) Accurately ripped
5 | (5/5) Accurately ripped
6 | (5/5) Accurately ripped
7 | (5/5) Accurately ripped
8 | (5/5) Accurately ripped
9 | (5/5) Accurately ripped
10 | (5/5) Accurately ripped
11 | (5/5) Accurately ripped
12 | (5/5) Accurately ripped
13 | (5/5) Accurately ripped


==== Log checksum 560068B733B7C3C80E499EBDE31F17E816952DECB7A26D6D642E3474C89E0C5D ====

[CUETools log; Date: 14.02.2020 20:59:18; Version: 2.1.4]
[CTDB TOCID: 1SyN.jAsImVbK2WbShezkmkBzhM-] found.
Track | CTDB Status
1 | (16/16) Accurately ripped
2 | (16/16) Accurately ripped
3 | (16/16) Accurately ripped
4 | (16/16) Accurately ripped
5 | (16/16) Accurately ripped
6 | (16/16) Accurately ripped
7 | (16/16) Accurately ripped
8 | (16/16) Accurately ripped
9 | (16/16) Accurately ripped
10 | (16/16) Accurately ripped
11 | (16/16) Accurately ripped
12 | (16/16) Accurately ripped
13 | (16/16) Accurately ripped
[AccurateRip ID: 001c1da7-01186bed-a40d7e0d] disk not present in database.

Track Peak [ CRC32 ] [W/O NULL] [ LOG ]
– 100,0 [FA52B9E7] [E8CBCF12] CRC32
01 100,0 [39B3D0F8] [B9EECB20]
02 99,9 [F7C44A8D] [1B61C50B]
03 100,0 [2C224769] [E24AC141]
04 99,9 [E494BF6D] [B05AC7E4]
05 100,0 [599C561B] [E2F7D6A2]
06 46,7 [A2471E14] [A54BBF2F]
07 100,0 [3735243B] [6A6FCB68]
08 99,5 [5760FA48] [7778ABF4]
09 100,0 [174F9CB1] [30956382]
10 100,0 [8949EC5A] [54D1819A]
11 99,6 [5E815AC8] [3688A1CE]
12 100,0 [7B63D0A0] [473125C5]
13 99,1 [0F77CF95] [82F689F6]

Thanks to hellwings71