Tags
Language
Tags

Rainbow - Classic Rainbow: The Universal Masters Collection (2001)

Posted By: popsakov
Rainbow - Classic Rainbow: The Universal Masters Collection (2001)

Rainbow - Classic Rainbow: The Universal Masters Collection (2001)
EAC Rip | FLAC (Img) + Cue + Log ~ 605 Mb | MP3 CBR320 ~ 210 Mb
Full Scans | 01:17:28 | RAR 5% Recovery
Hard Rock, Classic Rock | Polydor #589157-2

This compilation is a well-selected collection containing some of Rainbow's most popular songs, including "All Night Long", "Stone Gold", "Catch The Rainbow", "The Man on the Silver Mountain" and more…

***************

Rainbow - Classic Rainbow: The Universal Masters Collection (2001)

Track List:

01. All Night Long [3:54]
02. Catch The Rainbow [6:38]
03. Since You've Been Gone [3:20]
04. I Surrender [4:04]
05. Stone Gold [5:19]
06. Kill The King [4:30]
07. Stargazer [8:29]
08. Starstruck [4:09]
09. Sixteenth Century Greensleeves (Live) [7:35]
10. Man On The Silver Mountain [4:39]
11. Long Live Rock 'n' Roll [4:22]
12. Run With The Wolf [3:43]
13. Lost In Hollywood [4:54]
14. If You Don't Like Rock 'n' Roll [2:38]
15. Miss Mistreated [4:29]
16. Death Alley Driver [4:45]

Exact Audio Copy V1.3 from 2. September 2016

EAC extraction logfile from 24. May 2018, 16:42

Rainbow / Classic Rainbow: The Universal Masters Collection

Used drive : HL-DT-STRW/DVD GCC-4522B Adapter: 1 ID: 1

Read mode : Secure
Utilize accurate stream : Yes
Defeat audio cache : Yes
Make use of C2 pointers : No

Read offset correction : 6
Overread into Lead-In and Lead-Out : No
Fill up missing offset samples with silence : Yes
Delete leading and trailing silent blocks : No
Null samples used in CRC calculations : Yes
Used interface : Native Win32 interface for Win NT & 2000

Used output format : User Defined Encoder
Selected bitrate : 128 kBit/s
Quality : High
Add ID3 tag : No
Command line compressor : C:\Program Files (x86)\Exact Audio Copy\FLAC\FLAC.EXE
Additional command line options : -V -8 -T "Date=%year%" -T "Genre=%genre%" %source%


TOC of the extracted CD

Track | Start | Length | Start sector | End sector
––––––––––––––––––––––––––––-
1 | 0:00.00 | 3:53.51 | 0 | 17525
2 | 3:53.51 | 6:38.36 | 17526 | 47411
3 | 10:32.12 | 3:19.48 | 47412 | 62384
4 | 13:51.60 | 4:04.21 | 62385 | 80705
5 | 17:56.06 | 5:19.26 | 80706 | 104656
6 | 23:15.32 | 4:30.03 | 104657 | 124909
7 | 27:45.35 | 8:28.38 | 124910 | 163047
8 | 36:13.73 | 4:08.62 | 163048 | 181709
9 | 40:22.60 | 7:35.09 | 181710 | 215843
10 | 47:57.69 | 4:38.64 | 215844 | 236757
11 | 52:36.58 | 4:22.37 | 236758 | 256444
12 | 56:59.20 | 3:42.48 | 256445 | 273142
13 | 60:41.68 | 4:54.09 | 273143 | 295201
14 | 65:36.02 | 2:38.03 | 295202 | 307054
15 | 68:14.05 | 4:28.44 | 307055 | 327198
16 | 72:42.49 | 4:45.11 | 327199 | 348584


Range status and errors

Selected range

Filename D:\rwa12\Rainbow - Classic Rainbow - The Universal Masters Collection.wav

Peak level 97.9 %
Extraction speed 7.2 X
Range quality 100.0 %
Test CRC 19D97D98
Copy CRC 19D97D98
Copy OK

No errors occurred


AccurateRip summary

Track 1 accurately ripped (confidence 56) [449C4313] (AR v2)
Track 2 accurately ripped (confidence 54) [617B84E7] (AR v2)
Track 3 accurately ripped (confidence 53) [525108B1] (AR v2)
Track 4 accurately ripped (confidence 53) [6A070C0E] (AR v2)
Track 5 accurately ripped (confidence 54) [A820144F] (AR v2)
Track 6 accurately ripped (confidence 55) [FD0F5361] (AR v2)
Track 7 accurately ripped (confidence 53) [98CBD54D] (AR v2)
Track 8 accurately ripped (confidence 55) [794756ED] (AR v2)
Track 9 accurately ripped (confidence 54) [794BB22A] (AR v2)
Track 10 accurately ripped (confidence 54) [31D66BC7] (AR v2)
Track 11 accurately ripped (confidence 54) [8D716A46] (AR v2)
Track 12 accurately ripped (confidence 54) [389A408B] (AR v2)
Track 13 accurately ripped (confidence 54) [B408BE44] (AR v2)
Track 14 accurately ripped (confidence 54) [A8729D34] (AR v2)
Track 15 accurately ripped (confidence 54) [4FB134B0] (AR v2)
Track 16 accurately ripped (confidence 54) [EA45F925] (AR v2)

All tracks accurately ripped

End of status report

–– CUETools DB Plugin V2.1.6

[CTDB TOCID: 7wBmWToCtHJut4KdSL146ffTgtA-] found
Submit result: 7wBmWToCtHJut4KdSL146ffTgtA- has been confirmed
Track | CTDB Status
1 | (127/148) Accurately ripped
2 | (126/148) Accurately ripped
3 | (127/148) Accurately ripped
4 | (127/148) Accurately ripped
5 | (126/148) Accurately ripped
6 | (127/148) Accurately ripped
7 | (127/148) Accurately ripped
8 | (127/148) Accurately ripped
9 | (124/148) Accurately ripped
10 | (127/148) Accurately ripped
11 | (127/148) Accurately ripped
12 | (125/148) Accurately ripped
13 | (126/148) Accurately ripped
14 | (127/148) Accurately ripped
15 | (126/148) Accurately ripped
16 | (125/148) Accurately ripped


==== Log checksum 1A180E41435D57A4B6A0B1D5CCCB1BE8D624AC2516EF28DB046D867EB42DDD3F ====

[CUETools log; Date: 27.05.2018 10:41:56; Version: 2.1.6]
[CTDB TOCID: 7wBmWToCtHJut4KdSL146ffTgtA-] found.
Track | CTDB Status
1 | (128/149) Accurately ripped
2 | (127/149) Accurately ripped
3 | (128/149) Accurately ripped
4 | (128/149) Accurately ripped
5 | (127/149) Accurately ripped
6 | (128/149) Accurately ripped
7 | (128/149) Accurately ripped
8 | (128/149) Accurately ripped
9 | (125/149) Accurately ripped
10 | (128/149) Accurately ripped
11 | (128/149) Accurately ripped
12 | (126/149) Accurately ripped
13 | (127/149) Accurately ripped
14 | (128/149) Accurately ripped
15 | (127/149) Accurately ripped
16 | (126/149) Accurately ripped
[AccurateRip ID: 002e6d19-022de904-fa122710] found.
Track [ CRC | V2 ] Status
01 [18c00ae6|449c4313] (29+56/90) Accurately ripped
02 [23709eeb|617b84e7] (30+54/91) Accurately ripped
03 [5aa80547|525108b1] (29+53/87) Accurately ripped
04 [93427fe1|6a070c0e] (30+53/88) Accurately ripped
05 [b3d2f2f5|a820144f] (31+54/90) Accurately ripped
06 [5558adbe|fd0f5361] (31+55/93) Accurately ripped
07 [76b1c3dd|98cbd54d] (30+53/90) Accurately ripped
08 [82f80a6d|794756ed] (31+55/93) Accurately ripped
09 [1c6643ca|794bb22a] (29+54/88) Accurately ripped
10 [87f6861f|31d66bc7] (30+54/89) Accurately ripped
11 [ad913ca2|8d716a46] (31+54/90) Accurately ripped
12 [d1f97ed9|389a408b] (29+54/90) Accurately ripped
13 [7d2e54e7|b408be44] (27+54/86) Accurately ripped
14 [48af979f|a8729d34] (28+54/87) Accurately ripped
15 [78619dc2|4fb134b0] (27+54/86) Accurately ripped
16 [463062f7|ea45f925] (27+54/86) Accurately ripped
Offsetted by -659:
01 [e3d04d6e] (00/90) No match
02 [fe6740fa] (00/91) No match (V2 was not tested)
03 [69ee882d] (00/87) No match
04 [ee010ff4] (00/88) No match
05 [1dbc16d8] (00/90) No match
06 [cab16cd8] (00/93) No match (V2 was not tested)
07 [90dcd5a4] (00/90) No match (V2 was not tested)
08 [388dc020] (00/93) No match (V2 was not tested)
09 [cb15d214] (00/88) No match
10 [b893d745] (00/89) No match
11 [1c65d36c] (00/90) No match
12 [978a8771] (00/90) No match (V2 was not tested)
13 [c15d1166] (00/86) No match
14 [d0ba5c43] (00/87) No match
15 [7f69dbbb] (00/86) No match
16 [e5863a35] (00/86) No match

Track Peak [ CRC32 ] [W/O NULL] [ LOG ]
– 97,9 [19D97D98] [457CE9E9] CRC32
01 97,9 [98047C97] [AE4F40BE]
02 94,8 [B192BE5C] [2BA5F985]
03 96,9 [B0196156] [323613C2]
04 94,1 [57559E68] [FAFB1B1E]
05 97,4 [511C57AF] [710035F9]
06 94,8 [B522C68F] [A7B09B82]
07 95,3 [CC8A1B80] [C4CC9DE5]
08 95,5 [9FD62BBC] [CAEB0F0B]
09 96,6 [0CB383B3] [12B36269]
10 96,4 [1C08F815] [59811CD5]
11 95,3 [064C9887] [79084766]
12 96,0 [2EE73697] [732F22D7]
13 94,9 [36F0E9A1] [AE27A568]
14 94,5 [FA1B7471] [F791CAE7]
15 97,4 [0CD86436] [1B061A1C]
16 97,6 [FB71D720] [1E2BFF83]

Rainbow - Classic Rainbow: The Universal Masters Collection (2001)


All thanks go to rwa12

>>> Rainbow in my Blog <<<

DOWNLOAD: