Tags
Language
Tags

Ralf Otto, Bachorchester Mainz, Bachchor Mainz - Bach: St. Matthew Passion / Matthäus-Passion (2019)

Posted By: ArlegZ
Ralf Otto, Bachorchester Mainz, Bachchor Mainz - Bach: St. Matthew Passion / Matthäus-Passion (2019)

Ralf Otto, Bachorchester Mainz, Bachchor Mainz - Bach: St. Matthew Passion / Matthäus-Passion (2019)
EAC | FLAC | Image (Cue & Log) ~ 693 Mb | Total time: 170:35 | Scans included
Classical | Label: Naxos | # 8.574036-38 | Recorded: 2018

Johann Sebastian Bach’s St Matthew Passion is widely recognised as one of the greatest masterpieces in Western sacred music. With its double orchestra and chorus this is a work of enormous proportions in every sense, and Bach was extremely resourceful in treading a fine line between creating the almost operatic spectacle valued by the secular authorities in Leipzig, and the elevated religious atmosphere sought by the clergy. This inspired mix of moving drama and theological discourse led Leonard Bernstein to declare that ‘there is nothing like it in all of music’.

Performer:
Georg Poplutz, tenor (Evangelist)
Matthias Winckhler, bass (Jesus)
Jasmin Hörner, soprano
Julia Kleiter, soprano
Nohad Becker, alto
Gerhild Romberger, alto
Daniel Sans, tenor
Daniel Ochoa, bass
Christian Wagner, bass
Bachchor Mainz
Bachorchester Mainz
Conductor - Ralf Otto

Track List:
CD1:
01. Part I: Kommt, ihr Töchter, helft mir klagen (Chorus)
02. Part I: Recitative: Da Jesus diese Rede vollendet hatte (Evangelist, Jesus)
03. Part I: Chorale: Herzliebster Jesu, was hast du verbrochen (Chorus)
04. Part I: Recitative and Chorus: Da versammleten sich die Hohenpriester (Evangelist, Chorus, Jesus)
05. Part I: Recitative: Du lieber Heiland du (Alto)
06. Part I: Aria: Buss und Reu (Alto)
07. Part I: Recitative: Da ging hin der Zwölfen einer (Evangelist, Judas)
08. Part I: Blute nur, du liebes Herz (Soprano)
09. Part I: Recitative and Chorus: Aber am ersten Tage der süssen Brot (Evangelist, Chorus, Jesus)
10. Part I: Chorale: Ich bin's, ich sollte büssen (Chorus)
11. Part I: Recitative: Er antwortete und sprach (Evangelist, Jesus, Judas)
12. Part I: Recitative: Wiewohl mein Herz in Tränen schwimmt (Soprano)
13. Part I: Aria: Ich will dir mein Herze schenken (Soprano)
14. Part I: Recitative: Und da sie den Lobgesang gesprochen hatten (Evangelist, Jesus)
15. Part I: Chorale: Erkenne mich, mein Hüter (Chorus)
16. Part I: Recitative: Petrus aber antwortete und sprach (Evangelist, Petrus, Jesus)
17. Part I: Chorale: Ich will hier bei dir stehen (Chorus)
18. Part I: Recitative: Da kam Jesus mit ihnen (Evangelist, Jesus)
19. Part I: Recitative and Chorale: O Schmerz! (Tenor) - Was ist die Ursach' (Chorus)
20. Part I: Aria and Chorus: Ich will bei meinem Jesu wachen (Tenor) - So schlafen (Chorus)
21. Part I: Recitative: Und ging hin ein wenig (Evangelist, Jesus)
22. Part I: Recitative: Der Heiland fällt vor seinem Vater nieder (Bass)
23. Part I: Aria: Gerne will ich mich bequemen (Bass)
24. Part I: Recitative: Und er kam zu seinen Jüngern (Evangelist, Jesus)
25. Part I: Chorale: Was mein Gott will (Chorus)
26. Part I: Recitative: Und er kam und fand sie aber schlafend (Evangelist, Jesus, Judas)
27. Part I: Aria and Chorus: So ist mein Jesus nun gefangen (Soprano, Alto, Chorus) - Sind Blitze, sind Donner (Chorus)
28. Part I: Recitative: Und siehe, einer aus denen (Evangelist, Jesus)
29. Part I: Chorale: O Mensch, bewein' dein Sünde gross (Chorus)
CD2:
01. Part II: Aria and Chorus: Ach! Nun ist mein Jesus hin (Alto) - Wo ist denn (Chorus)
02. Part II: Recitative: Die aber Jesum gegriffen hatten (Evangelist)
03. Part II: Chorale: Mir hat die Welt trüglich gericht't (Chorus)
04. Part II: Recitative: Und wiewohl viel falsche Zeugen herzutraten (Evangelist, Pontifex) - Er hat gesagt (2 Testis)
05. Part II: Recitative: Mein Jesus schweigt zu falschen Lügen stille (Tenor)
06. Part II: Aria: Geduld! (Tenor)
07. Part II: Recitative and Chorus: Und der Hohepriester antwortete (Evangelist, Pontifex, Jesus, Chorus)
08. Part II: Chorale: Wer hat dich so geschlagen (Chorus)
09. Part II: Recitative and Chorus: Petrus aber sass draussen im Palast (Evangelist, Ancilla I, Petrus, Ancilla II, Chorus)
10. Part II: Aria: Erbarme dich, mein Gott (Alto)
11. Part II: Chorale: Bin ich gleich von dir gewichen (Chorus)
12. Part II: Recitative and Chorus: Des Morgens aber (Evangelist, Judas) - Was gehet uns das an (Chorus) - Und er warf die Siberlinge (Evangelist, 2 Pontifex)
13. Part II: Aria: Gebt mir meinen Jesum wieder (Bass)
14. Part II: Recitative: Sie hielten aber einen Rat (Evangelist, Pilatus, Jesus)
15. Part II: Chorale: Befiehl du deine Wege (Chorus)
16. Part II: Recitative and Chorus: Auf das Fest aber hatte der Landpfleger (Evangelist, Pilatus, Uxor Pilati, Chorus)
17. Part II: Chorale: Wie wunderbarlich ist doch diese Strafe (Chorus)
18. Part II: Recitative: Der Landpfleger sagte (Evangelist)
19. Part II: Recitative: Er hat uns allen wohlgetan (Soprano)
20. Part II: Aria: Aus Liebe will mein Heiland sterben (Soprano)
21. Part II: Recitative and Chorus: Sie schrieen aber noch mehr (Evangelist, Chorus, Pilatus)
22. Part II: Recitative: Erbarm es Gott (Alto)
23. Part II: Aria: Können Tränen meiner Wangen (Alto)
CD3:
01. Part II: Recitative and Chorus: Da nahmen die Kriegsknechte (Evangelist, Chorus)
02. Part II: Chorale: O Haupt voll Blut und Wunden (Chorus)
03. Part II: Recitative: Und da sie ihn verspottet hatten (Evangelist)
04. Part II: Recitative: Ja! Freilich will in uns das Fleisch und Blut (Bass)
05. Part II: Aria: Komm, süsses Kreuz (Bass)
06. Part II: Recitative and Chorus: Und da sie an die Stätte kamen (Evangelist, Chorus)
07. Part II: Recitative: Ach Golgatha (Alto)
08. Part II: Aria and Chorus: Sehet, Jesus hat die Hand (Alto) - Wohin (Chorus)
09. Part II: Recitative and Chorus: Und von der sechsten Stunde an (Evangelist, Jesus, Chorus)
10. Part II: Chorale: Wenn ich einmal soll scheiden (Chorus)
11. Part II: Recitative and Chorus: Und siehe da, der Vorhang im Tempel zerriss (Evangelist, Chorus)
12. Part II: Recitative: Am Abend, da es kühle war (Bass)
13. Part II: Aria: Mache dich, mein Herze, rein (Bass)
14. Part II: Recitative and Chorus: Und Joseph nahm den Leib (Evangelist, Chorus, Pilatus)
15. Part II: Recitative and Chorus: Nun ist der Herr zur Ruh gebracht (Bass, Chorus, Tenor, Alto, Soprano)
16. Part II: Chorale: Wir setzen uns mit Tränen nieder (Chorus)
17. Part II: Recitative: Ja! Freilich will in uns das Fleisch und Blut (version for bass, 2 flutes, lute and basso continuo)
18. Part II: Aria: Komm, süsses Kreuz (version for bass, lute and basso continuo)


Exact Audio Copy V1.3 from 2. September 2016

EAC extraction logfile from 12. February 2020, 1:57

Georg Poplutz, Matthias Winckhler, Julia Kleiter, Jasmin Maria Hörner, Gerhild Romberger, Nohad Becker, Daniel Sans, Christian / Bach - St. Matthew Passion (Disc 1)

Used drive : ATAPI iHAS124 F Adapter: 1 ID: 0

Read mode : Secure
Utilize accurate stream : Yes
Defeat audio cache : Yes
Make use of C2 pointers : No

Read offset correction : 6
Overread into Lead-In and Lead-Out : No
Fill up missing offset samples with silence : Yes
Delete leading and trailing silent blocks : No
Null samples used in CRC calculations : Yes
Used interface : Native Win32 interface for Win NT & 2000

Used output format : User Defined Encoder
Selected bitrate : 1024 kBit/s
Quality : High
Add ID3 tag : No
Command line compressor : C:\Program Files (x86)\Exact Audio Copy\FLAC\FLAC.EXE
Additional command line options : -6 -V -T "ARTIST=%artist%" -T "TITLE=%title%" -T "ALBUM=%albumtitle%" -T "DATE=%year%" -T "TRACKNUMBER=%tracknr%" -T "GENRE=%genre%" -T "COMMENT=%comment%" -T "BAND=%albuminterpret%" -T "ALBUMARTIST=%albuminterpret%" -T "COMPOSER=%composer%" %haslyrics%–tag-from-file=LYRICS="%lyricsfile%"%haslyrics% -T "DISCNUMBER=%cdnumber%" -T "TOTALDISCS=%totalcds%" -T "TOTALTRACKS=%numtracks%" %hascover%–picture="%coverfile%"%hascover% %source% -o %dest%


TOC of the extracted CD

Track | Start | Length | Start sector | End sector
––––––––––––––––––––––––––––-
1 | 0:00.00 | 7:34.31 | 0 | 34080
2 | 7:34.31 | 0:44.23 | 34081 | 37403
3 | 8:18.54 | 0:49.09 | 37404 | 41087
4 | 9:07.63 | 3:04.70 | 41088 | 54957
5 | 12:12.58 | 0:51.12 | 54958 | 58794
6 | 13:03.70 | 4:05.20 | 58795 | 77189
7 | 17:09.15 | 0:38.08 | 77190 | 80047
8 | 17:47.23 | 4:56.02 | 80048 | 102249
9 | 22:43.25 | 2:15.54 | 102250 | 112428
10 | 24:59.04 | 0:58.44 | 112429 | 116822
11 | 25:57.48 | 3:02.10 | 116823 | 130482
12 | 28:59.58 | 1:23.69 | 130483 | 136776
13 | 30:23.52 | 3:17.56 | 136777 | 151607
14 | 33:41.33 | 1:06.73 | 151608 | 156630
15 | 34:48.31 | 1:13.18 | 156631 | 162123
16 | 36:01.49 | 1:03.52 | 162124 | 166900
17 | 37:05.26 | 1:28.09 | 166901 | 173509
18 | 38:33.35 | 1:56.06 | 173510 | 182215
19 | 40:29.41 | 1:39.73 | 182216 | 189713
20 | 42:09.39 | 5:18.02 | 189714 | 213565
21 | 47:27.41 | 0:43.47 | 213566 | 216837
22 | 48:11.13 | 0:49.59 | 216838 | 220571
23 | 49:00.72 | 4:13.05 | 220572 | 239551
24 | 53:14.02 | 1:20.55 | 239552 | 245606
25 | 54:34.57 | 1:12.21 | 245607 | 251027
26 | 55:47.03 | 2:27.42 | 251028 | 262094
27 | 58:14.45 | 5:00.39 | 262095 | 284633
28 | 63:15.09 | 2:16.67 | 284634 | 294900
29 | 65:32.01 | 5:43.57 | 294901 | 320682


Range status and errors

Selected range

Filename C:\EACRip\EASTER\Bach - St. Matthew Passion (Ralf Otto) (2019)\CD1\Bach - St. Matthew Passion (Disc 1) - Ralf Otto.wav

Peak level 90.1 %
Extraction speed 9.5 X
Range quality 100.0 %
Test CRC 62CCF2B3
Copy CRC 62CCF2B3
Copy OK

No errors occurred


AccurateRip summary

Track 1 not present in database
Track 2 not present in database
Track 3 not present in database
Track 4 not present in database
Track 5 not present in database
Track 6 not present in database
Track 7 not present in database
Track 8 not present in database
Track 9 not present in database
Track 10 not present in database
Track 11 not present in database
Track 12 not present in database
Track 13 not present in database
Track 14 not present in database
Track 15 not present in database
Track 16 not present in database
Track 17 not present in database
Track 18 not present in database
Track 19 not present in database
Track 20 not present in database
Track 21 not present in database
Track 22 not present in database
Track 23 not present in database
Track 24 not present in database
Track 25 not present in database
Track 26 not present in database
Track 27 not present in database
Track 28 not present in database
Track 29 not present in database

None of the tracks are present in the AccurateRip database

End of status report

–– CUETools DB Plugin V2.1.6

[CTDB TOCID: AKVMP2Qz15xNTV_zWZaKsc5XeCs-] found
Submit result: AKVMP2Qz15xNTV_zWZaKsc5XeCs- has been confirmed
Track | CTDB Status
1 | (5/5) Accurately ripped
2 | (5/5) Accurately ripped
3 | (5/5) Accurately ripped
4 | (5/5) Accurately ripped
5 | (5/5) Accurately ripped
6 | (5/5) Accurately ripped
7 | (5/5) Accurately ripped
8 | (5/5) Accurately ripped
9 | (5/5) Accurately ripped
10 | (5/5) Accurately ripped
11 | (5/5) Accurately ripped
12 | (5/5) Accurately ripped
13 | (5/5) Accurately ripped
14 | (5/5) Accurately ripped
15 | (5/5) Accurately ripped
16 | (5/5) Accurately ripped
17 | (5/5) Accurately ripped
18 | (5/5) Accurately ripped
19 | (5/5) Accurately ripped
20 | (5/5) Accurately ripped
21 | (5/5) Accurately ripped
22 | (5/5) Accurately ripped
23 | (5/5) Accurately ripped
24 | (5/5) Accurately ripped
25 | (5/5) Accurately ripped
26 | (5/5) Accurately ripped
27 | (5/5) Accurately ripped
28 | (5/5) Accurately ripped
29 | (5/5) Accurately ripped


==== Log checksum 74FFB51627D3EA8BA0758E1B67D612037B9BFA9B998D26BC3D9465001415CE17 ====


Exact Audio Copy V1.3 from 2. September 2016

EAC extraction logfile from 12. February 2020, 14:02

Georg Poplutz, Matthias Winckhler, Julia Kleiter, Jasmin Maria Hörner, Gerhild Romberger, Nohad Becker, Daniel Sans, Christian / Bach - St. Matthew Passion (Disc 2)

Used drive : ATAPI iHAS124 F Adapter: 1 ID: 0

Read mode : Secure
Utilize accurate stream : Yes
Defeat audio cache : Yes
Make use of C2 pointers : No

Read offset correction : 6
Overread into Lead-In and Lead-Out : No
Fill up missing offset samples with silence : Yes
Delete leading and trailing silent blocks : No
Null samples used in CRC calculations : Yes
Used interface : Native Win32 interface for Win NT & 2000

Used output format : User Defined Encoder
Selected bitrate : 1024 kBit/s
Quality : High
Add ID3 tag : No
Command line compressor : C:\Program Files (x86)\Exact Audio Copy\FLAC\FLAC.EXE
Additional command line options : -6 -V -T "ARTIST=%artist%" -T "TITLE=%title%" -T "ALBUM=%albumtitle%" -T "DATE=%year%" -T "TRACKNUMBER=%tracknr%" -T "GENRE=%genre%" -T "COMMENT=%comment%" -T "BAND=%albuminterpret%" -T "ALBUMARTIST=%albuminterpret%" -T "COMPOSER=%composer%" %haslyrics%–tag-from-file=LYRICS="%lyricsfile%"%haslyrics% -T "DISCNUMBER=%cdnumber%" -T "TOTALDISCS=%totalcds%" -T "TOTALTRACKS=%numtracks%" %hascover%–picture="%coverfile%"%hascover% %source% -o %dest%


TOC of the extracted CD

Track | Start | Length | Start sector | End sector
––––––––––––––––––––––––––––-
1 | 0:00.00 | 3:49.26 | 0 | 17200
2 | 3:49.26 | 0:55.67 | 17201 | 21392
3 | 4:45.18 | 0:40.31 | 21393 | 24423
4 | 5:25.49 | 1:06.53 | 24424 | 29426
5 | 6:32.27 | 0:51.36 | 29427 | 33287
6 | 7:23.63 | 3:42.50 | 33288 | 49987
7 | 11:06.38 | 2:03.71 | 49988 | 59283
8 | 13:10.34 | 1:03.40 | 59284 | 64048
9 | 14:13.74 | 2:09.47 | 64049 | 73770
10 | 16:23.46 | 6:34.18 | 73771 | 103338
11 | 22:57.64 | 1:06.58 | 103339 | 108346
12 | 24:04.47 | 1:45.47 | 108347 | 116268
13 | 25:50.19 | 2:40.52 | 116269 | 128320
14 | 28:30.71 | 2:07.65 | 128321 | 137910
15 | 30:38.61 | 0:59.01 | 137911 | 142336
16 | 31:37.62 | 2:26.67 | 142337 | 153353
17 | 34:04.54 | 0:44.47 | 153354 | 156700
18 | 34:49.26 | 0:15.01 | 156701 | 157826
19 | 35:04.27 | 1:09.67 | 157827 | 163068
20 | 36:14.19 | 5:13.74 | 163069 | 186617
21 | 41:28.18 | 1:48.05 | 186618 | 194722
22 | 43:16.23 | 0:49.02 | 194723 | 198399
23 | 44:05.25 | 6:07.50 | 198400 | 225974


Range status and errors

Selected range

Filename C:\EACRip\EASTER\Bach - St. Matthew Passion (Ralf Otto) (2019)\CD2\Bach - St. Matthew Passion (Disc 2) - Ralf Otto.wav

Peak level 96.4 %
Extraction speed 8.3 X
Range quality 100.0 %
Test CRC 72CE80C5
Copy CRC 72CE80C5
Copy OK

No errors occurred


AccurateRip summary

Track 1 not present in database
Track 2 not present in database
Track 3 not present in database
Track 4 not present in database
Track 5 not present in database
Track 6 not present in database
Track 7 not present in database
Track 8 not present in database
Track 9 not present in database
Track 10 not present in database
Track 11 not present in database
Track 12 not present in database
Track 13 not present in database
Track 14 not present in database
Track 15 not present in database
Track 16 not present in database
Track 17 not present in database
Track 18 not present in database
Track 19 not present in database
Track 20 not present in database
Track 21 not present in database
Track 22 not present in database
Track 23 not present in database

None of the tracks are present in the AccurateRip database

End of status report

–– CUETools DB Plugin V2.1.6

[CTDB TOCID: NhkNYx0pD9WUBBKfZKNKpPpQB4A-] found
Submit result: NhkNYx0pD9WUBBKfZKNKpPpQB4A- has been confirmed
Track | CTDB Status
1 | (5/5) Accurately ripped
2 | (5/5) Accurately ripped
3 | (5/5) Accurately ripped
4 | (5/5) Accurately ripped
5 | (5/5) Accurately ripped
6 | (5/5) Accurately ripped
7 | (5/5) Accurately ripped
8 | (5/5) Accurately ripped
9 | (5/5) Accurately ripped
10 | (5/5) Accurately ripped
11 | (5/5) Accurately ripped
12 | (5/5) Accurately ripped
13 | (5/5) Accurately ripped
14 | (5/5) Accurately ripped
15 | (5/5) Accurately ripped
16 | (5/5) Accurately ripped
17 | (5/5) Accurately ripped
18 | (5/5) Accurately ripped
19 | (5/5) Accurately ripped
20 | (5/5) Accurately ripped
21 | (5/5) Accurately ripped
22 | (5/5) Accurately ripped
23 | (5/5) Accurately ripped


==== Log checksum CDA50E3B4881DBC2EFD839C44C543D18716C51972946A2ADA917A7E556F6F73A ====


Exact Audio Copy V1.3 from 2. September 2016

EAC extraction logfile from 12. February 2020, 15:23

Georg Poplutz, Matthias Winckhler, Julia Kleiter, Jasmin Maria Hörner, Gerhild Romberger, Nohad Becker, Daniel Sans, Christian / Bach - St. Matthew Passion (Disc 3)

Used drive : ATAPI iHAS124 F Adapter: 1 ID: 0

Read mode : Secure
Utilize accurate stream : Yes
Defeat audio cache : Yes
Make use of C2 pointers : No

Read offset correction : 6
Overread into Lead-In and Lead-Out : No
Fill up missing offset samples with silence : Yes
Delete leading and trailing silent blocks : No
Null samples used in CRC calculations : Yes
Used interface : Native Win32 interface for Win NT & 2000

Used output format : User Defined Encoder
Selected bitrate : 1024 kBit/s
Quality : High
Add ID3 tag : No
Command line compressor : C:\Program Files (x86)\Exact Audio Copy\FLAC\FLAC.EXE
Additional command line options : -6 -V -T "ARTIST=%artist%" -T "TITLE=%title%" -T "ALBUM=%albumtitle%" -T "DATE=%year%" -T "TRACKNUMBER=%tracknr%" -T "GENRE=%genre%" -T "COMMENT=%comment%" -T "BAND=%albuminterpret%" -T "ALBUMARTIST=%albuminterpret%" -T "COMPOSER=%composer%" %haslyrics%–tag-from-file=LYRICS="%lyricsfile%"%haslyrics% -T "DISCNUMBER=%cdnumber%" -T "TOTALDISCS=%totalcds%" -T "TOTALTRACKS=%numtracks%" %hascover%–picture="%coverfile%"%hascover% %source% -o %dest%


TOC of the extracted CD

Track | Start | Length | Start sector | End sector
––––––––––––––––––––––––––––-
1 | 0:00.00 | 1:09.03 | 0 | 5177
2 | 1:09.03 | 2:09.53 | 5178 | 14905
3 | 3:18.56 | 0:47.45 | 14906 | 18475
4 | 4:06.26 | 0:32.68 | 18476 | 20943
5 | 4:39.19 | 5:26.67 | 20944 | 45460
6 | 10:06.11 | 3:30.14 | 45461 | 61224
7 | 13:36.25 | 1:24.23 | 61225 | 67547
8 | 15:00.48 | 3:04.00 | 67548 | 81347
9 | 18:04.48 | 2:08.23 | 81348 | 90970
10 | 20:12.71 | 1:44.62 | 90971 | 98832
11 | 21:57.58 | 2:52.21 | 98833 | 111753
12 | 24:50.04 | 1:42.67 | 111754 | 119470
13 | 26:32.71 | 5:35.12 | 119471 | 144607
14 | 32:08.08 | 2:29.30 | 144608 | 155812
15 | 34:37.38 | 2:15.40 | 155813 | 165977
16 | 36:53.03 | 6:35.50 | 165978 | 195652
17 | 43:28.53 | 0:32.04 | 195653 | 198056
18 | 44:00.57 | 5:05.18 | 198057 | 220949


Range status and errors

Selected range

Filename C:\EACRip\EASTER\Bach - St. Matthew Passion (Ralf Otto) (2019)\CD3\Bach - St. Matthew Passion (Disc 3) - Ralf Otto.wav

Peak level 95.5 %
Extraction speed 8.2 X
Range quality 100.0 %
Test CRC E12683E5
Copy CRC E12683E5
Copy OK

No errors occurred


AccurateRip summary

Track 1 not present in database
Track 2 not present in database
Track 3 not present in database
Track 4 not present in database
Track 5 not present in database
Track 6 not present in database
Track 7 not present in database
Track 8 not present in database
Track 9 not present in database
Track 10 not present in database
Track 11 not present in database
Track 12 not present in database
Track 13 not present in database
Track 14 not present in database
Track 15 not present in database
Track 16 not present in database
Track 17 not present in database
Track 18 not present in database

None of the tracks are present in the AccurateRip database

End of status report

–– CUETools DB Plugin V2.1.6

[CTDB TOCID: 4NxLrm_HOc3Sn9oscwAJ1cBTRNQ-] found
Submit result: 4NxLrm_HOc3Sn9oscwAJ1cBTRNQ- has been confirmed
Track | CTDB Status
1 | (5/5) Accurately ripped
2 | (5/5) Accurately ripped
3 | (5/5) Accurately ripped
4 | (5/5) Accurately ripped
5 | (5/5) Accurately ripped
6 | (5/5) Accurately ripped
7 | (5/5) Accurately ripped
8 | (5/5) Accurately ripped
9 | (5/5) Accurately ripped
10 | (5/5) Accurately ripped
11 | (5/5) Accurately ripped
12 | (5/5) Accurately ripped
13 | (5/5) Accurately ripped
14 | (5/5) Accurately ripped
15 | (5/5) Accurately ripped
16 | (5/5) Accurately ripped
17 | (5/5) Accurately ripped
18 | (5/5) Accurately ripped


==== Log checksum D4D59F2E517B94CFD414B7DE994ABD25C68E12C24EB55DBCB4EFD24CE08DCCAB ====

Ralf Otto, Bachorchester Mainz, Bachchor Mainz - Bach: St. Matthew Passion / Matthäus-Passion (2019)

Thanks to the original releaser