Tags
Language
Tags

Ramin Djawadi - The Great Wall (2017)

Posted By: Pisulik
Ramin Djawadi - The Great Wall (2017)

Ramin Djawadi - The Great Wall (2017)
EAC Rip | FLAC (Tracks) +cue, log, artworks - 461 MB | MP3 CBR 320 kbps - 154 MB | 01:06:27
Soundtracks, Score | Label: Milan Records | Release Year: 2017

The Great Wall is an American-Chinese adventure film from director Zhang Yimou (Raise The Red Lantern). Starring Matt Damon, the movie follows an elite force of soldiers as they make a heroic stand atop the Great Wall of China against a horde of monsters that appear every sixty years. The score to The Great Wall was composed by Ramin Djawadi. Best known for his iconic scores to Game of Thrones and Iron Man, Djawadi has also provided the music for Warcraft, Pacific Rim and Westworld among countless other projects. His score to The Great Wall is sweeping and grand featuring rumbling drums, an army of strings and traditional Chinese chanting.

TRACKLIST

01. Nameless Order
02. Prologue
03. What A Wall
04. The Great Wall
05. First Battle
06. Captive Heroes
07. A Clean Start
08. We Are Not The Same
09. Xiao Long, General
10. At The Border
11. Foggy Loyalty
12. Fog And Fire
13. The Greed Of Man
14. Fools And Thieves
15. The Great Experiment
16. Bianling Boogie
17. Tower Tactics
18. Powder Rangers
19. Xin Ren
20. Bridge Of Fate

Exact Audio Copy V1.0 beta 4 from 7. December 2014

EAC extraction logfile from 20. February 2017, 20:08

Ramin Djawadi / The Great Wall (Original Soundtrack Album)

Used drive : ASUS SDR-08B1-U A Adapter: 1 ID: 0

Read mode : Secure
Utilize accurate stream : Yes
Defeat audio cache : Yes
Make use of C2 pointers : No

Read offset correction : 6
Overread into Lead-In and Lead-Out : No
Fill up missing offset samples with silence : Yes
Delete leading and trailing silent blocks : No
Null samples used in CRC calculations : Yes
Used interface : Native Win32 interface for Win NT & 2000
Gap handling : Appended to previous track

Used output format : User Defined Encoder
Selected bitrate : 1024 kBit/s
Quality : High
Add ID3 tag : No
Command line compressor : D:\Program Files\Exact Audio Copy\FLAC\FLAC.EXE
Additional command line options : -6 -V -T "ARTIST=%artist%" -T "TITLE=%title%" -T "ALBUM=%albumtitle%" -T "DATE=%year%" -T "TRACKNUMBER=%tracknr%" -T "GENRE=%genre%" -T "COMMENT=%comment%" -T "BAND=%albuminterpret%" -T "ALBUMARTIST=%albuminterpret%" -T "COMPOSER=%composer%" %haslyrics%–tag-from-file=LYRICS="%lyricsfile%"%haslyrics% -T "DISCNUMBER=%cdnumber%" -T "TOTALDISCS=%totalcds%" -T "TOTALTRACKS=%numtracks%" %hascover%–picture="%coverfile%"%hascover% %source% -o %dest%


TOC of the extracted CD

Track | Start | Length | Start sector | End sector
––––––––––––––––––––––––––––-
1 | 0:00.00 | 4:26.67 | 0 | 20016
2 | 4:26.67 | 1:49.10 | 20017 | 28201
3 | 6:16.02 | 3:45.60 | 28202 | 45136
4 | 10:01.62 | 4:29.33 | 45137 | 65344
5 | 14:31.20 | 7:38.55 | 65345 | 99749
6 | 22:10.00 | 1:38.04 | 99750 | 107103
7 | 23:48.04 | 2:27.23 | 107104 | 118151
8 | 26:15.27 | 3:17.37 | 118152 | 132963
9 | 29:32.64 | 1:33.18 | 132964 | 139956
10 | 31:06.07 | 1:29.17 | 139957 | 146648
11 | 32:35.24 | 3:01.42 | 146649 | 160265
12 | 35:36.66 | 3:00.49 | 160266 | 173814
13 | 38:37.40 | 1:56.47 | 173815 | 182561
14 | 40:34.12 | 3:15.46 | 182562 | 197232
15 | 43:49.58 | 2:53.74 | 197233 | 210281
16 | 46:43.57 | 3:43.04 | 210282 | 227010
17 | 50:26.61 | 4:19.38 | 227011 | 246473
18 | 54:46.24 | 3:27.20 | 246474 | 262018
19 | 58:13.44 | 3:55.54 | 262019 | 279697
20 | 62:09.23 | 4:26.15 | 279698 | 299662


Track 1

Filename E:\Soundtrack\Ramin Djawadi - The Great Wall (Original Soundtrack Album)\01 - Nameless Order.wav

Pre-gap length 0:00:02.00

Peak level 97.7 %
Extraction speed 1.0 X
Track quality 99.9 %
Test CRC 4B4B7915
Copy CRC 4B4B7915
Track not present in AccurateRip database
Copy OK

Track 2

Filename E:\Soundtrack\Ramin Djawadi - The Great Wall (Original Soundtrack Album)\02 - Prologue.wav

Peak level 97.7 %
Extraction speed 1.0 X
Track quality 100.0 %
Test CRC 68A54974
Copy CRC 68A54974
Track not present in AccurateRip database
Copy OK

Track 3

Filename E:\Soundtrack\Ramin Djawadi - The Great Wall (Original Soundtrack Album)\03 - What A Wall.wav

Peak level 97.7 %
Extraction speed 1.3 X
Track quality 100.0 %
Test CRC CE58BBB9
Copy CRC CE58BBB9
Track not present in AccurateRip database
Copy OK

Track 4

Filename E:\Soundtrack\Ramin Djawadi - The Great Wall (Original Soundtrack Album)\04 - The Great Wall.wav

Peak level 97.7 %
Extraction speed 1.4 X
Track quality 100.0 %
Test CRC BEE193C6
Copy CRC BEE193C6
Track not present in AccurateRip database
Copy OK

Track 5

Filename E:\Soundtrack\Ramin Djawadi - The Great Wall (Original Soundtrack Album)\05 - First Battle.wav

Peak level 97.7 %
Extraction speed 1.6 X
Track quality 100.0 %
Test CRC F1D84FAD
Copy CRC F1D84FAD
Track not present in AccurateRip database
Copy OK

Track 6

Filename E:\Soundtrack\Ramin Djawadi - The Great Wall (Original Soundtrack Album)\06 - Captive Heroes.wav

Peak level 87.5 %
Extraction speed 1.4 X
Track quality 100.0 %
Test CRC D5EA2AD9
Copy CRC D5EA2AD9
Track not present in AccurateRip database
Copy OK

Track 7

Filename E:\Soundtrack\Ramin Djawadi - The Great Wall (Original Soundtrack Album)\07 - A Clean Start.wav

Peak level 97.7 %
Extraction speed 1.5 X
Track quality 100.0 %
Test CRC D2704EEB
Copy CRC D2704EEB
Track not present in AccurateRip database
Copy OK

Track 8

Filename E:\Soundtrack\Ramin Djawadi - The Great Wall (Original Soundtrack Album)\08 - We Are Not the Same.wav

Peak level 97.7 %
Extraction speed 1.7 X
Track quality 100.0 %
Test CRC 27A7EE0F
Copy CRC 27A7EE0F
Track not present in AccurateRip database
Copy OK

Track 9

Filename E:\Soundtrack\Ramin Djawadi - The Great Wall (Original Soundtrack Album)\09 - Xiao Long, General.wav

Peak level 51.8 %
Extraction speed 1.5 X
Track quality 100.0 %
Test CRC DAEB93E6
Copy CRC DAEB93E6
Track not present in AccurateRip database
Copy OK

Track 10

Filename E:\Soundtrack\Ramin Djawadi - The Great Wall (Original Soundtrack Album)\10 - At the Border.wav

Peak level 97.7 %
Extraction speed 1.5 X
Track quality 100.0 %
Test CRC 0AADA0C3
Copy CRC 0AADA0C3
Track not present in AccurateRip database
Copy OK

Track 11

Filename E:\Soundtrack\Ramin Djawadi - The Great Wall (Original Soundtrack Album)\11 - Foggy Loyalty.wav

Peak level 98.8 %
Extraction speed 1.5 X
Track quality 99.9 %
Test CRC DD768D7A
Copy CRC DD768D7A
Track not present in AccurateRip database
Copy OK

Track 12

Filename E:\Soundtrack\Ramin Djawadi - The Great Wall (Original Soundtrack Album)\12 - Fog and Fire.wav

Peak level 97.7 %
Extraction speed 1.8 X
Track quality 100.0 %
Test CRC 10C3AB57
Copy CRC 10C3AB57
Track not present in AccurateRip database
Copy OK

Track 13

Filename E:\Soundtrack\Ramin Djawadi - The Great Wall (Original Soundtrack Album)\13 - The Greed of Man.wav

Peak level 47.5 %
Extraction speed 1.7 X
Track quality 100.0 %
Test CRC 2C3760FB
Copy CRC 2C3760FB
Track not present in AccurateRip database
Copy OK

Track 14

Filename E:\Soundtrack\Ramin Djawadi - The Great Wall (Original Soundtrack Album)\14 - Fools and Thieves.wav

Peak level 98.8 %
Extraction speed 2.0 X
Track quality 100.0 %
Test CRC A578D32C
Copy CRC A578D32C
Track not present in AccurateRip database
Copy OK

Track 15

Filename E:\Soundtrack\Ramin Djawadi - The Great Wall (Original Soundtrack Album)\15 - The Great Experiment.wav

Peak level 97.7 %
Extraction speed 1.9 X
Track quality 100.0 %
Test CRC 4E882952
Copy CRC 4E882952
Track not present in AccurateRip database
Copy OK

Track 16

Filename E:\Soundtrack\Ramin Djawadi - The Great Wall (Original Soundtrack Album)\16 - Bianling Boogie.wav

Peak level 97.7 %
Extraction speed 2.1 X
Track quality 100.0 %
Test CRC 1955E5DC
Copy CRC 1955E5DC
Track not present in AccurateRip database
Copy OK

Track 17

Filename E:\Soundtrack\Ramin Djawadi - The Great Wall (Original Soundtrack Album)\17 - Tower Tactics.wav

Peak level 97.7 %
Extraction speed 2.2 X
Track quality 100.0 %
Test CRC 26AD82B0
Copy CRC 26AD82B0
Track not present in AccurateRip database
Copy OK

Track 18

Filename E:\Soundtrack\Ramin Djawadi - The Great Wall (Original Soundtrack Album)\18 - Powder Rangers.wav

Peak level 98.8 %
Extraction speed 2.2 X
Track quality 100.0 %
Test CRC 830C9EB9
Copy CRC 830C9EB9
Track not present in AccurateRip database
Copy OK

Track 19

Filename E:\Soundtrack\Ramin Djawadi - The Great Wall (Original Soundtrack Album)\19 - Xin Ren.wav

Peak level 97.7 %
Extraction speed 2.1 X
Track quality 99.9 %
Test CRC 0FC9D91D
Copy CRC 0FC9D91D
Track not present in AccurateRip database
Copy OK

Track 20

Filename E:\Soundtrack\Ramin Djawadi - The Great Wall (Original Soundtrack Album)\20 - Bridge of Faith.wav

Peak level 83.4 %
Extraction speed 2.4 X
Track quality 100.0 %
Test CRC B35FE901
Copy CRC B35FE901
Track not present in AccurateRip database
Copy OK


None of the tracks are present in the AccurateRip database

No errors occurred

End of status report

–– CUETools DB Plugin V2.1.4

[CTDB TOCID: RACo18PHuhLlax.ldfFNHnViZTo-] found
Submit result: RACo18PHuhLlax.ldfFNHnViZTo- has been confirmed
Track | CTDB Status
1 | (3/3) Accurately ripped
2 | (3/3) Accurately ripped
3 | (3/3) Accurately ripped
4 | (3/3) Accurately ripped
5 | (3/3) Accurately ripped
6 | (3/3) Accurately ripped
7 | (3/3) Accurately ripped
8 | (3/3) Accurately ripped
9 | (3/3) Accurately ripped
10 | (3/3) Accurately ripped
11 | (3/3) Accurately ripped
12 | (3/3) Accurately ripped
13 | (3/3) Accurately ripped
14 | (3/3) Accurately ripped
15 | (3/3) Accurately ripped
16 | (3/3) Accurately ripped
17 | (3/3) Accurately ripped
18 | (3/3) Accurately ripped
19 | (3/3) Accurately ripped
20 | (3/3) Accurately ripped


==== Log checksum 98B05DC2D1D4BE2E959CDD28FFEF39797D6C9789CD6B443E151CA9FF5B16A180 ====


All thanks go to the original releaser