Subcategories

Michael Dease - Reaching Out (2018)

Posted By: SERTiL
Michael Dease - Reaching Out (2018)

Michael Dease - Reaching Out (2018)
EAC Rip | FLAC (tracks)+cue, log, m3u, front cover | 333 MB
Label: Posi-Tone – PR8177 | Tracks: 11 | Time: 55:00 min
Jazz

Trombonist Michael Dease brings together a new group of hands to help engage his audience by Reaching Out. Assembling a diverse group of voices, both young and old, Dease succeeds in creating an artful conglomeration of supporting talent featuring saxophonists Walt Weiskopf and Ralph Bowen, vibraphonist Behn Gillece, bassist Peter Brendler, pianist Luther Allison, and drummer Zach Adleman. Dease s skillful band leading keeps the music steadily straight forward as the group undertakes an exciting program of new compositions and intelligent arrangements of some new and familiar melodies. With yet another enjoyably swinging affair firmly grounded in both tradition and exploration from start to finish, Dease continues reaching ever higher for the blue skies of a brighter tomorrow. Listeners will certainly agree that Dease s new album succeeds in delivering a compelling and engaging message that encourages everyone to continue Reaching Out.

Tracklist:
1. Something in Common (5:04)
2. Live and Let Die (3:56)
3. Morning Shade (5:56)
4. Tipping Point (4:59)
5. More Than Words (4:16)
6. Double Luminosity (4:18)
7. The Takeover (4:44)
8. Ballade (5:50)
9. The Chameleon Eye (6:12)
10. Blackfoot (4:14)
11. Water Runs Dry (5:31)

Personnel:
Michael Dease: trombone;
Ralph Bowen: tenor saxophone;
Walt Weiskopf; tenor saxophone, alto saxophone;
Behn Gillece: vibraphone;
Luther Allison: piano;
Peter Brendler: bass;
Zach Adleman: drums.

Exact Audio Copy V1.1 from 23. June 2015

EAC extraction logfile from 11. April 2018, 12:12

Michael Dease / Reaching Out

Used drive : Lenovo Slim_USB_Burner Adapter: 1 ID: 1

Read mode : Secure
Utilize accurate stream : Yes
Defeat audio cache : Yes
Make use of C2 pointers : No

Read offset correction : 6
Overread into Lead-In and Lead-Out : No
Fill up missing offset samples with silence : Yes
Delete leading and trailing silent blocks : No
Null samples used in CRC calculations : Yes
Used interface : Native Win32 interface for Win NT & 2000
Gap handling : Appended to previous track

Used output format : User Defined Encoder
Selected bitrate : 896 kBit/s
Quality : High
Add ID3 tag : No
Command line compressor : C:\Program Files (x86)\Exact Audio Copy\Flac\flac.exe
Additional command line options : -8 -V -T "ARTIST=%artist%" -T "TITLE=%title%" -T "ALBUM=%albumtitle%" -T "DATE=%year%" -T "TRACKNUMBER=%tracknr%" -T "GENRE=%genre%" -T "PERFORMER=%albuminterpret%" -T "COMPOSER=%composer%" %haslyrics%–tag-from-file=LYRICS="%lyricsfile%"%haslyrics% -T "ALBUMARTIST=%albumartist%" -T "DISCNUMBER=%cdnumber%" -T "TOTALDISCS=%totalcds%" -T "TOTALTRACKS=%numtracks%" -T "COMMENT=%comment%" %source% -o %dest%


TOC of the extracted CD

Track | Start | Length | Start sector | End sector
––––––––––––––––––––––––––––-
1 | 0:00.00 | 5:04.24 | 0 | 22823
2 | 5:04.24 | 3:56.32 | 22824 | 40555
3 | 9:00.56 | 5:56.06 | 40556 | 67261
4 | 14:56.62 | 4:59.50 | 67262 | 89736
5 | 19:56.37 | 4:16.66 | 89737 | 109002
6 | 24:13.28 | 4:18.49 | 109003 | 128401
7 | 28:32.02 | 4:44.12 | 128402 | 149713
8 | 33:16.14 | 5:50.02 | 149714 | 175965
9 | 39:06.16 | 6:12.37 | 175966 | 203902
10 | 45:18.53 | 4:14.59 | 203903 | 223011
11 | 49:33.37 | 5:31.55 | 223012 | 247891


Track 1

Filename C:\EAC Rips\Michael Dease - Reaching Out (2018) [FLAC]\01 - Something in Common.wav

Pre-gap length 0:00:02.00

Peak level 90.3 %
Extraction speed 1.8 X
Track quality 100.0 %
Test CRC 725FF9EB
Copy CRC 725FF9EB
Track not present in AccurateRip database
Copy OK

Track 2

Filename C:\EAC Rips\Michael Dease - Reaching Out (2018) [FLAC]\02 - Live and Let Die.wav

Peak level 91.2 %
Extraction speed 1.9 X
Track quality 100.0 %
Test CRC 3E0D0B37
Copy CRC 3E0D0B37
Track not present in AccurateRip database
Copy OK

Track 3

Filename C:\EAC Rips\Michael Dease - Reaching Out (2018) [FLAC]\03 - Morning Shade.wav

Peak level 89.8 %
Extraction speed 2.3 X
Track quality 100.0 %
Test CRC C179AC92
Copy CRC C179AC92
Track not present in AccurateRip database
Copy OK

Track 4

Filename C:\EAC Rips\Michael Dease - Reaching Out (2018) [FLAC]\04 - Tipping Point.wav

Peak level 90.3 %
Extraction speed 2.4 X
Track quality 100.0 %
Test CRC 5980BECF
Copy CRC 5980BECF
Track not present in AccurateRip database
Copy OK

Track 5

Filename C:\EAC Rips\Michael Dease - Reaching Out (2018) [FLAC]\05 - More Than Words.wav

Peak level 89.6 %
Extraction speed 2.5 X
Track quality 100.0 %
Test CRC 391C5052
Copy CRC 391C5052
Track not present in AccurateRip database
Copy OK

Track 6

Filename C:\EAC Rips\Michael Dease - Reaching Out (2018) [FLAC]\06 - Double Luminosity.wav

Peak level 89.9 %
Extraction speed 2.1 X
Track quality 99.9 %
Test CRC BE8EE1BD
Copy CRC BE8EE1BD
Track not present in AccurateRip database
Copy OK

Track 7

Filename C:\EAC Rips\Michael Dease - Reaching Out (2018) [FLAC]\07 - The Takeover.wav

Peak level 90.6 %
Extraction speed 2.3 X
Track quality 99.9 %
Test CRC 3E8C636A
Copy CRC 3E8C636A
Track not present in AccurateRip database
Copy OK

Track 8

Filename C:\EAC Rips\Michael Dease - Reaching Out (2018) [FLAC]\08 - Ballade.wav

Peak level 89.6 %
Extraction speed 3.1 X
Track quality 100.0 %
Test CRC E26D94AC
Copy CRC E26D94AC
Track not present in AccurateRip database
Copy OK

Track 9

Filename C:\EAC Rips\Michael Dease - Reaching Out (2018) [FLAC]\09 - The Chameleon Eye.wav

Peak level 90.0 %
Extraction speed 2.8 X
Track quality 99.9 %
Test CRC 64CDAA33
Copy CRC 64CDAA33
Track not present in AccurateRip database
Copy OK

Track 10

Filename C:\EAC Rips\Michael Dease - Reaching Out (2018) [FLAC]\10 - Blackfoot.wav

Peak level 91.3 %
Extraction speed 3.3 X
Track quality 100.0 %
Test CRC FE115227
Copy CRC FE115227
Track not present in AccurateRip database
Copy OK

Track 11

Filename C:\EAC Rips\Michael Dease - Reaching Out (2018) [FLAC]\11 - Water Runs Dry.wav

Peak level 89.6 %
Extraction speed 3.5 X
Track quality 100.0 %
Test CRC 2071ED7B
Copy CRC 2071ED7B
Track not present in AccurateRip database
Copy OK


None of the tracks are present in the AccurateRip database

No errors occurred

End of status report

–– CUETools DB Plugin V2.1.6

[CTDB TOCID: 2PFsdumE5t4YCxNHk1nbkgcTBbI-] found
Submit result: 2PFsdumE5t4YCxNHk1nbkgcTBbI- has been confirmed
Track | CTDB Status
1 | (1/1) Accurately ripped
2 | (1/1) Accurately ripped
3 | (1/1) Accurately ripped
4 | (1/1) Accurately ripped
5 | (1/1) Accurately ripped
6 | (1/1) Accurately ripped
7 | (1/1) Accurately ripped
8 | (1/1) Accurately ripped
9 | (1/1) Accurately ripped
10 | (1/1) Accurately ripped
11 | (1/1) Accurately ripped


==== Log checksum 63A958A92BB07A9FBE11A96CDB5C798A08617F57FDF0155059C65A2865673D7C ====


Thanks to the Original customer.