Tags
Language
Tags

Red Dragon Cartel - Patina (2018) [Avalon MICP-11470, Japan]

Posted By: v3122
Red Dragon Cartel - Patina (2018) [Avalon MICP-11470, Japan]

Red Dragon Cartel - Patina (2018)
EAC | Flac(Image) + Cue + Log & MP3 CBR 320Kbps
Avalon MICP-11470 | ~ 390 or 127 Mb | Artwork(jpg) -> 79 Mb
Hard Rock

After a self-imposed exile from the music industry and the public eye, heralded guitarist Jake E. Lee (Ozzy Osbourne, Badlands) returned with a fresh new band, Red Dragon Cartel, in 2014. The band's debut album included participation from a number of special guests, including Maria Brink from In This Moment, Jeremy Spencer from Five Finger Death Punch and Robin Zander from Cheap Trick, but the plan was always to create a proper new artistic vehicle for Jake to bring back his own style of music and playing that has earned him so many admirers around the globe. Jake’s comeback was greeted with much enthusiasm from the fans and media alike and the virtuoso guitarist is back once again to grace the rock world with his unbridled skill! With an extremely talented band featuring Anthony Esposito on bass (ex-Lynch Mob), Phil Varone (ex-Saigon Kick, Skid Row) on drums and singer Darren Smith (Harem Scarem) backing him up, Jake has delivered the album fans have been eager to hear since Badlands dissolved years ago.
"Patina", the new album, is a definitive statement of Jake's unbelievable skills. The record returns to the bluesy, fierce hard rock sound of the Badlands days, updated with a monster production from Esposito and a perfect mix, courtesy of Max Norman whose relationship with Jake dates back to his days with Ozzy Osbourne. Get ready, "Patina" is coming and with it, Jake E. Lee is back!
Red Dragon Cartel - Patina (2018):

Red Dragon Cartel - Patina (2018) [Avalon MICP-11470, Japan]

Tracklist:

1. Speedbag
2. Havana
3. Crooked Man
4. The Luxury Of Breathing
5. Bitter
6. Chasing Ghosts
7. A Painted Heart
8. Punchclown (Bonus track)
9. My Beautiful Mess
10. Ink & Water
11. Havana B.C. (Bonus track)

Exact Audio Copy V1.3 from 2. September 2016

EAC extraction logfile from 30. November 2018, 9:17

Red Dragon Cartel / Patina

Used drive : HL-DT-STDVDROM DH18NS61 Adapter: 1 ID: 0

Read mode : Secure
Utilize accurate stream : Yes
Defeat audio cache : Yes
Make use of C2 pointers : No

Read offset correction : 6
Overread into Lead-In and Lead-Out : No
Fill up missing offset samples with silence : Yes
Delete leading and trailing silent blocks : No
Null samples used in CRC calculations : Yes
Used interface : Native Win32 interface for Win NT & 2000

Used output format : User Defined Encoder
Selected bitrate : 1024 kBit/s
Quality : High
Add ID3 tag : No
Command line compressor : G:\Install\All for Music\Lossless\FLAC 1.3.2\flac-1.3.2-win original\flac-1.3.2-win\win64\flac.exe
Additional command line options : -V -8 -T "Genre=%genre%" -T "Artist=%artist%" -T "Title=%title%" -T "Album=%albumtitle%" -T "Date=%year%" -T "Tracknumber=%tracknr%" -T "Comment=%comment%" %source%


TOC of the extracted CD

Track | Start | Length | Start sector | End sector
––––––––––––––––––––––––––––-
1 | 0:00.00 | 3:24.45 | 0 | 15344
2 | 3:24.45 | 4:14.69 | 15345 | 34463
3 | 7:39.39 | 4:34.05 | 34464 | 55018
4 | 12:13.44 | 5:14.20 | 55019 | 78588
5 | 17:27.64 | 4:45.11 | 78589 | 99974
6 | 22:13.00 | 5:05.69 | 99975 | 122918
7 | 27:18.69 | 5:15.46 | 122919 | 146589
8 | 32:34.40 | 6:19.44 | 146590 | 175058
9 | 38:54.09 | 5:35.40 | 175059 | 200223
10 | 44:29.49 | 6:09.35 | 200224 | 227933
11 | 50:39.09 | 3:12.23 | 227934 | 242356


Range status and errors

Selected range

Filename F:\# Torrent\Ginger Devil\Red Dragon Cartel - Patina (Avalon, MICP-11470, Japan)\Red Dragon Cartel - Patina.wav

Peak level 100.0 %
Extraction speed 2.0 X
Range quality 100.0 %
Test CRC 174C3AC2
Copy CRC 174C3AC2
Copy OK

No errors occurred


AccurateRip summary

Track 1 accurately ripped (confidence 1) [003DA1D8] (AR v2)
Track 2 accurately ripped (confidence 1) [1E446D9C] (AR v2)
Track 3 accurately ripped (confidence 1) [F304A38B] (AR v2)
Track 4 accurately ripped (confidence 1) [D3FA3171] (AR v2)
Track 5 accurately ripped (confidence 1) [4CD7CDC9] (AR v2)
Track 6 accurately ripped (confidence 1) [B2129FBC] (AR v2)
Track 7 accurately ripped (confidence 1) [6066B159] (AR v2)
Track 8 accurately ripped (confidence 1) [03258FAC] (AR v2)
Track 9 accurately ripped (confidence 1) [3F4B69B5] (AR v2)
Track 10 accurately ripped (confidence 1) [21764AE4] (AR v2)
Track 11 accurately ripped (confidence 1) [135BF3F5] (AR v2)

All tracks accurately ripped

End of status report

–– CUETools DB Plugin V2.1.6

[CTDB TOCID: gATDMYxHzb2MmnQnvDaoDm85VEA-] found
Submit result: gATDMYxHzb2MmnQnvDaoDm85VEA- has been confirmed
Track | CTDB Status
1 | (5/5) Accurately ripped
2 | (5/5) Accurately ripped
3 | (5/5) Accurately ripped
4 | (5/5) Accurately ripped
5 | (5/5) Accurately ripped
6 | (5/5) Accurately ripped
7 | (5/5) Accurately ripped
8 | (5/5) Accurately ripped
9 | (5/5) Accurately ripped
10 | (5/5) Accurately ripped
11 | (5/5) Accurately ripped


==== Log checksum 01A50ABADC66B1D79A887C3318A6200548EA4FF36619AF7AE304CB8DFD4FE202 ====


[CUETools log; Date: 30.11.2018 10:38:38; Version: 2.1.4]
[AccurateRip ID: 001556cb-00bccdbc-840c9f0b] found.
Track [ CRC | V2 ] Status
01 [7b7f3998|003da1d8] (0+1/1) Accurately ripped
02 [e58bb4bd|1e446d9c] (0+1/1) Accurately ripped
03 [434c7faf|f304a38b] (0+1/1) Accurately ripped
04 [f5a3cada|d3fa3171] (0+1/1) Accurately ripped
05 [bbcce3f2|4cd7cdc9] (0+1/1) Accurately ripped
06 [31b1d027|b2129fbc] (0+1/1) Accurately ripped
07 [7a36fa3f|6066b159] (0+1/1) Accurately ripped
08 [9fe7be5f|03258fac] (0+1/1) Accurately ripped
09 [8b713990|3f4b69b5] (0+1/1) Accurately ripped
10 [ca778a32|21764ae4] (0+1/1) Accurately ripped
11 [a675451f|135bf3f5] (0+1/1) Accurately ripped

Track Peak [ CRC32 ] [W/O NULL] [ LOG ]
– 100,0 [174C3AC2] [9B5B1509] CRC32
01 100,0 [2CE7755F] [A61F8837]
02 100,0 [91BB8A2B] [A2FE4825]
03 100,0 [30D14C43] [0191F91C]
04 100,0 [9447EAD8] [EBB3B049]
05 100,0 [249EBBF5] [FAD59B21]
06 100,0 [3C641DB4] [C07079E2]
07 100,0 [DE24321B] [E83B1444]
08 100,0 [1AD7026A] [E3AA4D25]
09 100,0 [0AEAE5F0] [82B92117]
10 100,0 [AD696C68] [15B4E942]
11 100,0 [37E31C7C] [8F4EF269]


Red Dragon Cartel - Patina (2018) [Avalon MICP-11470, Japan]

All thanks go to Ginger Devil

Download Red Dragon Cartel - Patina (2018):