Tags
Language
Tags

Red Hot Chili Peppers - Unlimited Love (2022)

Posted By: Rtax
Red Hot Chili Peppers - Unlimited Love (2022)

Red Hot Chili Peppers - Unlimited Love (2022)
EAC Rip | FLAC (tracks, cue, log) - 488 MB
1:13:13 | Rock | Label: Warner Records Inc.

A Red Hot Chili Peppers album with John Frusciante is always an event. The guitarist returns to the Californian formation after twelve years of absence, the group donning the same trappings that made the successes of Blood Sugar Sex Magik in 1991 or Californication in 1999. Produced once again by Rick Rubin, Unlimited Love therefore reminds us of the most melodic of the Red Hot, greatly favoring precisely melancholy songs like Not The One or White Braids & Pillow Chair, even bordering on adolescent emotions. We also find there the dripping and metallic basses of Flea, virtuoso hubbub, on Here Ever After, already audible on a hit like By The Way in 2002. Rather than the tangy pop object that raged during Frusciante's recent absence, here is a group that reconnects with funk on Poster Child or with disco motifs on the excellent Aquatic Mouth Dance. This record smells of the 1990s, seems to emerge from spontaneous sessions like the title These Are The Ways, cut in the sound of the time. With a touch of modernity, the Red Hot Chili Peppers explore what has made them one of the most famous rock bands of recent decades, and deliver an album as an anti-wrinkle.

Tracklist
1. Black Summer (3:52)
2. Here Ever After (3:50)
3. Aquatic Mouth Dance (4:21)
4. Not the One (4:26)
5. Poster Child (5:18)
6. The Great Apes (5:02)
7. It's Only Natural (5:34)
8. She's a Lover (3:41)
9. These Are the Ways (3:56)
10. Whatchu Thinkin' (3:41)
11. Bastards of Light (3:39)
12. White Braids & Pillow Chair (3:41)
13. One Way Traffic (4:11)
14. Veronica (4:29)
15. Let 'Em Cry (4:23)
16. The Heavy Wing (5:31)
17. Tangelo (3:38)
Exact Audio Copy V1.6 from 23. October 2020

EAC extraction logfile from 1. April 2022, 20:21

Red Hot Chili Peppers / Unlimited Love

Used drive : HL-DT-STDVDRAM GUE1N Adapter: 1 ID: 0

Read mode : Secure
Utilize accurate stream : Yes
Defeat audio cache : Yes
Make use of C2 pointers : No

Read offset correction : 6
Overread into Lead-In and Lead-Out : No
Fill up missing offset samples with silence : Yes
Delete leading and trailing silent blocks : No
Null samples used in CRC calculations : Yes
Used interface : Native Win32 interface for Win NT & 2000
Gap handling : Appended to previous track

Used output format : User Defined Encoder
Selected bitrate : 1024 kBit/s
Quality : High
Add ID3 tag : No
Command line compressor : C:\Program Files (x86)\Exact Audio Copy\Flac\flac.exe
Additional command line options : -8 -V -T "ARTIST=%artist%" -T "TITLE=%title%" -T "ALBUM=%albumtitle%" -T "DATE=%year%" -T "TRACKNUMBER=%tracknr%" -T "GENRE=%genre%" -T "PERFORMER=%albuminterpret%" -T "COMPOSER=%composer%" %haslyrics%–tag-from-file=LYRICS="%lyricsfile%"%haslyrics% -T "ALBUMARTIST=%albumartist%" -T "DISCNUMBER=%cdnumber%" -T "TOTALDISCS=%totalcds%" -T "TOTALTRACKS=%numtracks%" -T "COMMENT=%comment%" %source% -o %dest%


TOC of the extracted CD

Track | Start | Length | Start sector | End sector
––––––––––––––––––––––––––––-
1 | 0:00.00 | 3:52.30 | 0 | 17429
2 | 3:52.30 | 3:50.26 | 17430 | 34705
3 | 7:42.56 | 4:20.60 | 34706 | 54265
4 | 12:03.41 | 4:26.24 | 54266 | 74239
5 | 16:29.65 | 5:18.32 | 74240 | 98121
6 | 21:48.22 | 5:01.62 | 98122 | 120758
7 | 26:50.09 | 5:33.41 | 120759 | 145774
8 | 32:23.50 | 3:41.07 | 145775 | 162356
9 | 36:04.57 | 3:56.16 | 162357 | 180072
10 | 40:00.73 | 3:40.68 | 180073 | 196640
11 | 43:41.66 | 3:38.70 | 196641 | 213060
12 | 47:20.61 | 3:40.39 | 213061 | 229599
13 | 51:01.25 | 4:10.50 | 229600 | 248399
14 | 55:12.00 | 4:29.00 | 248400 | 268574
15 | 59:41.00 | 4:23.12 | 268575 | 288311
16 | 64:04.12 | 5:31.32 | 288312 | 313168
17 | 69:35.44 | 3:37.74 | 313169 | 329517


Track 1

Filename F:\EAC\01 - Black Summer.wav

Pre-gap length 0:00:02.00

Peak level 100.0 %
Extraction speed 1.1 X
Track quality 99.9 %
Test CRC DFBD2BD3
Copy CRC DFBD2BD3
Track not present in AccurateRip database
Copy OK

Track 2

Filename F:\EAC\02 - Here Ever After.wav

Peak level 100.0 %
Extraction speed 1.3 X
Track quality 100.0 %
Test CRC CDEC85FB
Copy CRC CDEC85FB
Track not present in AccurateRip database
Copy OK

Track 3

Filename F:\EAC\03 - Aquatic Mouth Dance.wav

Peak level 100.0 %
Extraction speed 1.5 X
Track quality 100.0 %
Test CRC 502099AB
Copy CRC 502099AB
Track not present in AccurateRip database
Copy OK

Track 4

Filename F:\EAC\04 - Not The One.wav

Peak level 100.0 %
Extraction speed 1.6 X
Track quality 100.0 %
Test CRC 94D16CA8
Copy CRC 94D16CA8
Track not present in AccurateRip database
Copy OK

Track 5

Filename F:\EAC\05 - Poster Child.wav

Peak level 100.0 %
Extraction speed 1.7 X
Track quality 100.0 %
Test CRC E6810D0A
Copy CRC E6810D0A
Track not present in AccurateRip database
Copy OK

Track 6

Filename F:\EAC\06 - The Great Apes.wav

Peak level 100.0 %
Extraction speed 1.8 X
Track quality 100.0 %
Test CRC 7B13901B
Copy CRC 7B13901B
Track not present in AccurateRip database
Copy OK

Track 7

Filename F:\EAC\07 - It's Only Natural.wav

Peak level 100.0 %
Extraction speed 2.0 X
Track quality 100.0 %
Test CRC A45D5F07
Copy CRC A45D5F07
Track not present in AccurateRip database
Copy OK

Track 8

Filename F:\EAC\08 - She's A Lover.wav

Peak level 100.0 %
Extraction speed 1.7 X
Track quality 99.9 %
Test CRC C444FCB8
Copy CRC C444FCB8
Track not present in AccurateRip database
Copy OK

Track 9

Filename F:\EAC\09 - These Are The Ways.wav

Peak level 100.0 %
Extraction speed 2.1 X
Track quality 100.0 %
Test CRC 1B40E339
Copy CRC 1B40E339
Track not present in AccurateRip database
Copy OK

Track 10

Filename F:\EAC\10 - Whatchu Thinkin'.wav

Peak level 100.0 %
Extraction speed 2.1 X
Track quality 100.0 %
Test CRC F4CFEC68
Copy CRC F4CFEC68
Track not present in AccurateRip database
Copy OK

Track 11

Filename F:\EAC\11 - Bastards Of Light.wav

Peak level 100.0 %
Extraction speed 2.2 X
Track quality 100.0 %
Test CRC D77C63D2
Copy CRC D77C63D2
Track not present in AccurateRip database
Copy OK

Track 12

Filename F:\EAC\12 - White Braids & Pillow Chair.wav

Peak level 100.0 %
Extraction speed 2.2 X
Track quality 100.0 %
Test CRC A9E515B4
Copy CRC A9E515B4
Track not present in AccurateRip database
Copy OK

Track 13

Filename F:\EAC\13 - One Way Traffic.wav

Peak level 100.0 %
Extraction speed 2.1 X
Track quality 99.9 %
Test CRC A744A343
Copy CRC A744A343
Track not present in AccurateRip database
Copy OK

Track 14

Filename F:\EAC\14 - Veronica.wav

Peak level 100.0 %
Extraction speed 2.4 X
Track quality 100.0 %
Test CRC 9B14A108
Copy CRC 9B14A108
Track not present in AccurateRip database
Copy OK

Track 15

Filename F:\EAC\15 - Let 'Em Cry.wav

Peak level 100.0 %
Extraction speed 2.5 X
Track quality 100.0 %
Test CRC F268A369
Copy CRC F268A369
Track not present in AccurateRip database
Copy OK

Track 16

Filename F:\EAC\16 - The Heavy Wing.wav

Peak level 100.0 %
Extraction speed 2.7 X
Track quality 100.0 %
Test CRC E2A43691
Copy CRC E2A43691
Track not present in AccurateRip database
Copy OK

Track 17

Filename F:\EAC\17 - Tangelo.wav

Peak level 92.6 %
Extraction speed 2.6 X
Track quality 100.0 %
Test CRC E90D813E
Copy CRC E90D813E
Track not present in AccurateRip database
Copy OK


None of the tracks are present in the AccurateRip database

No errors occurred

End of status report

–– CUETools DB Plugin V2.1.6

[CTDB TOCID: 0T9UMtN4LTiYU5R.H9p_yUSR0Pc-] found
Submit result: 0T9UMtN4LTiYU5R.H9p_yUSR0Pc- has been confirmed
Track | CTDB Status
1 | (55/55) Accurately ripped
2 | (55/55) Accurately ripped
3 | (55/55) Accurately ripped
4 | (55/55) Accurately ripped
5 | (55/55) Accurately ripped
6 | (55/55) Accurately ripped
7 | (55/55) Accurately ripped
8 | (55/55) Accurately ripped
9 | (55/55) Accurately ripped
10 | (54/55) Accurately ripped
11 | (55/55) Accurately ripped
12 | (55/55) Accurately ripped
13 | (55/55) Accurately ripped
14 | (55/55) Accurately ripped
15 | (55/55) Accurately ripped
16 | (55/55) Accurately ripped
17 | (55/55) Accurately ripped


==== Log checksum B6B69AFE2D75420ABB3B8FB61DD61CF812AD0D1200FFAF28DD2522938171E27D ====