Tags
Language
Tags

Red Nichols - Quadromania [4CD Box Set] [Recorded 1927-1949] (2005)

Posted By: gribovar
Red Nichols - Quadromania [4CD Box Set] [Recorded 1927-1949] (2005)

Red Nichols - Quadromania [4CD Box Set] [Recorded 1927-1949] (2005)
EAC Rip | FLAC (image+.cue+log) - 1,12 GB | MP3 CBR 320 kbps (LAME 3.93) - 631 MB | Covers - 23 MB
Genre: Jazz, Dixieland | RAR 3% Rec. | Label: Membran Music (222464-444)

The first 3 CDs here chronicle the 1927-31 hit-making prime of this superb cornetist, with Dorsey, Russell, Benny Goodman, Glenn Miller, Gene Krupa and Jack Teagarden among his ranks. And the fourth takes you to 1949, when Red had one of the best Dixieland bands in the land. Includes his hits Bugle Call Rag; Ida, Sweet As Apple Cider; Strike Up the Band; China Boy; Corrine Corrina; You Rascal, You; Fan It, and more!
CD 1 Tracklist:
01. Someday Sweetheart
02. Wabash Blues
03. Bugle Call Rag
04. The Darktown Strutter's Ball
05. Davenport Blues
06. Ida, Sweet As Apple Cider
07. Original Dixieland One-Step
08. Avalon
09. Poor Butterfly (vocal)
10. Poor Butterfly (instr.)
11. Can't Yo' Hear Me Calling, Caroline? (vocal)
12. Can't Yo' Hear Me Calling, Caroline? (instr.)
13. Panama
14. There'll Come A Time
15. Dear Old Southland (vocal)
16. Dear Old Southland (instr.)
17. Limehouse Blues (vocal)
18. Limehouse Blues (instr.)
19. Whispering
20. I Can't Give You Anything But Love
21. Margie

Total time: 01:13:17

CD 2 Tracklist:
01. Imagination
02. Original Dixieland One-Step
03. Harlem Twist
04. Five Pennies
05. A Pretty Girl Is Like A Melody
06. Shim-Me-Sha-Wabbie
07. I Never Knew
08. Who's Sorry Now?
09. Chinatown, My Chinatown
10. Alice Blue Gown
11. Allah's Holiday
12. Roses Of Picardy
13. I'm Marching Home To You (vocal)
14. I'm Marching Home To You (instr.)
15. Building A Nest For Mary (vocal)
16. Building A Nest For Mary (instr.)
17. I Used To Love Her In The Moonlight (vocal)
18. I Used to Love Her In The Moonlight (instr.)
19. Indiana
20. Dinah

Total time: 01:00:57

CD 3 Tracklist:
01. On The Alamo (vocal)
02. On The Alamo (instr.)
03. Sally, Won't You Come Back?
04. It Had To Be You
05. I'll See You In My Dreams
06. Some Of These Days
07. Who Cares?
08. Rose Of Washington Square
09. I May Be Wrong, But I Think You're Wonderful
10. The New Yorkers
11. They Didn't Believe Me
12. Wait For The Happy Ending
13. Can't We Be Friends?
14. Strike Up The Band
15. I'm Just Wild About Harry
16. Rose Of Washington Square
17. Peg O' Heart
18. Sweet Georgia Brown
19. China Boy
20. The Sheik Of Araby
21. My Honey's Lovin' Arms
22. Corinne Corrina
23. Keep A Song In Your Soul
24. You Rascal, You
25. Fan It

Total time: 01:19:56

CD 4 Tracklist:
01. Louisiana
02. Clarinet Marmalade
03. Ballin' The Jack
04. Medley: Honey • After You've Gone
05. I've Found A New Baby
06. When My Sugar Walks Down The Street
07. (Back Home In) Indiana
08. Peaceful Valley
09. Ida (Sweet As Apple Cider)
10. Tiger Rag
11. Morning Glory
12. Shake It And Break It
13. I Can't Believe That You're In Love With Me
14. After You Get What You Want, You Don't Want It
15. That's A Plenty
16. Lazy River
17. Dallas Blues
18. Battle Hymn Of The Republic

Total time: 54:29

Exact Audio Copy V0.99 prebeta 5 from 4. May 2009

EAC extraction logfile from 13. October 2010, 19:47

Red Nichols / Quadromania (disc 1)

Used drive : PIONEER DVD-RW DVR-111D Adapter: 1 ID: 0

Read mode : Secure
Utilize accurate stream : Yes
Defeat audio cache : Yes
Make use of C2 pointers : No

Read offset correction : 48
Overread into Lead-In and Lead-Out : No
Fill up missing offset samples with silence : Yes
Delete leading and trailing silent blocks : No
Null samples used in CRC calculations : Yes
Used interface : Native Win32 interface for Win NT & 2000

Used output format : Internal WAV Routines
Sample format : 44.100 Hz; 16 Bit; Stereo


TOC of the extracted CD

Track | Start | Length | Start sector | End sector
––––––––––––––––––––––––––––-
1 | 0:00.00 | 3:09.64 | 0 | 14238
2 | 3:09.64 | 2:38.66 | 14239 | 26154
3 | 5:48.55 | 2:55.48 | 26155 | 39327
4 | 8:44.28 | 2:57.40 | 39328 | 52642
5 | 11:41.68 | 3:09.59 | 52643 | 66876
6 | 14:51.52 | 2:50.14 | 66877 | 79640
7 | 17:41.66 | 2:45.74 | 79641 | 92089
8 | 20:27.65 | 3:09.11 | 92090 | 106275
9 | 23:37.01 | 4:00.33 | 106276 | 124308
10 | 27:37.34 | 4:01.69 | 124309 | 142452
11 | 31:39.28 | 4:07.19 | 142453 | 160996
12 | 35:46.47 | 4:06.14 | 160997 | 179460
13 | 39:52.61 | 3:04.44 | 179461 | 193304
14 | 42:57.30 | 3:15.26 | 193305 | 207955
15 | 46:12.56 | 4:28.09 | 207956 | 228064
16 | 50:40.65 | 4:31.60 | 228065 | 248449
17 | 55:12.50 | 4:38.46 | 248450 | 269345
18 | 59:51.21 | 4:34.08 | 269346 | 289903
19 | 64:25.29 | 3:04.73 | 289904 | 303776
20 | 67:30.27 | 2:51.19 | 303777 | 316620
21 | 70:21.46 | 2:55.29 | 316621 | 329774


Range status and errors

Selected range

Filename S:\Q U A D R O M A N I A\Red Nichols - Quadromania (disc 1).wav

Peak level 100.0 %
Range quality 100.0 %
Test CRC A2A0F748
Copy CRC A2A0F748
Copy OK

No errors occurred


AccurateRip summary

Track 1 not present in database
Track 2 not present in database
Track 3 not present in database
Track 4 not present in database
Track 5 not present in database
Track 6 not present in database
Track 7 not present in database
Track 8 not present in database
Track 9 not present in database
Track 10 not present in database
Track 11 not present in database
Track 12 not present in database
Track 13 not present in database
Track 14 not present in database
Track 15 not present in database
Track 16 not present in database
Track 17 not present in database
Track 18 not present in database
Track 19 not present in database
Track 20 not present in database
Track 21 not present in database

None of the tracks are present in the AccurateRip database

End of status report

[CUETools log; Date: 23.05.2018 14:03:49; Version: 2.1.4]
[CTDB TOCID: VcQ.sJWbxkc5FJGo7Z_XcHNtu5Y-] found.
Track | CTDB Status
1 | (4/4) Accurately ripped
2 | (4/4) Accurately ripped
3 | (4/4) Accurately ripped
4 | (4/4) Accurately ripped
5 | (4/4) Accurately ripped
6 | (4/4) Accurately ripped
7 | (4/4) Accurately ripped
8 | (4/4) Accurately ripped
9 | (4/4) Accurately ripped
10 | (4/4) Accurately ripped
11 | (4/4) Accurately ripped
12 | (4/4) Accurately ripped
13 | (4/4) Accurately ripped
14 | (4/4) Accurately ripped
15 | (4/4) Accurately ripped
16 | (4/4) Accurately ripped
17 | (4/4) Accurately ripped
18 | (4/4) Accurately ripped
19 | (4/4) Accurately ripped
20 | (4/4) Accurately ripped
21 | (4/4) Accurately ripped
[AccurateRip ID: 0034f934-033c6195-2a112d15] found.
Track [ CRC | V2 ] Status
01 [735eaaf3|30266749] (0+4/4) Accurately ripped
02 [92a0336c|f5e17987] (0+4/4) Accurately ripped
03 [7b1feedf|8741fc20] (0+4/4) Accurately ripped
04 [ca68f63f|588809ce] (0+4/4) Accurately ripped
05 [ed91ce88|ecd972b5] (0+4/4) Accurately ripped
06 [69c6abda|b5cc11eb] (0+4/4) Accurately ripped
07 [b074fb23|ffeb2bdf] (0+4/4) Accurately ripped
08 [6e20d5f2|41b1b11c] (0+4/4) Accurately ripped
09 [3812cd60|f43f0590] (0+4/4) Accurately ripped
10 [4c1b248f|9200cb77] (0+4/4) Accurately ripped
11 [c430db31|6016aba4] (0+4/4) Accurately ripped
12 [57c244ea|e2d6798e] (0+4/4) Accurately ripped
13 [4f7fa2ec|2ba33a3d] (0+4/4) Accurately ripped
14 [955b1129|9f0e748d] (0+4/4) Accurately ripped
15 [78b9a2e5|861d134c] (0+4/4) Accurately ripped
16 [a5965008|af327397] (0+4/4) Accurately ripped
17 [a7164e0f|f7d8e859] (0+4/4) Accurately ripped
18 [30926006|0b585f9c] (0+4/4) Accurately ripped
19 [2aedbf45|21f6300c] (0+4/4) Accurately ripped
20 [1cde8335|139860b4] (0+4/4) Accurately ripped
21 [21d41fc4|cd519cc3] (0+4/4) Accurately ripped

Track Peak [ CRC32 ] [W/O NULL] [ LOG ]
– 100,0 [A2A0F748] [2C340CE5] CRC32
01 99,9 [CF87F3EE] [B7FB3100]
02 99,9 [820FFB9D] [D0496B06]
03 99,8 [1A3FB8D1] [32507847]
04 99,9 [C0804D53] [12687899]
05 99,8 [F5B8F0B8] [3BC04B24]
06 99,9 [0EC864CB] [DB8B55BD]
07 99,9 [7E06D0D3] [4C58EF77]
08 99,8 [85FD5C5E] [2BDE9A7B]
09 99,6 [3EB3F5F5] [8724E927]
10 99,7 [E9B9A2B9] [3D297285]
11 99,7 [43E36D41] [02688EAF]
12 99,9 [EA08AA0A] [260457A2]
13 100,0 [21E2F64D] [51EA578E]
14 100,0 [CA77BCA4] [736CCF31]
15 99,7 [A2DBA346] [71825FB9]
16 100,0 [B20A5273] [61B0B1CF]
17 99,6 [B9109146] [7377844C]
18 99,8 [9549109E] [344A8A08]
19 99,8 [8AECE0D2] [FE205045]
20 99,9 [A094AE90] [35359986]
21 99,9 [B718CFB9] [B4867ADC]

Exact Audio Copy V0.99 prebeta 5 from 4. May 2009

EAC extraction logfile from 13. October 2010, 20:17

Red Nichols / Quadromania (disc 2)

Used drive : PIONEER DVD-RW DVR-111D Adapter: 1 ID: 0

Read mode : Secure
Utilize accurate stream : Yes
Defeat audio cache : Yes
Make use of C2 pointers : No

Read offset correction : 48
Overread into Lead-In and Lead-Out : No
Fill up missing offset samples with silence : Yes
Delete leading and trailing silent blocks : No
Null samples used in CRC calculations : Yes
Used interface : Native Win32 interface for Win NT & 2000

Used output format : Internal WAV Routines
Sample format : 44.100 Hz; 16 Bit; Stereo


TOC of the extracted CD

Track | Start | Length | Start sector | End sector
––––––––––––––––––––––––––––-
1 | 0:00.00 | 2:58.73 | 0 | 13422
2 | 2:58.73 | 2:48.45 | 13423 | 26067
3 | 5:47.43 | 2:52.54 | 26068 | 39021
4 | 8:40.22 | 3:26.59 | 39022 | 54530
5 | 12:07.06 | 3:05.21 | 54531 | 68426
6 | 15:12.27 | 2:57.04 | 68427 | 81705
7 | 18:09.31 | 3:00.04 | 81706 | 95209
8 | 21:09.35 | 3:02.48 | 95210 | 108907
9 | 24:12.08 | 3:15.14 | 108908 | 123546
10 | 27:27.22 | 2:47.34 | 123547 | 136105
11 | 30:14.56 | 3:20.65 | 136106 | 151170
12 | 33:35.46 | 2:40.35 | 151171 | 163205
13 | 36:16.06 | 3:10.40 | 163206 | 177495
14 | 39:26.46 | 3:06.09 | 177496 | 191454
15 | 42:32.55 | 3:09.47 | 191455 | 205676
16 | 45:42.27 | 3:08.23 | 205677 | 219799
17 | 48:50.50 | 3:04.41 | 219800 | 233640
18 | 51:55.16 | 3:04.34 | 233641 | 247474
19 | 54:59.50 | 2:41.71 | 247475 | 259620
20 | 57:41.46 | 3:15.29 | 259621 | 274274


Range status and errors

Selected range

Filename S:\Q U A D R O M A N I A\Red Nichols - Quadromania (disc 2).wav

Peak level 100.0 %
Range quality 99.9 %
Test CRC F6498B7B
Copy CRC F6498B7B
Copy OK

No errors occurred


AccurateRip summary

Track 1 not present in database
Track 2 not present in database
Track 3 not present in database
Track 4 not present in database
Track 5 not present in database
Track 6 not present in database
Track 7 not present in database
Track 8 not present in database
Track 9 not present in database
Track 10 not present in database
Track 11 not present in database
Track 12 not present in database
Track 13 not present in database
Track 14 not present in database
Track 15 not present in database
Track 16 not present in database
Track 17 not present in database
Track 18 not present in database
Track 19 not present in database
Track 20 not present in database

None of the tracks are present in the AccurateRip database

End of status report

[CUETools log; Date: 23.05.2018 14:07:10; Version: 2.1.4]
[CTDB TOCID: zmK9qRUTLagcjgaLucWMr996RGE-] found.
Track | CTDB Status
1 | (4/4) Accurately ripped
2 | (4/4) Accurately ripped
3 | (4/4) Accurately ripped
4 | (4/4) Accurately ripped
5 | (4/4) Accurately ripped
6 | (4/4) Accurately ripped
7 | (4/4) Accurately ripped
8 | (4/4) Accurately ripped
9 | (4/4) Accurately ripped
10 | (4/4) Accurately ripped
11 | (4/4) Accurately ripped
12 | (4/4) Accurately ripped
13 | (4/4) Accurately ripped
14 | (4/4) Accurately ripped
15 | (4/4) Accurately ripped
16 | (4/4) Accurately ripped
17 | (4/4) Accurately ripped
18 | (4/4) Accurately ripped
19 | (4/4) Accurately ripped
20 | (4/4) Accurately ripped
[AccurateRip ID: 002bcded-0283786b-100e4914] found.
Track [ CRC | V2 ] Status
01 [725cfa6a|4c2998d8] (0+4/4) Accurately ripped
02 [d50f8548|cdc05de8] (0+4/4) Accurately ripped
03 [137fee68|9251c3e6] (0+4/4) Accurately ripped
04 [93ce041e|782182e0] (0+4/4) Accurately ripped
05 [5c4610f4|6ec954ef] (0+4/4) Accurately ripped
06 [f40d40db|71e87f27] (0+4/4) Accurately ripped
07 [af729c79|080d17dd] (0+4/4) Accurately ripped
08 [4691a50e|b5c32f5b] (0+4/4) Accurately ripped
09 [c9212737|2811f808] (0+4/4) Accurately ripped
10 [1a6ec25c|4aa24818] (0+4/4) Accurately ripped
11 [47e036dc|e38625cf] (0+4/4) Accurately ripped
12 [eaaf3534|27c9b065] (0+4/4) Accurately ripped
13 [e04e1e3a|0d9bb5d3] (0+4/4) Accurately ripped
14 [2254805e|fc913d0a] (0+4/4) Accurately ripped
15 [2293846b|cd43fc96] (0+4/4) Accurately ripped
16 [07e4feff|97800896] (0+4/4) Accurately ripped
17 [b6b6b3c0|c2aea02c] (0+3/3) Accurately ripped
18 [14c3b4a7|65bfd547] (0+4/4) Accurately ripped
19 [4344ea55|84c32a7e] (0+4/4) Accurately ripped
20 [cd19f43b|d4eaa184] (0+4/4) Accurately ripped

Track Peak [ CRC32 ] [W/O NULL] [ LOG ]
– 100,0 [F6498B7B] [B7B6DD42] CRC32
01 99,9 [552FB307] [A6AB1ADA]
02 99,7 [1B3D0694] [EE9AA85E]
03 99,9 [2CCAE2F9] [286AA608]
04 99,9 [81B49291] [9C318EAB]
05 99,8 [DADB1276] [4548C384]
06 99,6 [4E28C57D] [D65AD2B3]
07 99,9 [0247328C] [5658C7A0]
08 100,0 [CCAAF2EA] [6359D66B]
09 99,9 [B2283A77] [1B98A260]
10 100,0 [21778A02] [32C10602]
11 99,7 [D7DCCAD8] [4381A97C]
12 98,7 [555174E9] [F4C1B952]
13 99,9 [05DD9D3F] [0D102C56]
14 99,9 [9F274D3E] [162AF3FF]
15 99,9 [9A7A9BF0] [496E7145]
16 99,7 [42AC2AA1] [48BBF465]
17 99,9 [2FE28F36] [9A7BDC56]
18 99,9 [72EDE80E] [0B7649D6]
19 100,0 [69F5546A] [4421FCE7]
20 99,6 [47B897DA] [BCC24CA0]

Exact Audio Copy V0.99 prebeta 5 from 4. May 2009

EAC extraction logfile from 13. October 2010, 20:50

Red Nichols / Quadromania (disc 3)

Used drive : PIONEER DVD-RW DVR-111D Adapter: 1 ID: 0

Read mode : Secure
Utilize accurate stream : Yes
Defeat audio cache : Yes
Make use of C2 pointers : No

Read offset correction : 48
Overread into Lead-In and Lead-Out : No
Fill up missing offset samples with silence : Yes
Delete leading and trailing silent blocks : No
Null samples used in CRC calculations : Yes
Used interface : Native Win32 interface for Win NT & 2000

Used output format : Internal WAV Routines
Sample format : 44.100 Hz; 16 Bit; Stereo


TOC of the extracted CD

Track | Start | Length | Start sector | End sector
––––––––––––––––––––––––––––-
1 | 0:00.00 | 3:04.68 | 0 | 13867
2 | 3:04.68 | 3:06.09 | 13868 | 27826
3 | 6:11.02 | 4:20.06 | 27827 | 47332
4 | 10:31.08 | 4:46.57 | 47333 | 68839
5 | 15:17.65 | 4:36.31 | 68840 | 89570
6 | 19:54.21 | 4:15.64 | 89571 | 108759
7 | 24:10.10 | 3:18.22 | 108760 | 123631
8 | 27:28.32 | 2:51.47 | 123632 | 136503
9 | 30:20.04 | 2:54.54 | 136504 | 149607
10 | 33:14.58 | 3:06.61 | 149608 | 163618
11 | 36:21.44 | 2:55.65 | 163619 | 176808
12 | 39:17.34 | 2:39.48 | 176809 | 188781
13 | 41:57.07 | 2:57.02 | 188782 | 202058
14 | 44:54.09 | 2:40.20 | 202059 | 214078
15 | 47:34.29 | 3:08.59 | 214079 | 228237
16 | 50:43.13 | 2:52.45 | 228238 | 241182
17 | 53:35.58 | 3:10.02 | 241183 | 255434
18 | 56:45.60 | 2:46.52 | 255435 | 267936
19 | 59:32.37 | 2:48.71 | 267937 | 280607
20 | 62:21.33 | 3:11.08 | 280608 | 294940
21 | 65:32.41 | 2:53.73 | 294941 | 307988
22 | 68:26.39 | 2:59.15 | 307989 | 321428
23 | 71:25.54 | 2:41.12 | 321429 | 333515
24 | 74:06.66 | 2:50.02 | 333516 | 346267
25 | 76:56.68 | 2:59.42 | 346268 | 359734


Range status and errors

Selected range

Filename S:\Q U A D R O M A N I A\Red Nichols - Quadromania (disc 3).wav

Peak level 100.0 %
Range quality 100.0 %
Test CRC 70D91EA8
Copy CRC 70D91EA8
Copy OK

No errors occurred


AccurateRip summary

Track 1 not present in database
Track 2 not present in database
Track 3 not present in database
Track 4 not present in database
Track 5 not present in database
Track 6 not present in database
Track 7 not present in database
Track 8 not present in database
Track 9 not present in database
Track 10 not present in database
Track 11 not present in database
Track 12 not present in database
Track 13 not present in database
Track 14 not present in database
Track 15 not present in database
Track 16 not present in database
Track 17 not present in database
Track 18 not present in database
Track 19 not present in database
Track 20 not present in database
Track 21 not present in database
Track 22 not present in database
Track 23 not present in database
Track 24 not present in database
Track 25 not present in database

None of the tracks are present in the AccurateRip database

End of status report

[CUETools log; Date: 23.05.2018 14:07:49; Version: 2.1.4]
[CTDB TOCID: axXoNvxyL26J_23neziIMVahmhU-] found.
Track | CTDB Status
1 | (4/4) Accurately ripped
2 | (4/4) Accurately ripped
3 | (4/4) Accurately ripped
4 | (4/4) Accurately ripped
5 | (4/4) Accurately ripped
6 | (4/4) Accurately ripped
7 | (4/4) Accurately ripped
8 | (4/4) Accurately ripped
9 | (4/4) Accurately ripped
10 | (4/4) Accurately ripped
11 | (4/4) Accurately ripped
12 | (4/4) Accurately ripped
13 | (4/4) Accurately ripped
14 | (4/4) Accurately ripped
15 | (4/4) Accurately ripped
16 | (4/4) Accurately ripped
17 | (4/4) Accurately ripped
18 | (4/4) Accurately ripped
19 | (4/4) Accurately ripped
20 | (4/4) Accurately ripped
21 | (3/4) Accurately ripped
22 | (4/4) Accurately ripped
23 | (4/4) Accurately ripped
24 | (4/4) Accurately ripped
25 | (4/4) Accurately ripped
[AccurateRip ID: 004b825a-05372d4a-9212bc19] found.
Track [ CRC | V2 ] Status
01 [30888210|87194380] (0+4/4) Accurately ripped
02 [d5f7f3dd|48ca2b25] (0+4/4) Accurately ripped
03 [43549f28|eb575b57] (0+4/4) Accurately ripped
04 [d9ae8325|ea1ae9db] (0+4/4) Accurately ripped
05 [9c5d2732|1d45fbd8] (0+4/4) Accurately ripped
06 [4e3ad67b|2dd96422] (0+4/4) Accurately ripped
07 [3bae86c9|c2320eb1] (0+4/4) Accurately ripped
08 [fa9fac72|8ebb186e] (0+4/4) Accurately ripped
09 [b6ed5cb4|7527bfcb] (0+4/4) Accurately ripped
10 [345b6c08|e6609eb5] (0+4/4) Accurately ripped
11 [cdae5f39|4aa30bc7] (0+4/4) Accurately ripped
12 [6c9e417d|93a1c5fc] (0+4/4) Accurately ripped
13 [5bcef939|5c207861] (0+4/4) Accurately ripped
14 [5ed9dcae|c2044413] (0+4/4) Accurately ripped
15 [a4b71c5a|6d5b828f] (0+4/4) Accurately ripped
16 [753aa610|ac79496b] (0+4/4) Accurately ripped
17 [a54ca695|c79fdea3] (0+4/4) Accurately ripped
18 [c6cab341|f9b0f212] (0+4/4) Accurately ripped
19 [647b1aca|b247875e] (0+4/4) Accurately ripped
20 [bfdd9827|ca0698b1] (0+4/4) Accurately ripped
21 [cf2c2465|56315855] (0+4/4) Accurately ripped
22 [9d139362|7090aeea] (0+4/4) Accurately ripped
23 [7c0b2bbf|9d752d47] (0+4/4) Accurately ripped
24 [4c63ea44|2012b79a] (0+4/4) Accurately ripped
25 [227f6497|1419be37] (0+4/4) Accurately ripped

Track Peak [ CRC32 ] [W/O NULL] [ LOG ]
– 100,0 [70D91EA8] [FF5BA99F] CRC32
01 100,0 [3FF03711] [35EC8E8A]
02 100,0 [064F5454] [30089F1B]
03 100,0 [47501D71] [CA86E282]
04 99,8 [EDF80E7B] [A3D58480]
05 100,0 [FD713773] [186A58E6]
06 100,0 [74F29033] [1BA4133C]
07 99,9 [4D6B9A5E] [64F99217]
08 99,9 [034B8207] [1CC8A1E0]
09 99,9 [CFE1EEA2] [CB8670DE]
10 99,9 [C2082A56] [37265F5D]
11 99,7 [A08CF265] [F560789D]
12 99,9 [05C156C3] [ABFC5461]
13 99,9 [D7490C2B] [2E6D535E]
14 100,0 [2077F16F] [F793A10A]
15 99,6 [FCE7B016] [0779E3A5]
16 100,0 [98E3E0FE] [575BF70F]
17 100,0 [8E1D668B] [F6B4E352]
18 99,4 [18581D14] [A48FD944]
19 99,5 [3DEB2591] [E935C1F2]
20 100,0 [92277285] [2F5B5CB2]
21 99,4 [1936DD3F] [BB9A4E3D]
22 100,0 [EDF197E5] [0126373E]
23 99,9 [8CA24018] [F1E77015]
24 99,9 [3AB9D225] [CF83A39C]
25 100,0 [FFEAEA62] [CAE7233C]

Exact Audio Copy V0.99 prebeta 5 from 4. May 2009

EAC extraction logfile from 13. October 2010, 21:23

Red Nichols / Quadromania (disc 4)

Used drive : PIONEER DVD-RW DVR-111D Adapter: 1 ID: 0

Read mode : Secure
Utilize accurate stream : Yes
Defeat audio cache : Yes
Make use of C2 pointers : No

Read offset correction : 48
Overread into Lead-In and Lead-Out : No
Fill up missing offset samples with silence : Yes
Delete leading and trailing silent blocks : No
Null samples used in CRC calculations : Yes
Used interface : Native Win32 interface for Win NT & 2000

Used output format : Internal WAV Routines
Sample format : 44.100 Hz; 16 Bit; Stereo


TOC of the extracted CD

Track | Start | Length | Start sector | End sector
––––––––––––––––––––––––––––-
1 | 0:00.00 | 3:05.72 | 0 | 13946
2 | 3:05.72 | 2:23.68 | 13947 | 24739
3 | 5:29.65 | 3:03.42 | 24740 | 38506
4 | 8:33.32 | 2:34.43 | 38507 | 50099
5 | 11:08.00 | 3:03.40 | 50100 | 63864
6 | 14:11.40 | 2:55.08 | 63865 | 76997
7 | 17:06.48 | 2:24.33 | 76998 | 87830
8 | 19:31.06 | 2:39.22 | 87831 | 99777
9 | 22:10.28 | 2:54.15 | 99778 | 112842
10 | 25:04.43 | 2:24.71 | 112843 | 123713
11 | 27:29.39 | 3:36.32 | 123714 | 139945
12 | 31:05.71 | 3:11.18 | 139946 | 154288
13 | 34:17.14 | 2:53.19 | 154289 | 167282
14 | 37:10.33 | 2:41.72 | 167283 | 179429
15 | 39:52.30 | 2:56.53 | 179430 | 192682
16 | 42:49.08 | 3:14.65 | 192683 | 207297
17 | 46:03.73 | 2:38.56 | 207298 | 219203
18 | 48:42.54 | 5:45.69 | 219204 | 245147


Range status and errors

Selected range

Filename S:\Q U A D R O M A N I A\Red Nichols - Quadromania (disc 4).wav

Peak level 100.0 %
Range quality 100.0 %
Test CRC 23367E1C
Copy CRC 23367E1C
Copy OK

No errors occurred


AccurateRip summary

Track 1 not present in database
Track 2 not present in database
Track 3 not present in database
Track 4 not present in database
Track 5 not present in database
Track 6 not present in database
Track 7 not present in database
Track 8 not present in database
Track 9 not present in database
Track 10 not present in database
Track 11 not present in database
Track 12 not present in database
Track 13 not present in database
Track 14 not present in database
Track 15 not present in database
Track 16 not present in database
Track 17 not present in database
Track 18 not present in database

None of the tracks are present in the AccurateRip database

End of status report

[CUETools log; Date: 23.05.2018 14:08:25; Version: 2.1.4]
[CTDB TOCID: 9sN9ergWCrkge329bpEixjdpFJU-] found.
Track | CTDB Status
1 | (4/4) Accurately ripped
2 | (4/4) Accurately ripped
3 | (4/4) Accurately ripped
4 | (4/4) Accurately ripped
5 | (4/4) Accurately ripped
6 | (4/4) Accurately ripped
7 | (4/4) Accurately ripped
8 | (4/4) Accurately ripped
9 | (4/4) Accurately ripped
10 | (4/4) Accurately ripped
11 | (4/4) Accurately ripped
12 | (4/4) Accurately ripped
13 | (4/4) Accurately ripped
14 | (4/4) Accurately ripped
15 | (4/4) Accurately ripped
16 | (4/4) Accurately ripped
17 | (4/4) Accurately ripped
18 | (4/4) Accurately ripped
[AccurateRip ID: 00218864-01c15648-ef0cc412] found.
Track [ CRC | V2 ] Status
01 [4f67ae28|21d61ce2] (0+4/4) Accurately ripped
02 [d30665c8|27ea2869] (0+4/4) Accurately ripped
03 [5bf18764|1aa20535] (0+4/4) Accurately ripped
04 [2c3685e0|4f7eee67] (0+4/4) Accurately ripped
05 [7cbd2042|5704c957] (0+4/4) Accurately ripped
06 [1717bd3a|b522d7b9] (0+4/4) Accurately ripped
07 [e4013a0d|eacbbfb0] (0+4/4) Accurately ripped
08 [c4b78e03|fdb39755] (0+4/4) Accurately ripped
09 [a1be9d0c|de10f15a] (0+4/4) Accurately ripped
10 [b99a7a50|61c5aa84] (0+4/4) Accurately ripped
11 [48cc917d|21e60dcd] (0+4/4) Accurately ripped
12 [20bfae1e|9ba3bf9a] (0+4/4) Accurately ripped
13 [dc7a0857|d656bfda] (0+4/4) Accurately ripped
14 [8742dc14|38254a33] (0+4/4) Accurately ripped
15 [89c4fdff|013a3a50] (0+4/4) Accurately ripped
16 [95189087|8c1dcd9b] (0+4/4) Accurately ripped
17 [d9a45cab|7f876337] (0+4/4) Accurately ripped
18 [d131f4c6|db88c23d] (0+4/4) Accurately ripped

Track Peak [ CRC32 ] [W/O NULL] [ LOG ]
– 100,0 [23367E1C] [A4065BBB] CRC32
01 99,4 [8427976E] [8226177E]
02 100,0 [A1B60F80] [42DCA521]
03 100,0 [AE45B9D9] [2C42CDEE]
04 99,5 [E9C784B9] [14338D1C]
05 98,9 [21654F00] [1B5CF3DD]
06 99,9 [13E31CF5] [F38F0A4B]
07 99,9 [2A4723FA] [F5CB9AA6]
08 97,2 [B7CBA99E] [16CB27B1]
09 98,6 [97E486D6] [2B87B41B]
10 99,4 [FA58AD97] [8BA410CF]
11 97,6 [A3D6059C] [CE85D2E1]
12 99,6 [5E9C5BF3] [864A011E]
13 100,0 [4F25D51A] [00A0600C]
14 99,8 [0EF6B632] [6AFA6E46]
15 99,9 [E683C11A] [D9B10EB1]
16 100,0 [29B14173] [163B61CA]
17 99,5 [CF367F37] [0B767A67]
18 99,9 [249850F5] [996C59ED]

Thanks to papa1954

See also:
Red Nichols - 1929 (2003)