Subcategories

Red Sand - 1759 (2016) (Repost)

Posted By: gribovar
Red Sand - 1759 (2016) (Repost)

Red Sand - 1759 (2016)
EAC Rip | FLAC (tracks+.cue+log) - 193 MB | MP3 CBR 320 kbps (LAME 3.93) - 97 MB | Covers - 32 MB
Genre: Neo-Progressive Rock | RAR 3% Rec. | Label: SPBN Music (SPBN 007)

Red Sand was created by guitarist Simon Caron. At age 18, he started a couple of progressive rock bands and then left the music scene for a while. Unable to stay away from prog very long, however, he started to write again, searched for a band to perform his music and was soon surrounded by seasoned musicians most willing to oblige. Thus Red Sand was born. What strikes the listener is how "early-Marillion" the band sounds without seeming to imitate them. The compositional style, breaks and moods, the Rothery-like guitar play and the Nolan-like keyboard flights all contribute to this impression - even the albums' artwork bears that early Marillion touch; yet for some reason, it all sounds very much Red Sand. Well produced and expertly crafted, their music flows naturally and the themes blend into one another with remarkable ease. The lyrics never sound forced or imitative (the vocalist sings in English but doesn't sound at all like Fish). The band may not offer anything original in terms of style, but they do deliver first-rate neo prog that oozes charm, refinement and professionalism.

Tracklist:
01. Soldiers
02. My Mind
03. The Last Farewell
Part I: The Beginning
Part II: The Meeting
Part III: The Final Punishment

Total time: 41:16

Exact Audio Copy V1.0 beta 3 from 29. August 2011

EAC extraction logfile from 20. January 2018, 16:06

Red Sand / 1759

Used drive : HL-DT-STDVDRAM GH24NSB0 Adapter: 3 ID: 0

Read mode : Secure
Utilize accurate stream : Yes
Defeat audio cache : Yes
Make use of C2 pointers : No

Read offset correction : 6
Overread into Lead-In and Lead-Out : No
Fill up missing offset samples with silence : Yes
Delete leading and trailing silent blocks : No
Null samples used in CRC calculations : Yes
Used interface : Native Win32 interface for Win NT & 2000
Gap handling : Appended to previous track

Used output format : User Defined Encoder
Selected bitrate : 128 kBit/s
Quality : High
Add ID3 tag : No
Command line compressor : C:\Program Files\Exact Audio Copy\FLAC\FLAC.EXE
Additional command line options : -8 -V -T "ARTIST=%artist%" -T "TITLE=%title%" -T "ALBUM=%albumtitle%" -T "DATE=%year%" -T "TRACKNUMBER=%tracknr%" -T "TOTALTRACKS=%numtracks%" -T "GENRE=%genre%" -T "ALBUMARTIST=%albumartist%" -T "ALBUM ARTIST=%albumartist%" -T "COMMENT=EAC Secure Mode, Test & Copy, AccurateRip, FLAC -8" %source%


TOC of the extracted CD

Track | Start | Length | Start sector | End sector
––––––––––––––––––––––––––––-
1 | 0:00.00 | 5:42.10 | 0 | 25659
2 | 5:42.10 | 15:56.73 | 25660 | 97432
3 | 21:39.08 | 19:40.54 | 97433 | 185986


Track 1

Filename G:\Veushka\Red Sand ‎– 1759 (2016) [FLAC] {SPBN 007}\01 - Soldiers.wav

Pre-gap length 0:00:02.00

Peak level 98.6 %
Extraction speed 1.1 X
Track quality 100.0 %
Test CRC C9C06C5C
Copy CRC C9C06C5C
Accurately ripped (confidence 3) [81D9E7E9] (AR v2)
Copy OK

Track 2

Filename G:\Veushka\Red Sand ‎– 1759 (2016) [FLAC] {SPBN 007}\02 - My mind.wav

Pre-gap length 0:00:02.00

Peak level 98.6 %
Extraction speed 1.5 X
Track quality 100.0 %
Test CRC 27D3B627
Copy CRC 27D3B627
Accurately ripped (confidence 3) [A5F725A3] (AR v2)
Copy OK

Track 3

Filename G:\Veushka\Red Sand ‎– 1759 (2016) [FLAC] {SPBN 007}\03 - The last farewell.wav

Pre-gap length 0:00:02.00

Peak level 98.6 %
Extraction speed 1.9 X
Track quality 100.0 %
Test CRC EF32A820
Copy CRC EF32A820
Accurately ripped (confidence 3) [BE14753E] (AR v2)
Copy OK


All tracks accurately ripped

No errors occurred

End of status report

–– CUETools DB Plugin V2.1.3

[CTDB TOCID: NyUTlbaguur7BYOW6qG3.g2nOpA-] found, Submit result: already submitted
[b4162089] (5/5) Accurately ripped


==== Log checksum DE30A840ADFE8D80480ACA87D8856CEE1307E6160C3180FA1D58DFC4DA96021F ====

[CUETools log; Date: 15.02.2020 0:10:22; Version: 2.1.4]
[CTDB TOCID: NyUTlbaguur7BYOW6qG3.g2nOpA-] found.
Track | CTDB Status
1 | (5/5) Accurately ripped
2 | (5/5) Accurately ripped
3 | (5/5) Accurately ripped
[AccurateRip ID: 0004b758-00109850-1209af03] found.
Track [ CRC | V2 ] Status
01 [f4fbec1c|81d9e7e9] (0+3/3) Accurately ripped
02 [01ead463|a5f725a3] (0+3/3) Accurately ripped
03 [68e3008d|be14753e] (0+3/3) Accurately ripped

Track Peak [ CRC32 ] [W/O NULL] [ LOG ]
– 98,6 [F2F0C423] [756F5796]
01 98,6 [C9C06C5C] [26172504] CRC32
02 98,6 [27D3B627] [3D299415] CRC32
03 98,6 [EF32A820] [D95DDE74] CRC32

Thanks to veushka