Tags
Language
Tags

Reef - In Motion: Live From Hammersmith (2019) [CD + Blu-ray] Re-up

Posted By: v3122
Reef - In Motion: Live From Hammersmith (2019) [CD + Blu-ray] Re-up

Reef - In Motion: Live From Hammersmith (2019)
EAC | Flac(Image) + Cue + Log & MP3 CBR 320Kbps
Ear Music, 0213772EMU | ~ 547 or 186 Mb | Artwork(png) -> 199 Mb
Blu-ray: MPEG-4 AVC, 1080i, 29.970 fps, 16:9, High Profile 4.1
LPCM 2.0, 48 kHz, 24-bit / DTS-HD Master Audio 5.1, 48 kHz, 24-bit
Blues / Hard / Altrnative Rock

In 2018, Reef released their stunning album “Revelation”, the first in 18 years, and are now continuing their comeback with the live album “In Motion (Live From Hammersmith)”.

The show was recorded on May 6th at the legendary Hammersmith Apollo in London as part of the “Britrock Must Be Destroyed Tour” (amongst other 90’s britrock legends like Terrorvision and The Wildhearts).

Reef were the last act to grace the stage on that night, and after knocking out “Place Your Hands”, the band almost immediately settled into the joyous soulful rhythm of the first single from the latest album “Revelation” before a magnificent performance of the duet “My Sweet Love” with their backing singer taking over Sheryl Crow’s part.

This energetic show is a mix of classics such as “Naked” and “Summer’s In Bloom” and new songs from the highly acclaimed comeback album “Revelation” – including the title track, the heavy rocker “Precious Metal”, and the gospel-infused smash hit “How I Got Over”…

~ therockpit.net
Reef - In Motion: Live From Hammersmith (2019):

Reef - In Motion: Live From Hammersmith (2019) [CD + Blu-ray] Re-up

Tracklist CD:

01. Higher Vibration (5:17)
02. Place Your Hands (3:38)
03. Stone for Your Love (3:08)
04. First Mistake (5:53)
05. Consideration (6:02)
06. How I Got Over (6:06)
07. My Sweet Love (4:50)
08. I Would Have Left You (5:39)
09. I've Got Something to Say (4:44)
10. Come Back Brighter (4:00)
11. Precious Metal (4:02)
12. Don't You Like It? (8:23)
13. Naked (3:34)
14. Summer's in Bloom (4:12)
15. Revelation (3:25)
16. Yer Old (3:18)
17. End (2:23)

Exact Audio Copy V1.3 from 2. September 2016

EAC extraction logfile from 11. March 2019, 17:09

Reef / In Motion (Live From Hammersmith)

Used drive : HL-DT-STBD-RE WH16NS40 Adapter: 1 ID: 0

Read mode : Secure
Utilize accurate stream : Yes
Defeat audio cache : Yes
Make use of C2 pointers : No

Read offset correction : 6
Overread into Lead-In and Lead-Out : No
Fill up missing offset samples with silence : Yes
Delete leading and trailing silent blocks : No
Null samples used in CRC calculations : Yes
Used interface : Native Win32 interface for Win NT & 2000

Used output format : User Defined Encoder
Selected bitrate : 768 kBit/s
Quality : High
Add ID3 tag : No
Command line compressor : C:\Program Files (x86)\Exact Audio Copy\Wavpack\wavpack.exe
Additional command line options : -hm %source% %dest%


TOC of the extracted CD

Track | Start | Length | Start sector | End sector
––––––––––––––––––––––––––––-
1 | 0:00.00 | 5:17.28 | 0 | 23802
2 | 5:17.28 | 3:38.03 | 23803 | 40155
3 | 8:55.31 | 3:07.43 | 40156 | 54223
4 | 12:02.74 | 5:52.46 | 54224 | 80669
5 | 17:55.45 | 6:01.67 | 80670 | 107811
6 | 23:57.37 | 6:06.38 | 107812 | 135299
7 | 30:04.00 | 4:49.57 | 135300 | 157031
8 | 34:53.57 | 5:39.04 | 157032 | 182460
9 | 40:32.61 | 4:44.05 | 182461 | 203765
10 | 45:16.66 | 4:00.00 | 203766 | 221765
11 | 49:16.66 | 4:01.51 | 221766 | 239891
12 | 53:18.42 | 8:22.61 | 239892 | 277602
13 | 61:41.28 | 3:33.69 | 277603 | 293646
14 | 65:15.22 | 4:12.15 | 293647 | 312561
15 | 69:27.37 | 3:24.74 | 312562 | 327935
16 | 72:52.36 | 3:17.72 | 327936 | 342782
17 | 76:10.33 | 2:23.10 | 342783 | 353517


Range status and errors

Selected range

Filename E:\_NL+_\_CD\Reef - In Motion (Live From Hammersmith).wav

Peak level 100.0 %
Extraction speed 3.9 X
Range quality 100.0 %
Test CRC 44E7D924
Copy CRC 44E7D924
Copy OK

No errors occurred


AccurateRip summary

Track 1 not present in database
Track 2 not present in database
Track 3 not present in database
Track 4 not present in database
Track 5 not present in database
Track 6 not present in database
Track 7 not present in database
Track 8 not present in database
Track 9 not present in database
Track 10 not present in database
Track 11 not present in database
Track 12 not present in database
Track 13 not present in database
Track 14 not present in database
Track 15 not present in database
Track 16 not present in database
Track 17 not present in database

None of the tracks are present in the AccurateRip database

End of status report

–– CUETools DB Plugin V2.1.6

[CTDB TOCID: _qvI8_zFjO4B.VgryLcSN0TL_hE-] found
Submit result: _qvI8_zFjO4B.VgryLcSN0TL_hE- has been confirmed
Track | CTDB Status
1 | (4/4) Accurately ripped
2 | (4/4) Accurately ripped
3 | (4/4) Accurately ripped
4 | (4/4) Accurately ripped
5 | (4/4) Accurately ripped
6 | (4/4) Accurately ripped
7 | (4/4) Accurately ripped
8 | (4/4) Accurately ripped
9 | (4/4) Accurately ripped
10 | (4/4) Accurately ripped
11 | (4/4) Accurately ripped
12 | (4/4) Accurately ripped
13 | (4/4) Accurately ripped
14 | (4/4) Accurately ripped
15 | (4/4) Accurately ripped
16 | (4/4) Accurately ripped
17 | (3/4) Accurately ripped


==== Log checksum 16D30A4F25BA62BB3E6E88EC4569FB6ACF67D6733FB7E34B216562733372179B ====


[CUETools log; Date: 30.03.2019 12:37:48; Version: 2.1.4]
[AccurateRip ID: 00333133-02883afa-00126911] disk not present in database.

Track Peak [ CRC32 ] [W/O NULL] [ LOG ]
– 100,0 [44E7D924] [865C6C4E] CRC32
01 100,0 [8E96A769] [C5772321]
02 100,0 [911129EC] [121DAE2A]
03 100,0 [4341C72D] [1F29708A]
04 100,0 [337C702B] [94F1E566]
05 100,0 [22194F9B] [871ED512]
06 100,0 [866E9098] [9F6D934D]
07 100,0 [AEB6A27B] [4480BB39]
08 100,0 [B516FE45] [C6108770]
09 100,0 [47EF144E] [BF574830]
10 100,0 [B0F9BECC] [1C58A613]
11 100,0 [45A1B27A] [153F968E]
12 100,0 [F0CF9C2A] [8E3C008E]
13 100,0 [779C4059] [5544D9E7]
14 100,0 [B5FF437A] [7E333504]
15 100,0 [1839A916] [88BC4D73]
16 100,0 [3864600B] [1C70A6E9]
17 100,0 [42867782] [C636FDD6]


Reef - In Motion: Live From Hammersmith (2019) [CD + Blu-ray] Re-up

Tracklist BD:

Higher Vibration
Place Your Hands
Stone For Your Love
First Mistake
Consideration
How I Got Over
My Sweet Love
I Would Have Left You
I’ve Got Something To Say
Come Back Brighter
Precious Metal
Don’t You Like It?
Naked
Yer Old
End

Disc Title: REEF IN MOTION
Disc Size: 20 623 814 737 bytes
Protection: AACS
BD-Java: Yes
BDInfo: 0.7.3.3

Notes:

BDINFO HOME:
Cinema Squid
http://www.cinemasquid.com/blu-ray/tools/bdinfo

INCLUDES FORUMS REPORT FOR:
AVS Forum Blu-ray Audio and Video Specifications Thread
http://www.avsforum.com/avs-vb/showthread.php?t=1155731

WARNING: Report is incomplete because: Scan has not been run.

********************
PLAYLIST: 01101.MPLS
********************

<–- BEGIN FORUMS PASTE –->
                                                                                                                Total   Video                                             
Title                                                           Codec   Length  Movie Size      Disc Size       Bitrate Bitrate Main Audio Track                          Secondary Audio Track
-----                                                           ------  ------- --------------  --------------  ------- ------- ------------------                        ---------------------
01101.MPLS                                                      AVC     1:10:11 0               20 623 814 737  0,00    0,00    LPCM 2.0 2304Kbps (48kHz/24-bit)          DTS-HD Master 5.1 (48kHz/24-bit)


DISC INFO:

Disc Title:     REEF IN MOTION
Disc Size:      20 623 814 737 bytes
Protection:     AACS
BD-Java:        Yes
BDInfo:         0.7.3.3

PLAYLIST REPORT:

Name:                   01101.MPLS
Length:                 1:10:11.040 (h:m:s.ms)
Size:                   0 bytes
Total Bitrate:          0,00 Mbps

VIDEO:

Codec                   Bitrate             Description     
-----                   -------             -----------     
MPEG-4 AVC Video        0 kbps              1080i / 29,970 fps / 16:9 / High Profile 4.1

AUDIO:

Codec                           Language        Bitrate         Description     
-----                           --------        -------         -----------     
LPCM Audio                      English         2304 kbps       2.0 / 48 kHz / 2304 kbps / 24-bit
DTS-HD Master Audio             English         0 kbps          5.1 / 48 kHz / 24-bit (DTS Core: 5.1 / 48 kHz / 1509 kbps / 24-bit)

FILES:

Name            Time In         Length          Size            Total Bitrate   
----            -------         ------          ----            -------------   
00002.M2TS      0:00:00.000     1:10:10.539     0               0               
00003.M2TS      1:10:10.539     0:00:00.500     0               0               

CHAPTERS:

Number          Time In         Length          Avg Video Rate  Max 1-Sec Rate  Max 1-Sec Time  Max 5-Sec Rate  Max 5-Sec Time  Max 10Sec Rate  Max 10Sec Time  Avg Frame Size  Max Frame Size  Max Frame Time  
------          -------         ------          --------------  --------------  --------------  --------------  --------------  --------------  --------------  --------------  --------------  --------------  
1               0:00:00.000     0:05:25.491     0 kbps          0 kbps          00:00:00.000    0 kbps          00:00:00.000    0 kbps          00:00:00.000    0 bytes         0 bytes         00:00:00.000    
2               0:05:25.491     0:03:36.950     0 kbps          0 kbps          00:00:00.000    0 kbps          00:00:00.000    0 kbps          00:00:00.000    0 bytes         0 bytes         00:00:00.000    
3               0:09:02.441     0:03:13.226     0 kbps          0 kbps          00:00:00.000    0 kbps          00:00:00.000    0 kbps          00:00:00.000    0 bytes         0 bytes         00:00:00.000    
4               0:12:15.668     0:05:39.505     0 kbps          0 kbps          00:00:00.000    0 kbps          00:00:00.000    0 kbps          00:00:00.000    0 bytes         0 bytes         00:00:00.000    
5               0:17:55.174     0:06:01.027     0 kbps          0 kbps          00:00:00.000    0 kbps          00:00:00.000    0 kbps          00:00:00.000    0 bytes         0 bytes         00:00:00.000    
6               0:23:56.201     0:05:15.248     0 kbps          0 kbps          00:00:00.000    0 kbps          00:00:00.000    0 kbps          00:00:00.000    0 bytes         0 bytes         00:00:00.000    
7               0:29:11.449     0:04:43.583     0 kbps          0 kbps          00:00:00.000    0 kbps          00:00:00.000    0 kbps          00:00:00.000    0 bytes         0 bytes         00:00:00.000    
8               0:33:55.033     0:05:33.266     0 kbps          0 kbps          00:00:00.000    0 kbps          00:00:00.000    0 kbps          00:00:00.000    0 bytes         0 bytes         00:00:00.000    
9               0:39:28.299     0:04:33.006     0 kbps          0 kbps          00:00:00.000    0 kbps          00:00:00.000    0 kbps          00:00:00.000    0 bytes         0 bytes         00:00:00.000    
10              0:44:01.305     0:03:54.033     0 kbps          0 kbps          00:00:00.000    0 kbps          00:00:00.000    0 kbps          00:00:00.000    0 bytes         0 bytes         00:00:00.000    
11              0:47:55.339     0:04:03.876     0 kbps          0 kbps          00:00:00.000    0 kbps          00:00:00.000    0 kbps          00:00:00.000    0 bytes         0 bytes         00:00:00.000    
12              0:51:59.216     0:08:21.467     0 kbps          0 kbps          00:00:00.000    0 kbps          00:00:00.000    0 kbps          00:00:00.000    0 bytes         0 bytes         00:00:00.000    
13              1:00:20.683     0:03:36.015     0 kbps          0 kbps          00:00:00.000    0 kbps          00:00:00.000    0 kbps          00:00:00.000    0 bytes         0 bytes         00:00:00.000    
14              1:03:56.699     0:03:26.105     0 kbps          0 kbps          00:00:00.000    0 kbps          00:00:00.000    0 kbps          00:00:00.000    0 bytes         0 bytes         00:00:00.000    
15              1:07:22.805     0:01:57.984     0 kbps          0 kbps          00:00:00.000    0 kbps          00:00:00.000    0 kbps          00:00:00.000    0 bytes         0 bytes         00:00:00.000    
16              1:09:20.789     0:00:50.250     0 kbps          0 kbps          00:00:00.000    0 kbps          00:00:00.000    0 kbps          00:00:00.000    0 bytes         0 bytes         00:00:00.000    

STREAM DIAGNOSTICS:

File            PID             Type            Codec           Language                Seconds                 Bitrate                 Bytes           Packets         
----            ---             ----            -----           --------                --------------          --------------          -------------   -----           
00002.M2TS      4113 (0x1011)   0x1B            AVC                                     0,701                   0                       0               0               
00002.M2TS      4352 (0x1100)   0x80            LPCM            eng (English)           0,701                   0                       0               0               
00002.M2TS      4353 (0x1101)   0x86            DTS-HD MA       eng (English)           0,701                   0                       0               0               
00003.M2TS      4113 (0x1011)   0x1B            AVC                                     0                       0                       0               0               

<–– END FORUMS PASTE ––>

QUICK SUMMARY:

Disc Title: REEF IN MOTION
Disc Size: 20 623 814 737 bytes
Protection: AACS
BD-Java: Yes
Playlist: 01101.MPLS
Size: 0 bytes
Length: 1:10:11.040
Total Bitrate: 0,00 Mbps
Video: MPEG-4 AVC Video / 0 kbps / 1080i / 29,970 fps / 16:9 / High Profile 4.1
Audio: English / LPCM Audio / 2.0 / 48 kHz / 2304 kbps / 24-bit
Audio: English / DTS-HD Master Audio / 5.1 / 48 kHz / 24-bit (DTS Core: 5.1 / 48 kHz / 1509 kbps / 24-bit)


********************
PLAYLIST: 00002.MPLS
********************

<–- BEGIN FORUMS PASTE –->
                                                                                                                Total   Video                                             
Title                                                           Codec   Length  Movie Size      Disc Size       Bitrate Bitrate Main Audio Track                          Secondary Audio Track
-----                                                           ------  ------- --------------  --------------  ------- ------- ------------------                        ---------------------
00002.MPLS                                                      AVC     1:10:10 0               20 623 814 737  0,00    0,00    LPCM 2.0 2304Kbps (48kHz/24-bit)          DTS-HD Master 5.1 (48kHz/24-bit)


DISC INFO:

Disc Title:     REEF IN MOTION
Disc Size:      20 623 814 737 bytes
Protection:     AACS
BD-Java:        Yes
BDInfo:         0.7.3.3

PLAYLIST REPORT:

Name:                   00002.MPLS
Length:                 1:10:10.539 (h:m:s.ms)
Size:                   0 bytes
Total Bitrate:          0,00 Mbps

VIDEO:

Codec                   Bitrate             Description     
-----                   -------             -----------     
MPEG-4 AVC Video        0 kbps              1080i / 29,970 fps / 16:9 / High Profile 4.1

AUDIO:

Codec                           Language        Bitrate         Description     
-----                           --------        -------         -----------     
LPCM Audio                      English         2304 kbps       2.0 / 48 kHz / 2304 kbps / 24-bit
DTS-HD Master Audio             English         0 kbps          5.1 / 48 kHz / 24-bit (DTS Core: 5.1 / 48 kHz / 1509 kbps / 24-bit)

FILES:

Name            Time In         Length          Size            Total Bitrate   
----            -------         ------          ----            -------------   
00002.M2TS      0:00:00.000     1:10:10.539     0               0               

CHAPTERS:

Number          Time In         Length          Avg Video Rate  Max 1-Sec Rate  Max 1-Sec Time  Max 5-Sec Rate  Max 5-Sec Time  Max 10Sec Rate  Max 10Sec Time  Avg Frame Size  Max Frame Size  Max Frame Time  
------          -------         ------          --------------  --------------  --------------  --------------  --------------  --------------  --------------  --------------  --------------  --------------  
1               0:00:00.000     1:10:10.539     0 kbps          0 kbps          00:00:00.000    0 kbps          00:00:00.000    0 kbps          00:00:00.000    0 bytes         0 bytes         00:00:00.000    

STREAM DIAGNOSTICS:

File            PID             Type         			  		  		  	 			   		  	   		   	  		 	 	  	 			   		   	  		 			  		 			  	 			   		   	  		 			  		   				    Codec           Language                Seconds                 Bitrate                 Bytes           Packets         
----            ---             ----            -----           --------                --------------          --------------          -------------   -----           
00002.M2TS      4113 (0x1011)   0x1B            AVC                                     0,701                   0                       0               0               
00002.M2TS      4352 (0x1100)   0x80            LPCM            eng (English)           0,701                   0                       0               0               
00002.M2TS      4353 (0x1101)   0x86            DTS-HD MA       eng (English)           0,701                   0                       0               0               

<–– END FORUMS PASTE ––>

QUICK SUMMARY:

Disc Title: REEF IN MOTION
Disc Size: 20 623 814 737 bytes
Protection: AACS
BD-Java: Yes
Playlist: 00002.MPLS
Size: 0 bytes
Length: 1:10:10.539
Total Bitrate: 0,00 Mbps
Video: MPEG-4 AVC Video / 0 kbps / 1080i / 29,970 fps / 16:9 / High Profile 4.1
Audio: English / LPCM Audio / 2.0 / 48 kHz / 2304 kbps / 24-bit
Audio: English / DTS-HD Master Audio / 5.1 / 48 kHz / 24-bit (DTS Core: 5.1 / 48 kHz / 1509 kbps / 24-bit)


********************
PLAYLIST: 00001.MPLS
********************

<–- BEGIN FORUMS PASTE –->
                                                                                                                Total   Video                                             
Title                                                           Codec   Length  Movie Size      Disc Size       Bitrate Bitrate Main Audio Track                          Secondary Audio Track
-----                                                           ------  ------- --------------  --------------  ------- ------- ------------------                        ---------------------
00001.MPLS                                                      AVC     0:01:03 0               20 623 814 737  0,00    0,00    LPCM 2.0 1536Kbps (48kHz/16-bit)          


DISC INFO:

Disc Title:     REEF IN MOTION
Disc Size:      20 623 814 737 bytes
Protection:     AACS
BD-Java:        Yes
BDInfo:         0.7.3.3

PLAYLIST REPORT:

Name:                   00001.MPLS
Length:                 0:01:03.296 (h:m:s.ms)
Size:                   0 bytes
Total Bitrate:          0,00 Mbps

VIDEO:

Codec                   Bitrate             Description     
-----                   -------             -----------     
MPEG-4 AVC Video        0 kbps              1080i / 29,970 fps / 16:9 / High Profile 4.1

AUDIO:

Codec                           Language        Bitrate         Description     
-----                           --------        -------         -----------     
LPCM Audio                      Undetermined    1536 kbps       2.0 / 48 kHz / 1536 kbps / 16-bit

FILES:

Name            Time In         Length          Size            Total Bitrate   
----            -------         ------          ----            -------------   
00001.M2TS      0:00:00.000     0:01:03.296     0               0               

CHAPTERS:

Number          Time In         Length          Avg Video Rate  Max 1-Sec Rate  Max 1-Sec Time  Max 5-Sec Rate  Max 5-Sec Time  Max 10Sec Rate  Max 10Sec Time  Avg Frame Size  Max Frame Size  Max Frame Time  
------          -------         ------          --------------  --------------  --------------  --------------  --------------  --------------  --------------  --------------  --------------  --------------  
1               0:00:00.000     0:01:03.296     0 kbps          0 kbps          00:00:00.000    0 kbps          00:00:00.000    0 kbps          00:00:00.000    0 bytes         0 bytes         00:00:00.000    

STREAM DIAGNOSTICS:

File            PID             Type            Codec           Language                Seconds                 Bitrate                 Bytes           Packets         
----            ---             ----            -----           --------                --------------          --------------          -------------   -----           
00001.M2TS      4113 (0x1011)   0x1B            AVC                                     0,634                   0                       0               0               
00001.M2TS      4352 (0x1100)   0x80            LPCM            und (Undetermined)      0,634                   0                       0               0               

<–– END FORUMS PASTE ––>

QUICK SUMMARY:

Disc Title: REEF IN MOTION
Disc Size: 20 623 814 737 bytes
Protection: AACS
BD-Java: Yes
Playlist: 00001.MPLS
Size: 0 bytes
Length: 0:01:03.296
Total Bitrate: 0,00 Mbps
Video: MPEG-4 AVC Video / 0 kbps / 1080i / 29,970 fps / 16:9 / High Profile 4.1
Audio: Undetermined / LPCM Audio / 2.0 / 48 kHz / 1536 kbps / 16-bit



Reef - In Motion: Live From Hammersmith (2019) [CD + Blu-ray] Re-up

Reef - In Motion: Live From Hammersmith (2019) [CD + Blu-ray] Re-up

Reef - In Motion: Live From Hammersmith (2019) [CD + Blu-ray] Re-up

All thanks go to CoJIHbIIIIK

Reef in my Blog

Download Reef - In Motion: Live From Hammersmith (2019):