Tags
Language
Tags

Régine Crespin - Ravel, Satie: Songs (1998)

Posted By: tirexiss
Régine Crespin - Ravel, Satie: Songs (1998)

Régine Crespin - Ravel, Satie: Songs (1998)
EAC | FLAC (image+.cue, log) | Covers Included | 54:43 | 280 MB
Genre: Classical, Vocal | Label: Sony Classical | Catalog: 60577

The now-retired Régine Crespin is easily the greatest soprano voice to come out of France since World War II, notable not just for its body and luster but for such an effortless sense of line that you're never aware of the individual notes, only the overall musical idea they're meant to create. This was recorded a bit late in her career and some wobble is apparent. But her characterization of the words–so important in Ravel's precise animal portraits in Histoires Naturelles–is peerless. Too bad that the Satie songs–in terms of quality–veer between serious endeavors and cabaret toss-offs. The disc is filled out by Crespin's performance of Beethoven's concert aria Ah! Perfido, which illustrates why she was a formidable Tosca in her day. – David Patrick Stearns

Régine Crespin - Ravel, Satie: Songs (1998)

Track List:

01. Histoires naturelles, song cycle for voice & piano: No. 1, "Le paon": "Il va surement se marier aujourd'hui" [0:05:31.07]
02. Histoires naturelles, song cycle for voice & piano: No. 2, "Le grillon": "C'est l'heure ou, las d'errer, linsecte negre revient de promenade" [0:03:40.65]
03. Histoires naturelles, song cycle for voice & piano: No. 3, "Le cygne": "Il glisse sur le bassin, comme un traineau blanc" [0:03:30.60]
04. Histoires naturelles, song cycle for voice & piano: No. 4, "Le martin-pecheur": "Ca n'a pas mordu ce soir, mais je rapporte une rare emotion" [0:02:57.38]
05. Histoires naturelles, song cycle for voice & piano: No. 5, "La pintade": "C'est la bossue de ma cour" [0:03:24.07]
06. Mélodies (3) of 1916: Le Chapelier [0:01:00.28]
07. Tendrement, valse chantée for voice & piano [0:04:17.72]
08. Mélodies (3) of 1916: Daphénéo [0:01:41.50]
09. L' Omnibus automobile [0:04:37.43]
10. Mélodies (3) of 1916: La Statue de bronze [0:01:51.30]
11. Je te veux (I Want You), café-concert song for voice & piano [0:03:59.42]
12. Chanson, song for voice & piano [0:00:51.03]
13. La diva de l'Empire, song for voice & piano [0:03:08.70]
14. New York Philharmonic, Thomas Schippers & Régine Crespin / Ah! perfido! . . . Per pieta, non dirmi addio, scena and aria for soprano & orchestra, Op. 65 [0:14:19.02]

Performers:
Régine Crespin - soprano
Philippe Entremont - piano
New York Philharmonic
Thomas Schippers - conductor

Exact Audio Copy V1.0 beta 3 from 29. August 2011

EAC extraction logfile from 24. June 2013, 13:08

Régine Crespin / Ravel, Satie - Songs - Régine Crespin

Used drive : TSSTcorpCDDVDW SH-222BB Adapter: 2 ID: 1

Read mode : Secure
Utilize accurate stream : Yes
Defeat audio cache : Yes
Make use of C2 pointers : No

Read offset correction : 6
Overread into Lead-In and Lead-Out : No
Fill up missing offset samples with silence : Yes
Delete leading and trailing silent blocks : No
Null samples used in CRC calculations : Yes
Used interface : Native Win32 interface for Win NT & 2000

Used output format : User Defined Encoder
Selected bitrate : 1024 kBit/s
Quality : High
Add ID3 tag : No
Command line compressor : C:\Program Files\Exact Audio Copy\Flac\flac.exe
Additional command line options : -8 -V -T "TITLE=%title%" -T "ARTIST=%artist%" -T "ALBUMARTIST=%albumartist%" -T "ALBUM=%albumtitle%" -T "DATE=%year%" -T "TRACKNUMBER=%tracknr%" -T "TRACKTOTAL=%numtracks%" -T "GENRE=%genre%" -T "COMMENT=%comment%" -T "PERFORMER=%albuminterpret%" -T "COMPOSER=%composer%" %source% -o %dest%


TOC of the extracted CD

Track | Start | Length | Start sector | End sector
––––––––––––––––––––––––––––-
1 | 0:00.00 | 5:31.07 | 0 | 24831
2 | 5:31.07 | 3:40.65 | 24832 | 41396
3 | 9:11.72 | 3:30.60 | 41397 | 57206
4 | 12:42.57 | 2:57.38 | 57207 | 70519
5 | 15:40.20 | 3:24.07 | 70520 | 85826
6 | 19:04.27 | 1:00.28 | 85827 | 90354
7 | 20:04.55 | 4:17.72 | 90355 | 109701
8 | 24:22.52 | 1:41.50 | 109702 | 117326
9 | 26:04.27 | 4:37.43 | 117327 | 138144
10 | 30:41.70 | 1:51.30 | 138145 | 146499
11 | 32:33.25 | 3:59.42 | 146500 | 164466
12 | 36:32.67 | 0:51.03 | 164467 | 168294
13 | 37:23.70 | 3:08.70 | 168295 | 182464
14 | 40:32.65 | 14:19.02 | 182465 | 246891


Range status and errors

Selected range

Filename G:\Ripped general\[3040] Ravel, Satie – Songs – Régine Crespin\Ravel, Satie - Songs - Régine Crespin.wav

Peak level 97.7 %
Extraction speed 6.9 X
Range quality 100.0 %
Test CRC 52E9FB00
Copy CRC 52E9FB00
Copy OK

No errors occurred


AccurateRip summary

Track 1 not present in database
Track 2 not present in database
Track 3 not present in database
Track 4 not present in database
Track 5 not present in database
Track 6 not present in database
Track 7 not present in database
Track 8 not present in database
Track 9 not present in database
Track 10 not present in database
Track 11 not present in database
Track 12 not present in database
Track 13 not present in database
Track 14 not present in database

None of the tracks are present in the AccurateRip database

End of status report

Thanks to the Original ripper (unknown)!

Welcome to my blog!

Download: