Tags
Language
Tags

Reinhard Goebel, Musica Antiqua Koln - Georg Philipp Telemann: String Concertos (2000)

Posted By: ArlegZ
Reinhard Goebel, Musica Antiqua Koln - Georg Philipp Telemann: String Concertos (2000)

Reinhard Goebel, Musica Antiqua Köln - Georg Philipp Telemann: String Concertos (2000)
EAC | FLAC | Image (Cue & Log) ~ 361 Mb | Total time: 65:06 | Scans included
Classical | Label: Archiv Produktion | # 463 074-2 | Recorded: 1999

Georg Philipp Telemann's string concertos position themselves somewhere between the polyphonic complexity of the Bach orchestral sinfonias, the urbanity of Handel's concerti grossi, and Vivaldi's innumerable and endlessly delightful works of this type. But his approach always remained the most international as well as the most local. Two of these concertos, for example, exemplify the "Polish" style appropriate for the Electors of Saxony (Telemann's employers, who were also kings of Poland), with their folky rhythms and groaning bass parts. Telemann offers a bit of the French style galant here or Italian theatricality there–he's labeled one of the movements "Arlechinoso"–as the mood and moment suit him. Reinhard Goebel and the Musica Antiqua Köln dress these motleys with typical panache, a liveliness that argues once again for the validity of the period-instruments approach. One can well imagine Telemann hearing his music performed this way and nodding in approval. What the players have brought to Johann David Heinichen and some of the Baroque composers of the Baltic states serves them perfectly here: the conviction that while not all 18th-century music may match Bach's profundity, much of it nevertheless shows us a very good time. And that Telemann, perhaps, can show us the best time of all.
–Robert Burns

Performer:
Musica Antiqua Köln
Conductor - Reinhard Goebel

Track List:
Concerto polonois In G Major For Strings And Basso continuo, TWV 43:G7
01. 1. Dolce
02. 2. Allegro
03. 3. Largo
04. 4. Allegro
Concerto polonois In B Flat Major For Strings And Basso continuo, TWV 43:B3
05. 1. Polonoise
06. 2. Allegro
07. 3. Largo
08. 4. Allegro
Divertimento In A Major For Strings And Basso continuo, TWV 50:22
09. 1. Presto
10. 2. Scherzo I. Gaglierdamente
11. 3. Scherzo II/III/II/IV/II
12. 4. Scherzo V/VI/V
Divertimento In B Flat Major For Strings And Basso continuo, TWV 50:23
13. 1. Allegro assai
14. 2. Scherzo I/II/I
15. 3. Scherzo III/IV/III
16. 4. Scherzo V. Con giubilo
17. 5. Scherzo VI. Arlechinoso
Viola Concerto In G, TWV 51:G9
18. 1. Largo
19. 2. Allegro
20. 3. Andante
21. 4. Presto
Concerto In G "a sei", TWV 52:G2
22. 1. Grave
23. 2. Allegro
24. 3. Largo
25. 4. Presto
Concerto In G For 2 Viols, Strings And Basso continuo, TWV 52:G3
26. 1. (Lent)
27. 2. Gai
28. 3. Largo
29. 4. Vif


Exact Audio Copy V1.3 from 2. September 2016

EAC extraction logfile from 31. August 2018, 14:28

Rienhard Goebel, Musica Antiqua Köln / Telemann - String Concertos

Used drive : HL-DT-STDVDRAM GH24NS95 Adapter: 1 ID: 0

Read mode : Secure
Utilize accurate stream : Yes
Defeat audio cache : Yes
Make use of C2 pointers : No

Read offset correction : 6
Overread into Lead-In and Lead-Out : No
Fill up missing offset samples with silence : Yes
Delete leading and trailing silent blocks : No
Null samples used in CRC calculations : Yes
Used interface : Native Win32 interface for Win NT & 2000

Used output format : User Defined Encoder
Selected bitrate : 128 kBit/s
Quality : High
Add ID3 tag : No
Command line compressor : C:\Program Files\Exact Audio Copy\Flac\flac.exe
Additional command line options : -V -8 -T "Date=%year%" -T "Genre=%genre%" %source%


TOC of the extracted CD

Track | Start | Length | Start sector | End sector
––––––––––––––––––––––––––––-
1 | 0:00.00 | 2:28.00 | 0 | 11099
2 | 2:28.00 | 2:17.58 | 11100 | 21432
3 | 4:45.58 | 1:57.55 | 21433 | 30262
4 | 6:43.38 | 2:03.37 | 30263 | 39524
5 | 8:47.00 | 2:31.22 | 39525 | 50871
6 | 11:18.22 | 3:36.61 | 50872 | 67132
7 | 14:55.08 | 2:06.15 | 67133 | 76597
8 | 17:01.23 | 1:00.52 | 76598 | 81149
9 | 18:02.00 | 1:16.50 | 81150 | 86899
10 | 19:18.50 | 1:14.73 | 86900 | 92522
11 | 20:33.48 | 4:56.16 | 92523 | 114738
12 | 25:29.64 | 3:44.11 | 114739 | 131549
13 | 29:14.00 | 1:31.48 | 131550 | 138422
14 | 30:45.48 | 2:56.42 | 138423 | 151664
15 | 33:42.15 | 1:43.60 | 151665 | 159449
16 | 35:26.00 | 2:10.38 | 159450 | 169237
17 | 37:36.38 | 0:50.37 | 169238 | 173024
18 | 38:27.00 | 3:10.40 | 173025 | 187314
19 | 41:37.40 | 2:37.25 | 187315 | 199114
20 | 44:14.65 | 1:47.33 | 199115 | 207172
21 | 46:02.23 | 3:22.52 | 207173 | 222374
22 | 49:25.00 | 1:48.00 | 222375 | 230474
23 | 51:13.00 | 1:59.00 | 230475 | 239399
24 | 53:12.00 | 1:49.25 | 239400 | 247599
25 | 55:01.25 | 3:43.50 | 247600 | 264374
26 | 58:45.00 | 1:39.68 | 264375 | 271867
27 | 60:24.68 | 1:48.47 | 271868 | 280014
28 | 62:13.40 | 1:15.08 | 280015 | 285647
29 | 63:28.48 | 1:37.27 | 285648 | 292949


Range status and errors

Selected range

Filename C:\Program Files\Exact Audio Copy\Flac\Telemann - String Concertos.wav

Peak level 90.1 %
Extraction speed 7.9 X
Range quality 99.9 %
Test CRC EA84C48C
Copy CRC EA84C48C
Copy OK

No errors occurred

End of status report

==== Log checksum F7EFEF3959A2CCC4254E89DAB86457DBF085298B5BDA60DB8155196867AE5FC8 ====

Reinhard Goebel, Musica Antiqua Koln - Georg Philipp Telemann: String Concertos (2000)