Tags
Language
Tags

Reinoud Van Mechelen, A Nocte Temporis - Dumesny: Haute-Contre de Lully (2019)

Posted By: ArlegZ
Reinoud Van Mechelen, A Nocte Temporis - Dumesny: Haute-Contre de Lully (2019)

Reinoud Van Mechelen, A Nocte Temporis - Dumesny: Haute-Contre de Lully (2019)
EAC | FLAC | Image (Cue & Log) ~ 407 Mb | Total time: 77:13 | Scans included
Classical | Label: Alpha Classics | # ALPHA 554 | Recorded: 2018

Who was Louis Gaulard Dumesny? Dumesny was not the first haute-contre historically speaking, but he was the first to have become famous in his lifetime. Sources agree that he was a cook when Lully discovered him. He made his debut in 1677 and everyone was amazed by his acting, the power of his voice and also his ability to learn everything by ear, since he could not read music. A few centuries later, Reinoud Van Mechelen, star tenor of the international Baroque scene, has decided, with his ensemble A Nocte Temporis, to pay tribute to this ‘haute-contre’ register, a high tenor voice (not to be confused with the countertenor!), by devoting three recordings to it, paying tribute in turn to Lully, Rameau and Gluck. The first part of this trilogy therefore contains the finest operatic airs and suites by Lully, featuring excerpts from Isis, Persée, Armide, Amadis, Acis et Galatée and Achille et Polyxène, but also pieces by Marin Marais (Alcide), Marc-Antoine Charpentier (Médée), Élisabeth Jacquet de La Guerre (Céphale et Procris), Henry Desmarets, Pascal Colasse, CharlesHubert Gervais and André Cardinal Destouches.

Performer:
Reinoud Van Mechelen, tenor
A Nocte Temporis

Track List:
Jean-Baptiste Lully (1632-1687)
01. Isis, LWV 54 : Ouverture
02. Persée, LWV60: Cessons de redouter la fortune cruelle
03. Armide, LWV 71: Plus j'observe ces lieux
04. Amadis, LWV 63 : Bois épais
05. Acis et Galatée, LWV 73: Faudra-t-il encore vous attendre…
06. Acis et Galatée, LWV 73: Ritournelle
07. Achille et Polyxène, LWV 74: Patrocle va combattre, et j'ai pu consentir…
08. Miserere mei Deus LWV25
Pascal Collasse (1649-1709)
09. Achille et Polyxène: Quand, après un cruel tourment…
10. Achille et Polyxène: Entracte
11. Achille et Polyxène: Ah! Que sur moi… - Prélude
Marin Marais (1656-1728) / Louis Lully (1664-1734)
12. Alcide: Mon amoureuse inquiètude
13. Alcide: Ne pourrais-je trouver de remède…
Pascal Collasse (1649-1709)
14. Thétis et Pelée: Ciel! En voyant ce temple redoutable…
15. Enée et Lavinie: J'entends d'agréable concerts…
Henry Desmarest (1661-1741)
16. Didon: Infortuné que dois-je faire?…
17. Didon: Le soleil est vainqueur
Marc-Antoine Charpentier (1643-1704)
18. Médée, H. 491: Que je serais heureux, si j'étais moins aimé !…
19. Médée, H. 491: Second air pour les Argiens - Sarabande
Elisabeth Jacquet de la Guerre (1665-1729)
20. Céphale et Procris: Amour, que sous tes lois…
Henry Desmarest (1661-1741)
21. Théagene et Cariclée: Ma vertu cède au coup…
22. Les amours de Momus: Lieux charmants, retraites tranquilles…
Charles-Hubert Gervais (1671-1744)
23. Méduse: Air - Sarabande - Menuet
Henry Desmarest
24. Les fêtes galantes: Ebbro far voglio il mio core…
25. Circé: Sommeil - Ah! Que le sommeil est charmant…
André Cardinal Destouches (1672-1749)
26. Amadis de Grèce: Hélas! Rien n'adoucit…
André Campra (1660-1744)
27. L'Europe Galante : Sommeil - Sommeil, qui chaque nuit…


Exact Audio Copy V1.6 from 23. October 2020

EAC extraction logfile from 23. November 2021, 16:13

Reinoud Van Mechelen / Dumesny, Haute-Contre De Lully

Used drive : HL-DT-STDVDRAM GH24NSD5 Adapter: 1 ID: 0

Read mode : Secure
Utilize accurate stream : Yes
Defeat audio cache : Yes
Make use of C2 pointers : No

Read offset correction : 6
Overread into Lead-In and Lead-Out : No
Fill up missing offset samples with silence : Yes
Delete leading and trailing silent blocks : No
Null samples used in CRC calculations : Yes
Used interface : Native Win32 interface for Win NT & 2000

Used output format : User Defined Encoder
Selected bitrate : 1024 kBit/s
Quality : High
Add ID3 tag : No
Command line compressor : C:\Program Files (x86)\Exact Audio Copy\FLAC\FLAC.EXE
Additional command line options : -6 -V -T "ARTIST=%artist%" -T "TITLE=%title%" -T "ALBUM=%albumtitle%" -T "DATE=%year%" -T "TRACKNUMBER=%tracknr%" -T "GENRE=%genre%" -T "COMMENT=%comment%" -T "BAND=%albuminterpret%" -T "ALBUMARTIST=%albuminterpret%" -T "COMPOSER=%composer%" %haslyrics%–tag-from-file=LYRICS="%lyricsfile%"%haslyrics% -T "DISCNUMBER=%cdnumber%" -T "TOTALDISCS=%totalcds%" -T "TOTALTRACKS=%numtracks%" %hascover%–picture="%coverfile%"%hascover% %source% -o %dest% -T "RIPPER=Bodtje"


TOC of the extracted CD

Track | Start | Length | Start sector | End sector
––––––––––––––––––––––––––––-
1 | 0:00.00 | 2:07.53 | 0 | 9577
2 | 2:07.53 | 1:36.57 | 9578 | 16834
3 | 3:44.35 | 3:30.41 | 16835 | 32625
4 | 7:15.01 | 2:30.38 | 32626 | 43913
5 | 9:45.39 | 1:41.07 | 43914 | 51495
6 | 11:26.46 | 0:34.04 | 51496 | 54049
7 | 12:00.50 | 2:44.33 | 54050 | 66382
8 | 14:45.08 | 1:10.43 | 66383 | 71675
9 | 15:55.51 | 1:31.27 | 71676 | 78527
10 | 17:27.03 | 1:16.31 | 78528 | 84258
11 | 18:43.34 | 1:16.17 | 84259 | 89975
12 | 19:59.51 | 2:45.52 | 89976 | 102402
13 | 22:45.28 | 5:50.00 | 102403 | 128652
14 | 28:35.28 | 5:03.11 | 128653 | 151388
15 | 33:38.39 | 3:11.63 | 151389 | 165776
16 | 36:50.27 | 3:21.54 | 165777 | 180905
17 | 40:12.06 | 1:35.29 | 180906 | 188059
18 | 41:47.35 | 2:43.47 | 188060 | 200331
19 | 44:31.07 | 3:17.15 | 200332 | 215121
20 | 47:48.22 | 2:39.65 | 215122 | 227111
21 | 50:28.12 | 3:15.58 | 227112 | 241794
22 | 53:43.70 | 1:41.65 | 241795 | 249434
23 | 55:25.60 | 4:10.55 | 249435 | 268239
24 | 59:36.40 | 2:59.07 | 268240 | 281671
25 | 62:35.47 | 5:31.50 | 281672 | 306546
26 | 68:07.22 | 3:35.15 | 306547 | 322686
27 | 71:42.37 | 5:28.74 | 322687 | 347360


Range status and errors

Selected range

Filename I:\Rips\Various - Dumesny, haut-contre de Lully - Van Mechelen\Reinoud Van Mechelen - Dumesny, Haute-Contre De Lully.wav

Peak level 96.3 %
Extraction speed 8.1 X
Range quality 100.0 %
Test CRC 38F89207
Copy CRC 38F89207
Copy OK

No errors occurred


AccurateRip summary

Track 1 accurately ripped (confidence 4) [9B384EE8] (AR v2)
Track 2 accurately ripped (confidence 4) [F148CEC6] (AR v2)
Track 3 accurately ripped (confidence 4) [DC6C637D] (AR v2)
Track 4 accurately ripped (confidence 4) [350F3F84] (AR v2)
Track 5 accurately ripped (confidence 4) [654A1EA6] (AR v2)
Track 6 accurately ripped (confidence 4) [E4C4851E] (AR v2)
Track 7 accurately ripped (confidence 4) [54EEE368] (AR v2)
Track 8 accurately ripped (confidence 4) [2FFF1AD5] (AR v2)
Track 9 accurately ripped (confidence 4) [2B7F7970] (AR v2)
Track 10 accurately ripped (confidence 4) [31CB21B7] (AR v2)
Track 11 accurately ripped (confidence 4) [DE134BB9] (AR v2)
Track 12 accurately ripped (confidence 4) [F26C751F] (AR v2)
Track 13 accurately ripped (confidence 4) [B874EFB3] (AR v2)
Track 14 accurately ripped (confidence 4) [608E467D] (AR v2)
Track 15 accurately ripped (confidence 4) [195056B8] (AR v2)
Track 16 accurately ripped (confidence 4) [AB7E8A4F] (AR v2)
Track 17 accurately ripped (confidence 4) [650B6238] (AR v2)
Track 18 accurately ripped (confidence 4) [F4428BFB] (AR v2)
Track 19 accurately ripped (confidence 4) [D1B3B97C] (AR v2)
Track 20 accurately ripped (confidence 4) [7938D26A] (AR v2)
Track 21 accurately ripped (confidence 4) [7B9AD439] (AR v2)
Track 22 accurately ripped (confidence 4) [B47BB801] (AR v2)
Track 23 accurately ripped (confidence 4) [CCD5AB1C] (AR v2)
Track 24 accurately ripped (confidence 4) [AA0525A6] (AR v2)
Track 25 accurately ripped (confidence 4) [49107C8D] (AR v2)
Track 26 accurately ripped (confidence 4) [1CB4691E] (AR v2)
Track 27 accurately ripped (confidence 4) [00B61E24] (AR v2)

All tracks accurately ripped

End of status report

–– CUETools DB Plugin V2.1.6

[CTDB TOCID: rzN1tbQ5Iq7m3JkPQ0NILobTK9Q-] found
Submit result: rzN1tbQ5Iq7m3JkPQ0NILobTK9Q- has been confirmed
Track | CTDB Status
1 | (12/12) Accurately ripped
2 | (12/12) Accurately ripped
3 | (12/12) Accurately ripped
4 | (12/12) Accurately ripped
5 | (12/12) Accurately ripped
6 | (12/12) Accurately ripped
7 | (12/12) Accurately ripped
8 | (12/12) Accurately ripped
9 | (12/12) Accurately ripped
10 | (12/12) Accurately ripped
11 | (12/12) Accurately ripped
12 | (12/12) Accurately ripped
13 | (12/12) Accurately ripped
14 | (12/12) Accurately ripped
15 | (12/12) Accurately ripped
16 | (12/12) Accurately ripped
17 | (12/12) Accurately ripped
18 | (12/12) Accurately ripped
19 | (12/12) Accurately ripped
20 | (12/12) Accurately ripped
21 | (12/12) Accurately ripped
22 | (12/12) Accurately ripped
23 | (12/12) Accurately ripped
24 | (12/12) Accurately ripped
25 | (12/12) Accurately ripped
26 | (12/12) Accurately ripped
27 | (12/12) Accurately ripped


==== Log checksum 525600775BCDFE148D7D36F8E928EF838CF954589E80F38588A04DCAC18E93D9 ====

Reinoud Van Mechelen, A Nocte Temporis - Dumesny: Haute-Contre de Lully (2019)

Thanks to the original releaser