Subcategories
Tags
Language
Tags

Renaissance - 50th Anniversary: Ashes are Burning - An Anthology - Live in Concert (2021)

Posted By: gribovar
Renaissance - 50th Anniversary: Ashes are Burning - An Anthology - Live in Concert (2021)

Renaissance - 50th Anniversary: Ashes are Burning - An Anthology - Live in Concert (2021)
EAC Rip | WavPack (image+.cue+log) - 570 MB | MP3 CBR 320 kbps (LAME 3.93) - 227 MB | Covers - 425 MB
Genre: Progressive Rock | RAR 3% Rec. | Label: Esoteric Antenna

Esoteric Antenna is pleased to announce the release of 50th Anniversary: Ashes Are Burning - An Anthology Live in Concert. To celebrate the 50th Anniversary of the formation of Renaissance, vocalist Annie Haslam and band performed a series of concerts with an orchestra in the USA in October 2019 featuring a set list which included songs which had never been orchestrated or performed with an orchestra before. The most memorable concert took place at the Keswick Theater in Glenside, PA on 12th October 2019. This sold-out concert saw the band perform a set which included such classics as Carpet Of The Sun, Ocean Gypsy, Running Hard, Day Of The Dreamer and A Song For All Seasons and also saw a special guest appearance by Renaissance founder Jim McCarty who performed on the song Island and the epic closing piece Ashes Are Burning. It was a truly magical evening.

CD 1 Tracklist:
01. Carpet Of The Sun
02. Ocean Gypsy
03. Running Hard
04. Midas Man
05. Symphony Of Light
06. Island

Total time: 46:52

CD 2 Tracklist:
01. Opening Out
02. Day Of The Dreamer
03. The Mystic And The Muse
04. A Song For All Seasons
05. Ashes Are Burning

Total time: 49:32

Exact Audio Copy V1.6 from 23. October 2020

EAC extraction logfile from 20. May 2021, 11:20

Renaissance / 50th Anniversary - Ashes are Burning - An Anthology - Live in Concert (CD1)

Used drive : Optiarc DVD RW AD-7700S Adapter: 1 ID: 0

Read mode : Secure
Utilize accurate stream : Yes
Defeat audio cache : Yes
Make use of C2 pointers : No

Read offset correction : 48
Overread into Lead-In and Lead-Out : No
Fill up missing offset samples with silence : Yes
Delete leading and trailing silent blocks : No
Null samples used in CRC calculations : Yes
Used interface : Native Win32 interface for Win NT & 2000

Used output format : User Defined Encoder
Selected bitrate : 768 kBit/s
Quality : High
Add ID3 tag : No
Command line compressor : C:\Program Files (x86)\Exact Audio Copy\Wavpack\wavpack.exe
Additional command line options : -hm %source% %dest%


TOC of the extracted CD

Track | Start | Length | Start sector | End sector
––––––––––––––––––––––––––––-
1 | 0:00.00 | 3:50.24 | 0 | 17273
2 | 3:50.24 | 7:41.55 | 17274 | 51903
3 | 11:32.04 | 9:44.10 | 51904 | 95713
4 | 21:16.14 | 6:14.08 | 95714 | 123771
5 | 27:30.22 | 12:55.44 | 123772 | 181940
6 | 40:25.66 | 6:26.58 | 181941 | 210948


Range status and errors

Selected range

Filename E:\_NL+_\_CD\Renaissance - 50th Anniversary - Ashes are Burning - An Anthology - Live in Concert (CD1).wav

Peak level 89.6 %
Extraction speed 4.4 X
Range quality 100.0 %
Test CRC 54DDA951
Copy CRC 54DDA951
Copy OK

No errors occurred


AccurateRip summary

Track 1 not present in database
Track 2 not present in database
Track 3 not present in database
Track 4 not present in database
Track 5 not present in database
Track 6 not present in database

None of the tracks are present in the AccurateRip database

End of status report

–– CUETools DB Plugin V2.1.6

[CTDB TOCID: MInmF3vW8QEJPUhGVz6anzFM.2g-] found
Submit result: MInmF3vW8QEJPUhGVz6anzFM.2g- has been confirmed
Track | CTDB Status
1 | (10/10) Accurately ripped
2 | (10/10) Accurately ripped
3 | (10/10) Accurately ripped
4 | (10/10) Accurately ripped
5 | (10/10) Accurately ripped
6 | (10/10) Accurately ripped


==== Log checksum 82E175CCCCD1506120B7A3F3BE1CC234AEA6324711E089C17A609B8813FA3477 ====

[CUETools log; Date: 21.05.2021 10:21:09; Version: 2.1.4]
[CTDB TOCID: MInmF3vW8QEJPUhGVz6anzFM.2g-] found.
Track | CTDB Status
1 | (11/11) Accurately ripped
2 | (11/11) Accurately ripped
3 | (11/11) Accurately ripped
4 | (11/11) Accurately ripped
5 | (11/11) Accurately ripped
6 | (11/11) Accurately ripped
[AccurateRip ID: 000a6652-0039608a-4b0afc06] disk not present in database.

Track Peak [ CRC32 ] [W/O NULL] [ LOG ]
– 89,6 [54DDA951] [7F78BC03] CRC32
01 89,6 [D08065AE] [9FAD5268]
02 89,0 [A6E72CF4] [0DAB09F6]
03 89,5 [63E313AA] [68005999]
04 89,1 [0FD643CC] [F45A3BCB]
05 89,1 [9492650C] [781C305C]
06 89,0 [F32D3FE4] [D59A1C07]

Exact Audio Copy V1.6 from 23. October 2020

EAC extraction logfile from 20. May 2021, 11:53

Renaissance / 50th Anniversary - Ashes are Burning - An Anthology - Live in Concert (CD2)

Used drive : Optiarc DVD RW AD-7700S Adapter: 1 ID: 0

Read mode : Secure
Utilize accurate stream : Yes
Defeat audio cache : Yes
Make use of C2 pointers : No

Read offset correction : 48
Overread into Lead-In and Lead-Out : No
Fill up missing offset samples with silence : Yes
Delete leading and trailing silent blocks : No
Null samples used in CRC calculations : Yes
Used interface : Native Win32 interface for Win NT & 2000

Used output format : User Defined Encoder
Selected bitrate : 768 kBit/s
Quality : High
Add ID3 tag : No
Command line compressor : C:\Program Files (x86)\Exact Audio Copy\Wavpack\wavpack.exe
Additional command line options : -hm %source% %dest%


TOC of the extracted CD

Track | Start | Length | Start sector | End sector
––––––––––––––––––––––––––––-
1 | 0:00.00 | 4:13.38 | 0 | 19012
2 | 4:13.38 | 9:40.14 | 19013 | 62526
3 | 13:53.52 | 7:55.00 | 62527 | 98151
4 | 21:48.52 | 11:08.34 | 98152 | 148285
5 | 32:57.11 | 16:35.37 | 148286 | 222947


Range status and errors

Selected range

Filename E:\_NL+_\_CD\Renaissance - 50th Anniversary - Ashes are Burning - An Anthology - Live in Concert (CD2).wav

Peak level 89.8 %
Extraction speed 4.5 X
Range quality 100.0 %
Test CRC 5EADCCEC
Copy CRC 5EADCCEC
Copy OK

No errors occurred


AccurateRip summary

Track 1 not present in database
Track 2 not present in database
Track 3 not present in database
Track 4 not present in database
Track 5 not present in database

None of the tracks are present in the AccurateRip database

End of status report

–– CUETools DB Plugin V2.1.6

[CTDB TOCID: y3dkKr48N.Z0LguyBDv_J5nzxRA-] found
Submit result: y3dkKr48N.Z0LguyBDv_J5nzxRA- has been confirmed
Track | CTDB Status
1 | (10/10) Accurately ripped
2 | (10/10) Accurately ripped
3 | (10/10) Accurately ripped
4 | (10/10) Accurately ripped
5 | (10/10) Accurately ripped


==== Log checksum A5DA60C86F939E2154FC52E24B1EA4039142700E4B92BC975FAB1CE63ACCA31F ====

[CUETools log; Date: 21.05.2021 10:21:57; Version: 2.1.4]
[CTDB TOCID: y3dkKr48N.Z0LguyBDv_J5nzxRA-] found.
Track | CTDB Status
1 | (11/11) Accurately ripped
2 | (11/11) Accurately ripped
3 | (11/11) Accurately ripped
4 | (11/11) Accurately ripped
5 | (11/11) Accurately ripped
[AccurateRip ID: 0008680e-00292876-3d0b9c05] disk not present in database.

Track Peak [ CRC32 ] [W/O NULL] [ LOG ]
– 89,8 [5EADCCEC] [00E8008B] CRC32
01 89,0 [0BA62BDE] [706A23EA]
02 89,3 [F28191D3] [75438D93]
03 89,1 [FCB263CA] [EACCB547]
04 89,7 [DF5BBCA7] [D22466E5]
05 89,8 [F1A31991] [EFD97711]

Thanks to tatuk

See also:
Renaissance - Renaissance (1969) [Reissue 2008]
Renaissance - 5 Studio Albums (1973-1978)
Renaissance - Dreams & Ome...r, Philadelphia Pa 1978 (2008)
Renaissance - Turn of the Card...ve in Concert [2CD+DVD] (2011)