Tags
Language
Tags

Renato Sellani encounters Fabrizio Bosso - Thank You, George Gershwin (2003)

Posted By: gribovar
Renato Sellani encounters Fabrizio Bosso - Thank You, George Gershwin (2003)

Renato Sellani encounters Fabrizio Bosso - Thank You, George Gershwin (2003)
EAC Rip | FLAC (image+.cue+log) - 218 MB | Covers - 3 MB
Genre: Jazz, Post-Bop | RAR 3% Rec. | Label: Philology (W 237-2)

One of the acid tests to evaluate jazz musicians is to put them into a duo setting. This all-Gershwin program, pairing veteran pianist Renato Sellani and a rising young star, Fabrizio Bosso, who doubles on trumpet and flugelhorn, succeeds with flying colors. Since most (if not all) of this music is already very well known to jazz fans, the duo has their work cut out for them to find new approaches to each song. "The Man I Love" combines Bosso's virtuoso flügelhorn (including an incredible unaccompanied coda) and Sellani's spacious, understated accompaniment to produce a masterful interpretation. "Oh, Lady be Good!" is one of the most familiar pieces in the jazz canon, but their marvelous, playful, and subtle introduction builds up the tension before they finally switch to a more typical tempo. "Soon" is not quite as well known as the remaining compositions on this CD, but their richly textured treatment of the lyrical ballad is a gem to behold. The two musicians are at their very best in the old warhorse "I Got Rhythm," which features Sellani at his most playful and some sassy muted work by Bosso.
Tracklist:
01. The Man I Love
02. Oh, Lady Be Good!
03. Someone to Watch Over Me
04. Strike Up the Band
05. Soon
06. But Not for Me
07. A Foggy Day
08. I Got Rhythm
09. Embraceable You
10. Somebody Loves Me

Total time: 59:20

Exact Audio Copy V1.0 beta 3 from 29. August 2011

EAC extraction logfile from 11. May 2012, 12:22

Renato Sellani / Thank You, George Gershwin

Used drive : Optiarc DVD RW AD-7280S Adapter: 2 ID: 0

Read mode : Secure
Utilize accurate stream : Yes
Defeat audio cache : Yes
Make use of C2 pointers : No

Read offset correction : 48
Overread into Lead-In and Lead-Out : No
Fill up missing offset samples with silence : Yes
Delete leading and trailing silent blocks : No
Null samples used in CRC calculations : Yes
Used interface : Native Win32 interface for Win NT & 2000

Used output format : Internal WAV Routines
Sample format : 44.100 Hz; 16 Bit; Stereo


TOC of the extracted CD

Track | Start | Length | Start sector | End sector
––––––––––––––––––––––––––––-
1 | 0:00.00 | 8:12.12 | 0 | 36911
2 | 8:12.12 | 5:56.32 | 36912 | 63643
3 | 14:08.44 | 4:18.01 | 63644 | 82994
4 | 18:26.45 | 6:21.41 | 82995 | 111610
5 | 24:48.11 | 4:30.73 | 111611 | 131933
6 | 29:19.09 | 7:38.34 | 131934 | 166317
7 | 36:57.43 | 7:28.42 | 166318 | 199959
8 | 44:26.10 | 4:29.43 | 199960 | 220177
9 | 48:55.53 | 6:19.20 | 220178 | 248622
10 | 55:14.73 | 4:04.49 | 248623 | 266971


Range status and errors

Selected range

Filename D:\Mus\MY RELEASE\2003-Renato Sellani-Thank You, George Gershwin\Renato Sellani - Thank You, George Gershwin.wav

Peak level 100.0 %
Extraction speed 4.0 X
Range quality 100.0 %
Copy CRC 118B8F39
Copy OK

No errors occurred


AccurateRip summary

Track 1 accurately ripped (confidence 1) [973C2388] (AR v2)
Track 2 accurately ripped (confidence 1) [E50AC855] (AR v2)
Track 3 accurately ripped (confidence 1) [B340519F] (AR v2)
Track 4 accurately ripped (confidence 1) [315774D2] (AR v2)
Track 5 accurately ripped (confidence 1) [E406CB4C] (AR v2)
Track 6 accurately ripped (confidence 1) [153DB854] (AR v2)
Track 7 accurately ripped (confidence 1) [4ACCB227] (AR v2)
Track 8 accurately ripped (confidence 1) [6114A1B5] (AR v2)
Track 9 accurately ripped (confidence 1) [103F2E5F] (AR v2)
Track 10 accurately ripped (confidence 1) [930CEFA0] (AR v2)

All tracks accurately ripped

End of status report

==== Log checksum 0CA28EC25EC7AC36597BA451EA401BF4EF8FCB4C6BF14C1C91AE54261A73440C ====

[CUETools log; Date: 21.09.2021 11:05:47; Version: 2.1.4]
[CTDB TOCID: 4h06DvQrbWv4jv0wWTtNnPMrMi0-] found.
Track | CTDB Status
1 | (1/1) Accurately ripped
2 | (1/1) Accurately ripped
3 | (1/1) Accurately ripped
4 | (1/1) Accurately ripped
5 | (1/1) Accurately ripped
6 | (1/1) Accurately ripped
7 | (1/1) Accurately ripped
8 | (1/1) Accurately ripped
9 | (1/1) Accurately ripped
10 | (1/1) Accurately ripped
[AccurateRip ID: 0017553b-00b8db8a-8d0de70a] found.
Track [ CRC | V2 ] Status
01 [d2d1d56e|973c2388] (0+2/2) Accurately ripped
02 [0096ec62|e50ac855] (0+2/2) Accurately ripped
03 [232dbdd3|b340519f] (0+2/2) Accurately ripped
04 [37daf960|315774d2] (0+2/2) Accurately ripped
05 [b732cd18|e406cb4c] (0+2/2) Accurately ripped
06 [adfebefd|153db854] (0+2/2) Accurately ripped
07 [5de0ab14|4accb227] (0+2/2) Accurately ripped
08 [b7e942e9|6114a1b5] (0+2/2) Accurately ripped
09 [c7724526|103f2e5f] (0+2/2) Accurately ripped
10 [52e363f4|930cefa0] (0+2/2) Accurately ripped

Track Peak [ CRC32 ] [W/O NULL] [ LOG ]
– 100,0 [118B8F39] [EB1163AB] CRC32
01 100,0 [75191165] [3D754159]
02 100,0 [934F44D4] [58B84E41]
03 100,0 [7D9E5713] [998CC4E0]
04 100,0 [118E8078] [5C555C2F]
05 100,0 [FAE5E01C] [8AB3C3CA]
06 100,0 [F36D6954] [CF2FE870]
07 100,0 [FF07E7FD] [D69E0900]
08 100,0 [F06ECFFD] [3073470F]
09 100,0 [D57C5FDF] [28C7D753]
10 100,0 [56281CC1] [A50E9260]

Thanks to cost123