Subcategories

René Jacobs, Akademie für Alte Musik Berlin, RIAS Kammerchor - Johann Sebastian Bach: Johannes-Passion (2016)

Posted By: ArlegZ
René Jacobs, Akademie für Alte Musik Berlin, RIAS Kammerchor - Johann Sebastian Bach: Johannes-Passion (2016)

René Jacobs, Akademie für Alte Musik Berlin, RIAS Kammerchor - Johann Sebastian Bach: Johannes-Passion (2016)
EAC | FLAC | Image (Cue & Log) ~ 1,29 Gb | Total time: 135:20 | Scans included
Classical | Label: Harmonia Mundi | HMC 802236.37 | Recorded: 2015

Bach revised his Johannes-Passion regularly: he returned to it over a period of twenty-six years, from 1724 to his death. It is the version hallowed by tradition, established by the Kantor a year before his death, that is presented on these CDs. But the 1725 version, equally outstanding musically, has also been recorded complete and can be downloaded as a bonus in high-resolution sound. Comparison of the two versions reveals the underlying meaning of this matchless Passion.

Performer:
Werner Güra, tenor (Evangelist)
Johannes Weisser, bass (Christus, arias)
Sunhae Im, soprano
Benno Schachtner, alto
Sebastian Kohlhepp, tenor
Johannes Weisser, bass
RIAS Kammerchor
Akademie für Alte Musik Berlin
Rene Jacobs, conductor

Track List:
CD1:
Johannes-Passion BWV 245
Erster Teil
Verrat und Gefangennahme
01. Chorus "Herr, unser Herrscher" (Exordium)
02. Rezitativ "Jesus ging mit seinen Jüngern über den Bach Kidron"(Evangelist, Jesus)
Rezitativ "Jesum von Nazareth!" (Turba)
Rezitativ "Jesus spricht zu ihnen" (Evangelist, Jesus)
Rezitativ "Jesum von Nazareth!" (Turba)
Rezitativ "Jesus antwortete" (Evangelist, Jesus)
03. Choral "O große Lieb, o Lieb ohn' alle Maße"
04. Rezitativ "Auf daß das Wort erfüllet würde" (Evangelist, Jesus)
05. Choral "Dein Will gescheh, Herr Gott, zugleich"
06. Rezitativ "Die Schar aber und der Oberhauptmann" (Evangelist, Jesus)
07. Arie "Von den Stricken meiner Sünden"
Verleugnung
08. Rezitativ "Simon Petrus aber folgete Jesu nach" (Evangelist)
09. Arie "Ich folge dir gleichfalls mit freudigen Schritten" ( Sopran)
10. Rezitativ "Derselbige Jünger" (Evangelist, Ancilla, Petrus, Jesus, Servus)
11. Choral "Wer hat dich so geschlagen"
12. Rezitativ and Chorus "Und Hannas standte ihn gebunden" (Evangelist)
"Bist du nicht seiner Jünger einer?" ( Turba)
"Er Leugnete aber und prach" (Evangelist, Petrus, Servus)
13. Arie "Ach, mein Sinn, wo willst du endlich hin" (Tenor)
14. Choral "Petrus, der nicht denkt zurück"
Zweiter Teil
Verhör und Geißelung
15. Choral "Christus, der uns selig macht"
16. Rezitativ and Chorus "Da führeten sie Jesum von Kaiphas vor das Richthaus (Evangelist, Pilatus)
"Wäre dieser nicht ein Übeltäter" (Chorus)
"Da sprach Pilatus zu ihnen" (Evangelist, Pilatus)
"Wir dürfen niemand töten" (Turba)
" Auf daß erfüllet würde das Wort Jesu" (Evangelist, Pilatus, Jesus)
17. Choral "Ach großer König, groß zu allen Zeiten"
18. Rezitativ and Chorus "Da sprach Pilatus zu ihm" (Evangelist, Pilatus, Jesus)
19. Arioso (Baß): "Betrachte, meine Seel, mit ängstlichem Vergnügen"
20. Arie (Tenor): "Erwäge, wie sein blutgefärbter Rücken"
Verurteilung und Kreuzigung
21. Rezitativ and Chorus: "Und die Kriegsknechte flochten eine Krone von Dornen" (Evangelist
"Sei gegrüßet, lieber Jüdenkönig!" (Turba)
"Und gaben ihm Backenstreiche"" (Evangelist, Pilatus)
"Kreuzige, Kreuzige"" (Turba)
"Pilatus sprach zu ihnen"" (Evangelist, Pilatus)
"Wir haben ein Gesetz"" (Turba)
"Da Pilatus das Wort hörete" (Evangelist, Pilatus, Jesus)
22. Choral: "Durch dein Gefängnis, Gottes Sohn"
23. Rezitativ and Chorus: "Die Jüden aber schrieen und sprachen" (Evangelist)
"Lässest du diesen los" (Turba)
"Da Pilatus das Wort hörete" (Evangelist, Pilatus)
"Weg, weg mit dem" (Turba)
"Spricht Pilatus zu ihnen" (Evangelist)
"Wir haben keinen König denn den Kaiser" (Turba)
"Da überantwortete er ihn, daß er gekreuziget würde" (Evangelist)
24. Arie (Baß)- Chorus: "Eilt ihr angefochtnen Seelen - Wohin?"
CD2:
01. Rezitativ and Chorus: "Allda kreuzigten sie ihn" (Evangelist)
"Schreibe nicht: der Jüden König" (Turba)
"Pilatus antwortet" (Evangelist, Pilatus)
02. Choral: "In meines Herzens Grunde"
03. Rezitativ and Chorus: "Die Kriegsknechte aber, da sie Jesum gekreuziget hatten" (Evangelist)
"Lasset uns den nicht zerteilen" (Turba)
"Auf daß erfüllet würde die Schrift" (Evangelist)
Tod Jesu
04. Choral: "Er nahm alles wohl in acht"
05. Rezitativ: "Und von Stund an nahm sie der Jünger zu sich" (Evangelist, Jesus)
06. Arie (Alto): "Es ist vollbracht!"
07. Rezitativ: "Und neiget das Haupt und verschied" (Evangelist, Jesus)
08. Arie (Ba?): "Mein teurer Heiland, laß dich fragen" Choral: Jesu, der du warest tot
Grablegung
09. Rezitativ: "Und siehe da, der Vorhang im Tempel zerriß" (Evangelist)
10. Arioso (Tenor): "Mein Herz, indem die ganze Welt"
11. Arie (Sopran): "Zerfließe, mein Herze"
12. Rezitativ: "Die Jüden aber, dieweil es der Rüsttag war" (Evangelist)
13. Choral: "O hilf, Christe, Gottes Sohn"
14. Rezitativ: "Darnach bat Pilatum Joseph von Arimathia" (Evangelist)
15. Chorus: "Ruht wohl, ihr heiligen Gebeine" (Conclusio)
16. Choral: "Ach Herr, laß dein lieb Engelein"
Appendix- Zusätze der Fassung 1725
17. Choral: "O Mensch, bewein dein Sünde groß" (Exordium)
ersetzt das Exordium von 1724 "Herr, unser Herrscher" (Nr.1)
18. Arie (Baß): "Himmel reiße, Welt erbebe" Choral: Jesu, deine Passion
zusätzlich eingefügt zwischen den Nummern 11 (Choral: "Wer hat dich so geschlagen") und 12
19. Arie (Tenor): "Zerschmettert mich, ihr Felsen und ihr Hügel"
ersetzt die Arie "Ach, mein Sinn" von 1724 (Nr.13)
20. Arie (Tenor): " Ach windet euch nicht so, geplagte Seelen"
ersetzt die Nummern 19 und 20 der Fassung 1724
(Arioso "Betrachte, meine Seel" und Arie "Erwäge, wie sein blutgefärbter Rücken")
21. Choral: "Christe, du Lamm Gottes" (Exordium)
ersetzt den Schlußchoral von 1724 "Ach Herr, laß dein lieb Engelein" (Nr.40)


Exact Audio Copy V1.3 from 2. September 2016

EAC extraction logfile from 24. March 2020, 19:29

Werner Güra, Johannes Weisser, Sunhae Im, Benno Schachtner, Sebastian Kohlhepp / Johannes-Passion (Disc 1)

Used drive : ATAPI iHAS124 F Adapter: 1 ID: 0

Read mode : Secure
Utilize accurate stream : Yes
Defeat audio cache : Yes
Make use of C2 pointers : No

Read offset correction : 6
Overread into Lead-In and Lead-Out : No
Fill up missing offset samples with silence : Yes
Delete leading and trailing silent blocks : No
Null samples used in CRC calculations : Yes
Used interface : Native Win32 interface for Win NT & 2000

Used output format : User Defined Encoder
Selected bitrate : 1024 kBit/s
Quality : High
Add ID3 tag : No
Command line compressor : C:\Program Files (x86)\Exact Audio Copy\FLAC\FLAC.EXE
Additional command line options : -6 -V -T "ARTIST=%artist%" -T "TITLE=%title%" -T "ALBUM=%albumtitle%" -T "DATE=%year%" -T "TRACKNUMBER=%tracknr%" -T "GENRE=%genre%" -T "COMMENT=%comment%" -T "BAND=%albuminterpret%" -T "ALBUMARTIST=%albuminterpret%" -T "COMPOSER=%composer%" %haslyrics%–tag-from-file=LYRICS="%lyricsfile%"%haslyrics% -T "DISCNUMBER=%cdnumber%" -T "TOTALDISCS=%totalcds%" -T "TOTALTRACKS=%numtracks%" %hascover%–picture="%coverfile%"%hascover% %source% -o %dest%


TOC of the extracted CD

Track | Start | Length | Start sector | End sector
––––––––––––––––––––––––––––-
1 | 0:00.00 | 9:36.58 | 0 | 43257
2 | 9:36.58 | 2:21.42 | 43258 | 53874
3 | 11:58.25 | 0:57.07 | 53875 | 58156
4 | 12:55.32 | 1:00.72 | 58157 | 62728
5 | 13:56.29 | 0:58.73 | 62729 | 67151
6 | 14:55.27 | 0:40.20 | 67152 | 70171
7 | 15:35.47 | 5:01.40 | 70172 | 92786
8 | 20:37.12 | 0:13.40 | 92787 | 93801
9 | 20:50.52 | 3:34.24 | 93802 | 109875
10 | 24:25.01 | 2:54.32 | 109876 | 122957
11 | 27:19.33 | 1:43.19 | 122958 | 130701
12 | 29:02.52 | 2:02.25 | 130702 | 139876
13 | 31:05.02 | 2:44.35 | 139877 | 152211
14 | 33:49.37 | 1:28.31 | 152212 | 158842
15 | 35:17.68 | 1:11.68 | 158843 | 164235
16 | 36:29.61 | 4:06.00 | 164236 | 182685
17 | 40:35.61 | 1:38.70 | 182686 | 190105
18 | 42:14.56 | 1:54.10 | 190106 | 198665
19 | 44:08.66 | 2:17.51 | 198666 | 208991
20 | 46:26.42 | 6:40.33 | 208992 | 239024
21 | 53:07.00 | 5:16.44 | 239025 | 262768
22 | 58:23.44 | 1:01.55 | 262769 | 267398
23 | 59:25.24 | 3:55.66 | 267399 | 285089
24 | 63:21.15 | 3:49.46 | 285090 | 302310


Range status and errors

Selected range

Filename C:\EACRip\Bach - Johannes-Passion (Rene Jacobs) (2016)\CD1\Bach - Johannes-Passion (Disc 1) - Rene Jacobs.wav

Peak level 94.3 %
Extraction speed 9.3 X
Range quality 99.9 %
Test CRC 3E304B8B
Copy CRC 3E304B8B
Copy OK

No errors occurred


AccurateRip summary

Track 1 accurately ripped (confidence 28) [8DC8C627] (AR v2)
Track 2 accurately ripped (confidence 28) [AD05DC78] (AR v2)
Track 3 accurately ripped (confidence 28) [153F951A] (AR v2)
Track 4 accurately ripped (confidence 28) [36A3AD53] (AR v2)
Track 5 accurately ripped (confidence 28) [30DA2BDB] (AR v2)
Track 6 accurately ripped (confidence 28) [8890AEEA] (AR v2)
Track 7 accurately ripped (confidence 28) [6A72A92F] (AR v2)
Track 8 accurately ripped (confidence 28) [BD9810EC] (AR v2)
Track 9 accurately ripped (confidence 28) [11D5DF9F] (AR v2)
Track 10 accurately ripped (confidence 28) [F00C9FCD] (AR v2)
Track 11 accurately ripped (confidence 28) [142EB446] (AR v2)
Track 12 accurately ripped (confidence 28) [5CA8D8B1] (AR v2)
Track 13 accurately ripped (confidence 28) [319CC3B5] (AR v2)
Track 14 accurately ripped (confidence 28) [810B30C7] (AR v2)
Track 15 accurately ripped (confidence 28) [040CD88A] (AR v2)
Track 16 accurately ripped (confidence 28) [37AEC4B8] (AR v2)
Track 17 accurately ripped (confidence 28) [BB683E59] (AR v2)
Track 18 accurately ripped (confidence 28) [4D9B6417] (AR v2)
Track 19 accurately ripped (confidence 28) [1E40F833] (AR v2)
Track 20 accurately ripped (confidence 28) [1422C057] (AR v2)
Track 21 accurately ripped (confidence 28) [35EF3AF7] (AR v2)
Track 22 accurately ripped (confidence 28) [4B34EB8A] (AR v2)
Track 23 accurately ripped (confidence 28) [59EA9C6A] (AR v2)
Track 24 accurately ripped (confidence 28) [DCAE21DB] (AR v2)

All tracks accurately ripped

End of status report

–– CUETools DB Plugin V2.1.6

[CTDB TOCID: _Jx5dmellzsZWvorkaNfMruOR90-] found
Submit result: _Jx5dmellzsZWvorkaNfMruOR90- has been confirmed
Track | CTDB Status
1 | (87/87) Accurately ripped
2 | (87/87) Accurately ripped
3 | (87/87) Accurately ripped
4 | (87/87) Accurately ripped
5 | (87/87) Accurately ripped
6 | (87/87) Accurately ripped
7 | (87/87) Accurately ripped
8 | (87/87) Accurately ripped
9 | (87/87) Accurately ripped
10 | (87/87) Accurately ripped
11 | (87/87) Accurately ripped
12 | (87/87) Accurately ripped
13 | (87/87) Accurately ripped
14 | (87/87) Accurately ripped
15 | (87/87) Accurately ripped
16 | (87/87) Accurately ripped
17 | (87/87) Accurately ripped
18 | (87/87) Accurately ripped
19 | (87/87) Accurately ripped
20 | (87/87) Accurately ripped
21 | (87/87) Accurately ripped
22 | (87/87) Accurately ripped
23 | (87/87) Accurately ripped
24 | (85/87) Accurately ripped, or (2/87) differs in 2148 samples @03:49:32-03:49:34


==== Log checksum 8513AB5A50312E5FC0CAA4B4D08E21DDD12DE0A520B7B6874585F22BCEF7C00B ====


Exact Audio Copy V1.3 from 2. September 2016

EAC extraction logfile from 24. March 2020, 21:15

Werner Güra, Johannes Weisser, Sunhae Im, Benno Schachtner, Sebastian Kohlhepp / Johannes-Passion (Disc 2)

Used drive : ATAPI iHAS124 F Adapter: 1 ID: 0

Read mode : Secure
Utilize accurate stream : Yes
Defeat audio cache : Yes
Make use of C2 pointers : No

Read offset correction : 6
Overread into Lead-In and Lead-Out : No
Fill up missing offset samples with silence : Yes
Delete leading and trailing silent blocks : No
Null samples used in CRC calculations : Yes
Used interface : Native Win32 interface for Win NT & 2000

Used output format : User Defined Encoder
Selected bitrate : 1024 kBit/s
Quality : High
Add ID3 tag : No
Command line compressor : C:\Program Files (x86)\Exact Audio Copy\FLAC\FLAC.EXE
Additional command line options : -6 -V -T "ARTIST=%artist%" -T "TITLE=%title%" -T "ALBUM=%albumtitle%" -T "DATE=%year%" -T "TRACKNUMBER=%tracknr%" -T "GENRE=%genre%" -T "COMMENT=%comment%" -T "BAND=%albuminterpret%" -T "ALBUMARTIST=%albuminterpret%" -T "COMPOSER=%composer%" %haslyrics%–tag-from-file=LYRICS="%lyricsfile%"%haslyrics% -T "DISCNUMBER=%cdnumber%" -T "TOTALDISCS=%totalcds%" -T "TOTALTRACKS=%numtracks%" %hascover%–picture="%coverfile%"%hascover% %source% -o %dest%


TOC of the extracted CD

Track | Start | Length | Start sector | End sector
––––––––––––––––––––––––––––-
1 | 0:00.00 | 1:51.35 | 0 | 8359
2 | 1:51.35 | 1:13.30 | 8360 | 13864
3 | 3:04.65 | 3:43.06 | 13865 | 30595
4 | 6:47.71 | 1:08.71 | 30596 | 35766
5 | 7:56.67 | 1:22.61 | 35767 | 41977
6 | 9:19.53 | 4:36.35 | 41978 | 62712
7 | 13:56.13 | 0:23.39 | 62713 | 64476
8 | 14:19.52 | 4:04.53 | 64477 | 82829
9 | 18:24.30 | 0:25.53 | 82830 | 84757
10 | 18:50.08 | 0:46.66 | 84758 | 88273
11 | 19:36.74 | 6:10.03 | 88274 | 116026
12 | 25:47.02 | 1:49.74 | 116027 | 124275
13 | 27:37.01 | 1:17.63 | 124276 | 130113
14 | 28:54.64 | 1:43.25 | 130114 | 137863
15 | 30:38.14 | 6:22.17 | 137864 | 166530
16 | 37:00.31 | 2:22.29 | 166531 | 177209
17 | 39:22.60 | 6:34.68 | 177210 | 206827
18 | 45:57.53 | 4:29.34 | 206828 | 227036
19 | 50:27.12 | 4:55.04 | 227037 | 249165
20 | 55:22.16 | 5:05.32 | 249166 | 272072
21 | 60:27.48 | 4:38.42 | 272073 | 292964


Range status and errors

Selected range

Filename C:\EACRip\Bach - Johannes-Passion (Rene Jacobs) (2016)\CD2\Bach - Johannes-Passion (Disc 2) - Rene Jacobs.wav

Peak level 94.3 %
Extraction speed 9.7 X
Range quality 100.0 %
Test CRC C0FBC73C
Copy CRC C0FBC73C
Copy OK

No errors occurred


AccurateRip summary

Track 1 accurately ripped (confidence 27) [02DB4FB0] (AR v2)
Track 2 accurately ripped (confidence 27) [450E3471] (AR v2)
Track 3 accurately ripped (confidence 27) [2D781D0A] (AR v2)
Track 4 accurately ripped (confidence 27) [9AA82ACF] (AR v2)
Track 5 accurately ripped (confidence 27) [9DE71CA3] (AR v2)
Track 6 accurately ripped (confidence 27) [4A738BCC] (AR v2)
Track 7 accurately ripped (confidence 27) [921B1B07] (AR v2)
Track 8 accurately ripped (confidence 27) [16E76D09] (AR v2)
Track 9 accurately ripped (confidence 27) [222840DD] (AR v2)
Track 10 accurately ripped (confidence 27) [139B14E4] (AR v2)
Track 11 accurately ripped (confidence 27) [C98F07F6] (AR v2)
Track 12 accurately ripped (confidence 27) [32D0636D] (AR v2)
Track 13 accurately ripped (confidence 27) [63B5F5B1] (AR v2)
Track 14 accurately ripped (confidence 27) [8A5D0584] (AR v2)
Track 15 accurately ripped (confidence 27) [A1B965CC] (AR v2)
Track 16 accurately ripped (confidence 27) [65899815] (AR v2)
Track 17 accurately ripped (confidence 27) [59A6F8B6] (AR v2)
Track 18 accurately ripped (confidence 27) [46B7E06B] (AR v2)
Track 19 accurately ripped (confidence 27) [72D338B5] (AR v2)
Track 20 accurately ripped (confidence 27) [7F4F614A] (AR v2)
Track 21 accurately ripped (confidence 27) [3E06581A] (AR v2)

All tracks accurately ripped

End of status report

–– CUETools DB Plugin V2.1.6

[CTDB TOCID: Sb7FjUKjh8Aqmf4OzwUaTEeSMYw-] found
Submit result: Sb7FjUKjh8Aqmf4OzwUaTEeSMYw- has been confirmed
Track | CTDB Status
1 | (90/90) Accurately ripped
2 | (90/90) Accurately ripped
3 | (90/90) Accurately ripped
4 | (90/90) Accurately ripped
5 | (90/90) Accurately ripped
6 | (89/90) Accurately ripped
7 | (90/90) Accurately ripped
8 | (90/90) Accurately ripped
9 | (90/90) Accurately ripped
10 | (90/90) Accurately ripped
11 | (90/90) Accurately ripped
12 | (90/90) Accurately ripped
13 | (90/90) Accurately ripped
14 | (90/90) Accurately ripped
15 | (90/90) Accurately ripped
16 | (90/90) Accurately ripped
17 | (90/90) Accurately ripped
18 | (88/90) Accurately ripped
19 | (87/90) Accurately ripped
20 | (90/90) Accurately ripped
21 | (90/90) Accurately ripped


==== Log checksum 6D31DC2F4848F83621CB20BF6548F93A611C0DBB3CB0B9D3FE36017FCC4C8401 ====

René Jacobs, Akademie für Alte Musik Berlin, RIAS Kammerchor - Johann Sebastian Bach: Johannes-Passion (2016)

Thanks to the original releaser