Subcategories

Renee Fleming - By Request (2003)

Posted By: tirexiss
Renee Fleming - By Request (2003)

Renee Fleming - By Request (2003)
EAC | FLAC (image+.cue, log) | Covers Included | 77:52 | 349 MB
Genre: Classical, Vocal | Label: Decca | Catalog: 102402

This Renée Fleming disc, By Request, is mostly a compilation of previously released material. There are three new tracks, "Ah fors' è lui" from Giuseppe Verdi's La Traviata, the song "Cäcille" by Richard Strauss, and "You'll Never Walk Alone" from Rogers & Hammerstein's musical Carousel. The new recordings all sound fine, and Fleming is outstanding in the re-issued pieces as well. If you have the prior incarnations of these recordings, you may elect to pass on this collection unless you want the three new tracks. However, if you are unfamiliar with the voice of Fleming, By Request will prove an excellent and wholly satisfactory vehicle for getting to know her work. The recording is up to Decca's usual high standards, and the booklet includes several attractive photos of Fleming in addition to complete texts and translations for all of the lyrics sung.

Renee Fleming - By Request (2003)

Track List:

01. Gianni Schicchi, opera O mio babbino caro
Composed by Giacomo Puccini
with Renee Fleming
02. La Wally, opera (dramma musicale) in 4 acts Ebben? … Ne andro lontana
Composed by Alfredo Catalani
Performed by London Philharmonic Orchestra
with Renee Fleming
Conducted by Sir Charles Mackerras
03. Le nozze di Figaro (The Marriage of Figaro), opera, K. 492 Porgi, amor
Composed by Wolfgang Amadeus Mozart
Performed by London Symphony Orchestra
with Renee Fleming
Conducted by Georg Solti
04. Cosi fan tutte, opera, K. 588 Come scoglio
Composed by Wolfgang Amadeus Mozart
Performed by Chamber Orchestra Europe
with Renee Fleming
Conducted by Georg Solti
05. Norma, opera Casta diva
Composed by Vincenzo Bellini
Performed by London Philharmonic Orchestra
with Renee Fleming
Conducted by Sir Charles Mackerras
06. La Traviata, opera E strano … Ah, fors'e lui … Sempre libera
Composed by Giuseppe Verdi
Performed by Orchestra of St. Luke's
with Joseph Calleja, Renee Fleming
Conducted by Patrick Summers
07. Madama Butterfly (Madame Butterfly), opera Un bel di vedremo
Composed by Giacomo Puccini
Performed by London Philharmonic Orchestra
with Renee Fleming
Conducted by Sir Charles Mackerras
08. Manon, comic opera in 5 acts Je marche sur tous les chemins … Obeissons quand leur voix appelle (Gavotte)
Composed by Jules Massenet
Performed by English Chamber Orchestra
with Renee Fleming
Conducted by Jeffrey Tate
09. Rusalka, opera, B. 203 (Op. 114) Mesicku na nebi hlubokem (O silver moon)
Composed by Antonin Dvorak
Performed by London Symphony Orchestra
with Renee Fleming
Conducted by Georg Solti
10. Vocalise, song for voice & piano, Op. 34/14
Composed by Sergey Rachmaninov
Performed by English Chamber Orchestra
with Renee Fleming
Conducted by Jeffrey Tate
11. Cacilie ("Wenn du es wusstest"), song for voice & piano (or orchestra), Op. 27/2 (TrV 170/2)
Composed by Richard Strauss
Performed by Orchestra of St. Luke's
with Renee Fleming
Conducted by Patrick Summers
12. Die tote Stadt (The Dead City), opera, Op. 12 Gluck, das mir vervlieb (Mariettas Lied)
Composed by Erich Wolfgang Korngold
Performed by English Chamber Orchestra
with Renee Fleming
Conducted by Jeffrey Tate
13. Porgy and Bess, opera Summertime
Composed by George Gershwin
Performed by Metropolitan Opera Orchestra
with Renee Fleming
Conducted by James Levine
14. Bachianas Brasileiras No. 5, for voice & piano, A. 390 Aria (Cantilena)
Composed by Heitor Villa-Lobos
with Lee Ritenour, Renee Fleming, Dave Grusin
15. You'll Never Walk Alone, song (from "Carousel")
Composed by Richard Rodgers
Performed by Orchestra of St. Luke's
with Renee Fleming
Conducted by Patrick Summers

Exact Audio Copy V0.99 prebeta 4 from 23. January 2008

Отчёт EAC об извлечении, выполненном 4. июля 2009, 14:04

Renйe Fleming (soprano) / Renйe Fleming: By Request

Дисковод: TEAC DV-W516GDM Adapter: 0 ID: 0

Режим чтения : Достоверность
Использование точного потока : Да
Отключение кэша аудио : Да
Использование указателей C2 : Нет

Коррекция смещения при чтении : 6
Способность читать области Lead-in и Lead-out : Нет
Заполнение пропущенных сэмплов тишиной : Да
Удаление блоков с тишиной в начале и конце : Нет
При вычислениях CRC использовались нулевые сэмплы : Нет
Интерфейс : Установленный внешний ASPI-интерфейс

Выходной формат : Внутренние WAV-операции
Формат сэмплов : 44.100 Гц; 16 бит; стерео


TOC извлечённого CD

Трек | Старт | Длительность | Начальный сектор | Конечный сектор
––––––––––––––––––––––––––––––––––-
1 | 0:00.00 | 2:53.17 | 0 | 12991
2 | 2:53.17 | 5:04.62 | 12992 | 35853
3 | 7:58.04 | 3:54.13 | 35854 | 53416
4 | 11:52.17 | 4:25.63 | 53417 | 73354
5 | 16:18.05 | 6:01.37 | 73355 | 100466
6 | 22:19.42 | 10:01.68 | 100467 | 145609
7 | 32:21.35 | 4:55.09 | 145610 | 167743
8 | 37:16.44 | 6:16.50 | 167744 | 195993
9 | 43:33.19 | 5:59.25 | 195994 | 222943
10 | 49:32.44 | 5:40.38 | 222944 | 248481
11 | 55:13.07 | 2:23.66 | 248482 | 259272
12 | 57:36.73 | 6:02.05 | 259273 | 286427
13 | 63:39.03 | 4:20.45 | 286428 | 305972
14 | 67:59.48 | 5:07.53 | 305973 | 329050
15 | 73:07.26 | 4:44.41 | 329051 | 350391


Характеристики диапазона извлечения и сообщения об ошибках

Выбранный диапазон

Имя файла D:\Новая папка\Renйe Fleming (soprano) - Renйe Fleming By Request.wav

Пиковый уровень 100.0 %
Качество диапазона 100.0 %
CRC копии 8CFDF7DD
Копирование… OK

Ошибок не произошло


AccurateRip: сводка

Трек 1 точное извлечение (доверие 12) [F61FD7A4]
Трек 2 точное извлечение (доверие 12) [3D18F127]
Трек 3 точное извлечение (доверие 12) [B20CE367]
Трек 4 точное извлечение (доверие 12) [B2C35760]
Трек 5 точное извлечение (доверие 12) [244C962D]
Трек 6 точное извлечение (доверие 12) [A55BD13C]
Трек 7 точное извлечение (доверие 12) [48CBB841]
Трек 8 точное извлечение (доверие 12) [2528008E]
Трек 9 точное извлечение (доверие 11) [3B7DCE4C]
Трек 10 точное извлечение (доверие 12) [AD7F95B6]
Трек 11 точное извлечение (доверие 11) [7F0C5804]
Трек 12 точное извлечение (доверие 12) [B159E039]
Трек 13 точное извлечение (доверие 12) [15878412]
Трек 14 точное извлечение (доверие 12) [E7F5ED79]
Трек 15 точное извлечение (доверие 11) [D41EFF14]

Все треки извлечены точно

Конец отчёта

[CUETools log; Date: 21.10.2017 10:24:26; Version: 2.1.5]
[CTDB TOCID: HNKdrGHT1zF6sqtokuNVaXCsiPk-] found.
Track | CTDB Status
1 | (32/32) Accurately ripped
2 | (32/32) Accurately ripped
3 | (32/32) Accurately ripped
4 | (32/32) Accurately ripped
5 | (32/32) Accurately ripped
6 | (32/32) Accurately ripped
7 | (32/32) Accurately ripped
8 | (32/32) Accurately ripped
9 | (32/32) Accurately ripped
10 | (32/32) Accurately ripped
11 | (32/32) Accurately ripped
12 | (32/32) Accurately ripped
13 | (32/32) Accurately ripped
14 | (32/32) Accurately ripped
15 | (32/32) Accurately ripped
[AccurateRip ID: 002a8a88-01e946b1-d8123f0f] found.
Track [ CRC | V2 ] Status
01 [f61fd7a4|0f1c96ab] (18+19/42) Accurately ripped
02 [3d18f127|280b3dd7] (18+19/42) Accurately ripped
03 [b20ce367|2be41b99] (18+19/42) Accurately ripped
04 [b2c35760|2927f236] (18+19/41) Accurately ripped
05 [244c962d|ffe1cc78] (18+19/42) Accurately ripped
06 [a55bd13c|fbf0b531] (18+19/41) Accurately ripped
07 [48cbb841|cca60b83] (18+19/42) Accurately ripped
08 [2528008e|975fc551] (18+19/41) Accurately ripped
09 [3b7dce4c|5e87c1a2] (16+19/40) Accurately ripped
10 [ad7f95b6|90b0de86] (18+19/42) Accurately ripped
11 [7f0c5804|9c7b86b5] (16+19/39) Accurately ripped
12 [b159e039|71898a08] (17+19/40) Accurately ripped
13 [15878412|f4a0bb84] (17+19/41) Accurately ripped
14 [e7f5ed79|6808db33] (17+19/40) Accurately ripped
15 [d41eff14|ae16ba85] (15+19/39) Accurately ripped
Offsetted by -1310:
01 [b94badb0] (00/42) No match (V2 was not tested)
02 [f638f953] (00/42) No match (V2 was not tested)
03 [510f65b1] (00/42) No match (V2 was not tested)
04 [75d7f230] (00/41) No match (V2 was not tested)
05 [2d83f9b2] (00/42) No match (V2 was not tested)
06 [4fcf7915] (00/41) No match (V2 was not tested)
07 [7e942ac7] (00/42) No match (V2 was not tested)
08 [0367489c] (00/41) No match (V2 was not tested)
09 [6d45c36b] (00/40) No match (V2 was not tested)
10 [fbcdca16] (00/42) No match (V2 was not tested)
11 [707049a1] (00/39) No match (V2 was not tested)
12 [69bcc47c] (00/40) No match (V2 was not tested)
13 [734d2b56] (00/41) No match (V2 was not tested)
14 [15e5fb55] (00/40) No match (V2 was not tested)
15 [c89c9216] (00/39) No match (V2 was not tested)
Offsetted by -646:
01 [a9f4b579] (00/42) No match (V2 was not tested)
02 [f77637a4] (00/42) No match (V2 was not tested)
03 [307d3ea0] (00/42) No match (V2 was not tested)
04 [548f59ce] (00/41) No match (V2 was not tested)
05 [a87a647f] (00/42) No match (V2 was not tested)
06 [d520ffc4] (00/41) No match (V2 was not tested)
07 [31de9097] (00/42) No match (V2 was not tested)
08 [5b0ab7c1] (00/41) No match (V2 was not tested)
09 [4f5ea254] (00/40) No match (V2 was not tested)
10 [bafe90c9] (00/42) No match (V2 was not tested)
11 [c128206f] (00/39) No match (V2 was not tested)
12 [a0908c14] (00/40) No match (V2 was not tested)
13 [f1f70d9f] (00/41) No match (V2 was not tested)
14 [df593093] (00/40) No match (V2 was not tested)
15 [666316f7] (00/39) No match (V2 was not tested)

Track Peak [ CRC32 ] [W/O NULL] [ LOG ]
– 100,0 [40A09691] [8CFDF7DD] W/O NULL
01 54,8 [CEA77DB0] [63E35B4A]
02 83,3 [39BEEE96] [7CA0053E]
03 43,9 [48ED3CD8] [E1AB2856]
04 92,7 [BC97569A] [572FD112]
05 69,6 [CFA310FB] [3930AE62]
06 100,0 [F0978591] [F47C0EBB]
07 86,0 [8145256D] [9CE8998F]
08 98,9 [2DCD65C1] [0ECCA6C3]
09 78,8 [61A0077A] [1D2FC8E9]
10 49,2 [3E459281] [F206E600]
11 82,9 [819FFAE0] [73619D80]
12 76,5 [9804BB01] [28851BCF]
13 92,9 [F867B623] [FBBF225E]
14 40,0 [C4D93EC5] [9EC1BADB]
15 89,0 [CF27C276] [7CEA72DC]

Thanks to the Original ripper (unknown)!

Download: