Subcategories

Reo Speedwagon - Live in the Heartland (2011) [Blu-ray]

Posted By: juanchito
Reo Speedwagon - Live in the Heartland (2011) [Blu-ray]

Reo Speedwagon - Live in the Heartland (2011)
Blu-ray | BDMV | 1920x1080i, MPEG-4 AVC, 29.970 fps, ~23994 Kbps | 23.19 GB
Audio: English DTS-HD MA (48 kHz / 4783 kbps / 24-bit); English LPCM 2.0 (48 kHz / 2304 kbps / 24-bit)
Rock | Length: 01:33:26


Captured in High-Definition and Mixed in 5.1 Surround Sound. Reo Speedwagon: Live in the Heartland presents Kevin Cronin (lead vocals, guitar), Bruce Hall (bass), Neal Doughty (keyboards), Dave Amato (lead guitar) and Bryan Hitt (drums) performing a full-throttle, 16-song set that spans the band’s celebrated 35-year career – from the Number 1 charting "Keep On Loving You" and "Can't Fight This Feeling" to hits from their most recent album release Find Your Own Way Home.

Reo Speedwagon - Live in the Heartland (2011) [Blu-ray]

Reo Speedwagon - Live in the Heartland (2011) [Blu-ray]

Reo Speedwagon - Live in the Heartland (2011) [Blu-ray]

Reo Speedwagon - Live in the Heartland (2011) [Blu-ray]



Tracklist
1. Find Your Own Way Home
2. Take It on the Run
3. Keep Pushin’
4. I Needed to Fall
5. Tough Guys
6. Can’t Fight This Feeling
7. Dangerous Combination
8. Back on the Road Again
9. Smilin' in the End
10. Time for Me to Fly
11. Don’t Let Him Go
12. Keep on Loving You
13. Roll with the Changes
14. Ridin’ the Storm Out
15. Golden Country
16. 157 Riverside Avenue



Disc Title:
Disc Size: 24 901 104 462 bytes
Protection: AACS
BD-Java: Yes
BDInfo: 0.5.3

Notes:

BDINFO HOME:
Cinema Squid
http://www.cinemasquid.com/blu-ray/tools/bdinfo

INCLUDES FORUMS REPORT FOR:
AVS Forum Blu-ray Audio and Video Specifications Thread
http://www.avsforum.com/avs-vb/showthread.php?t=1155731

********************
PLAYLIST: 00003.MPLS
********************

<–- BEGIN FORUMS PASTE –->
Код:
Total Video
Title Codec Length Movie Size Disc Size Bitrate Bitrate Main Audio Track Secondary Audio Track
––- ––– –––- ––––––– ––––––– –––- –––- ––––––––– ––––––––––-
00003.MPLS AVC 1:33:26 23 007 412 224 24 901 104 462 32,83 23,99 DTS-HD Master 5.1 4783Kbps (48kHz/24-bit) LPCM 2.0 2304Kbps (48kHz/24-bit)
Код:
DISC INFO:

Disc Title:
Disc Size: 24 901 104 462 bytes
Protection: AACS
BD-Java: Yes
BDInfo: 0.5.3

PLAYLIST REPORT:

Name: 00003.MPLS
Length: 1:33:26 (h:m:s)
Size: 23 007 412 224 bytes
Total Bitrate: 32,83 Mbps

VIDEO:

Codec Bitrate Description
––- –––- –––––-
MPEG-4 AVC Video 23994 kbps 1080i / 29,970 fps / 16:9 / High Profile 4.1

AUDIO:

Codec Language Bitrate Description
––- –––– –––- –––––-
DTS-HD Master Audio English 4783 kbps 5.1 / 48 kHz / 4783 kbps / 24-bit (DTS Core: 5.1 / 48 kHz / 1509 kbps / 24-bit)
LPCM Audio English 2304 kbps 2.0 / 48 kHz / 2304 kbps / 24-bit

FILES:

Name Time In Length Size Total Bitrate
–– –––- ––– –– ––––––-
00004.M2TS 0:00:00.000 1:33:26.834 23 007 412 224 32 828

CHAPTERS:

Number Time In Length Avg Video Rate Max 1-Sec Rate Max 1-Sec Time Max 5-Sec Rate Max 5-Sec Time Max 10Sec Rate Max 10Sec Time Avg Frame Size Max Frame Size Max Frame Time
––– –––- ––– ––––––– ––––––– ––––––– ––––––– ––––––– ––––––– ––––––– ––––––– ––––––– –––––––
1 0:00:00.000 0:00:41.041 18 780 kbps 35 311 kbps 00:00:30.230 30 549 kbps 00:00:34.100 29 899 kbps 00:00:30.029 78 265 bytes 320 542 bytes 00:00:31.097
2 0:00:41.041 0:04:42.281 24 862 kbps 52 257 kbps 00:03:11.624 43 091 kbps 00:03:10.290 33 818 kbps 00:03:08.288 103 693 bytes 428 599 bytes 00:03:12.592
3 0:05:23.323 0:04:07.246 23 371 kbps 37 511 kbps 00:08:17.864 31 552 kbps 00:08:29.876 28 930 kbps 00:07:45.097 97 477 bytes 315 280 bytes 00:08:17.897
4 0:09:30.569 0:08:54.534 24 184 kbps 42 737 kbps 00:16:12.771 37 755 kbps 00:14:29.468 36 703 kbps 00:14:24.430 100 867 bytes 367 422 bytes 00:09:37.476
5 0:18:25.104 0:04:19.259 23 840 kbps 44 464 kbps 00:20:21.820 34 555 kbps 00:21:16.074 31 524 kbps 00:21:11.036 99 432 bytes 378 296 bytes 00:20:21.954
6 0:22:44.363 0:04:04.243 24 605 kbps 49 157 kbps 00:26:23.815 36 615 kbps 00:26:22.147 34 472 kbps 00:25:51.917 102 623 bytes 413 398 bytes 00:26:24.783
7 0:26:48.607 0:06:19.378 21 147 kbps 41 790 kbps 00:27:39.057 33 599 kbps 00:26:52.110 30 188 kbps 00:26:50.041 88 200 bytes 387 344 bytes 00:27:39.924
8 0:33:07.986 0:05:06.306 22 463 kbps 41 174 kbps 00:38:09.286 39 018 kbps 00:38:05.950 33 394 kbps 00:38:00.978 93 687 bytes 367 339 bytes 00:38:02.713
9 0:38:14.292 0:08:17.497 25 983 kbps 62 131 kbps 00:41:22.112 38 284 kbps 00:44:42.880 36 864 kbps 00:44:11.749 108 372 bytes 515 866 bytes 00:41:22.146
10 0:46:31.789 0:03:48.227 24 017 kbps 58 256 kbps 00:48:31.441 40 332 kbps 00:48:30.607 32 452 kbps 00:48:30.574 100 169 bytes 519 245 bytes 00:48:32.309
11 0:50:20.017 0:04:44.284 22 269 kbps 41 359 kbps 00:53:24.968 33 982 kbps 00:52:14.698 30 289 kbps 00:52:12.429 92 882 bytes 396 511 bytes 00:53:25.101
12 0:55:04.301 0:04:58.298 25 011 kbps 40 952 kbps 00:55:18.682 32 072 kbps 00:57:49.165 29 603 kbps 00:57:14.197 104 318 bytes 375 296 bytes 01:00:00.330
13 1:00:02.599 0:03:30.210 28 389 kbps 51 325 kbps 01:00:32.395 43 584 kbps 01:00:31.527 37 384 kbps 01:00:29.225 118 406 bytes 445 537 bytes 01:00:33.363
14 1:03:32.809 0:07:07.426 25 683 kbps 53 560 kbps 01:08:17.293 40 602 kbps 01:08:16.926 34 810 kbps 01:08:15.991 107 120 bytes 398 823 bytes 01:08:18.994
15 1:10:40.236 0:06:41.400 26 200 kbps 47 588 kbps 01:16:02.324 41 838 kbps 01:12:04.086 38 575 kbps 01:15:56.552 109 274 bytes 410 163 bytes 01:12:05.988
16 1:17:21.637 0:07:55.475 22 597 kbps 44 574 kbps 01:23:31.339 40 228 kbps 01:23:28.169 34 414 kbps 01:23:25.467 94 250 bytes 388 013 bytes 01:23:29.804
17 1:25:17.112 0:08:09.722 21 515 kbps 47 406 kbps 01:26:20.108 38 175 kbps 01:26:19.774 35 753 kbps 01:26:19.774 89 743 bytes 376 606 bytes 01:26:56.978

STREAM DIAGNOSTICS:

File PID Type Codec Language Seconds Bitrate Bytes Packets
–– –- –– ––- –––– ––––––– ––––––– ––––––- ––-
00004.M2TS 4113 (0x1011) 0x1B AVC 5606,734 23 994 16 816 271 256 91 574 379
00004.M2TS 4352 (0x1100) 0x86 DTS-HD MA eng (English) 5606,734 4 783 3 351 950 044 19 091 540
00004.M2TS 4353 (0x1101) 0x80 LPCM eng (English) 5606,734 2 312 1 620 237 312 8 976 384
<–– END FORUMS PASTE ––>

QUICK SUMMARY:

Disc Title:
Disc Size: 24 901 104 462 bytes
Protection: AACS
BD-Java: Yes
Playlist: 00003.MPLS
Size: 23 007 412 224 bytes
Length: 1:33:26
Total Bitrate: 32,83 Mbps
Video: MPEG-4 AVC Video / 23994 kbps / 1080i / 29,970 fps / 16:9 / High Profile 4.1
Audio: English / DTS-HD Master Audio / 5.1 / 48 kHz / 4783 kbps / 24-bit (DTS Core: 5.1 / 48 kHz / 1509 kbps / 24-bit)
Audio: English / LPCM Audio / 2.0 / 48 kHz / 2304 kbps / 24-bit

********************
PLAYLIST: 00004.MPLS
********************

<–- BEGIN FORUMS PASTE –->
Код:
Total Video
Title Codec Length Movie Size Disc Size Bitrate Bitrate Main Audio Track Secondary Audio Track
––- ––– –––- ––––––– ––––––– –––- –––- ––––––––– ––––––––––-
00004.MPLS AVC 0:10:38 1 601 402 880 24 901 104 462 20,08 15,42 LPCM 2.0 1536Kbps (48kHz/16-bit) DTS-HD Master 2.0 1678Kbps (48kHz/16-bit)
Код:
DISC INFO:

Disc Title:
Disc Size: 24 901 104 462 bytes
Protection: AACS
BD-Java: Yes
BDInfo: 0.5.3

PLAYLIST REPORT:

Name: 00004.MPLS
Length: 0:10:38 (h:m:s)
Size: 1 601 402 880 bytes
Total Bitrate: 20,08 Mbps

VIDEO:

Codec Bitrate Description
––- –––- –––––-
MPEG-4 AVC Video 15416 kbps 1080i / 29,970 fps / 16:9 / High Profile 4.1

AUDIO:

Codec Language Bitrate Description
––- –––– –––- –––––-
LPCM Audio English 1536 kbps 2.0 / 48 kHz / 1536 kbps / 16-bit
DTS-HD Master Audio English 1678 kbps 2.0 / 48 kHz / 1678 kbps / 16-bit (DTS Core: 2.0 / 48 kHz / 1509 kbps / 16-bit)

FILES:

Name Time In Length Size Total Bitrate
–– –––- ––– –– ––––––-
00005.M2TS 0:00:00.000 0:10:38.104 1 601 402 880 20 077

CHAPTERS:

Number Time In Length Avg Video Rate Max 1-Sec Rate Max 1-Sec Time Max 5-Sec Rate Max 5-Sec Time Max 10Sec Rate Max 10Sec Time Avg Frame Size Max Frame Size Max Frame Time
––– –––- ––– ––––––– ––––––– ––––––– ––––––– ––––––– ––––––– ––––––– ––––––– ––––––– –––––––
1 0:00:00.000 0:10:38.104 15 416 kbps 23 742 kbps 00:00:06.339 22 003 kbps 00:00:05.939 19 915 kbps 00:00:05.739 64 298 bytes 254 096 bytes 00:05:59.792

STREAM DIAGNOSTICS:

File PID Type Codec Language Seconds Bitrate Bytes Packets
–– –- –– ––- –––– ––––––– ––––––– ––––––- ––-
00005.M2TS 4113 (0x1011) 0x1B AVC 638,004 15 419 1 229 636 757 6 703 413
00005.M2TS 4352 (0x1100) 0x86 DTS-HD MA eng (English) 638,004 1 679 133 877 920 827 542
00005.M2TS 4353 (0x1101) 0x80 LPCM eng (English) 638,004 1 587 126 551 992 787 668
<–– END FORUMS PASTE ––>

QUICK SUMMARY:

Disc Title:
Disc Size: 24 901 104 462 bytes
Protection: AACS
BD-Java: Yes
Playlist: 00004.MPLS
Size: 1 601 402 880 bytes
Length: 0:10:38
Total Bitrate: 20,08 Mbps
Video: MPEG-4 AVC Video / 15416 kbps / 1080i / 29,970 fps / 16:9 / High Profile 4.1
Audio: English / LPCM Audio / 2.0 / 48 kHz / 1536 kbps / 16-bit
Audio: English / DTS-HD Master Audio / 2.0 / 48 kHz / 1678 kbps / 16-bit (DTS Core: 2.0 / 48 kHz / 1509 kbps / 16-bit)

********************
PLAYLIST: 00006.MPLS
********************

<–- BEGIN FORUMS PASTE –->
Код:
Total Video
Title Codec Length Movie Size Disc Size Bitrate Bitrate Main Audio Track Secondary Audio Track
––- ––– –––- ––––––– ––––––– –––- –––- ––––––––– ––––––––––-
00006.MPLS AVC 0:02:04 205 406 208 24 901 104 462 13,22 8,24 LPCM 2.0 2304Kbps (48kHz/24-bit) DTS-HD Master 2.0 1754Kbps (48kHz/24-bit)
Код:
DISC INFO:

Disc Title:
Disc Size: 24 901 104 462 bytes
Protection: AACS
BD-Java: Yes
BDInfo: 0.5.3

PLAYLIST REPORT:

Name: 00006.MPLS
Length: 0:02:04 (h:m:s)
Size: 205 406 208 bytes
Total Bitrate: 13,22 Mbps

VIDEO:

Codec Bitrate Description
––- –––- –––––-
MPEG-4 AVC Video 8240 kbps 1080i / 29,970 fps / 16:9 / High Profile 4.1

AUDIO:

Codec Language Bitrate Description
––- –––– –––- –––––-
LPCM Audio English 2304 kbps 2.0 / 48 kHz / 2304 kbps / 24-bit
DTS-HD Master Audio English 1754 kbps 2.0 / 48 kHz / 1754 kbps / 24-bit (DTS Core: 2.0 / 48 kHz / 1509 kbps / 24-bit)

FILES:

Name Time In Length Size Total Bitrate
–– –––- ––– –– ––––––-
00007.M2TS 0:00:00.000 0:02:04.257 205 406 208 13 225

CHAPTERS:

Number Time In Length Avg Video Rate Max 1-Sec Rate Max 1-Sec Time Max 5-Sec Rate Max 5-Sec Time Max 10Sec Rate Max 10Sec Time Avg Frame Size Max Frame Size Max Frame Time
––– –––- ––– ––––––– ––––––– ––––––– ––––––– ––––––– ––––––– ––––––– ––––––– ––––––– –––––––
1 0:00:00.000 0:02:04.257 8 240 kbps 22 632 kbps 00:01:26.352 13 448 kbps 00:01:22.882 11 989 kbps 00:01:18.945 34 369 bytes 168 924 bytes 00:01:26.653

STREAM DIAGNOSTICS:

File PID Type Codec Language Seconds Bitrate Bytes Packets
–– –- –– ––- –––– ––––––– ––––––– ––––––- ––-
00007.M2TS 4113 (0x1011) 0x1B AVC 124,191 8 245 127 990 972 699 583
00007.M2TS 4352 (0x1100) 0x86 DTS-HD MA eng (English) 124,191 1 755 27 249 372 167 154
00007.M2TS 4353 (0x1101) 0x80 LPCM eng (English) 124,191 2 312 35 896 396 198 872
<–– END FORUMS PASTE ––>

QUICK SUMMARY:

Disc Title:
Disc Size: 24 901 104 462 bytes
Protection: AACS
BD-Java: Yes
Playlist: 00006.MPLS
Size: 205 406 208 bytes
Length: 0:02:04
Total Bitrate: 13,22 Mbps
Video: MPEG-4 AVC Video / 8240 kbps / 1080i / 29,970 fps / 16:9 / High Profile 4.1
Audio: English / LPCM Audio / 2.0 / 48 kHz / 2304 kbps / 24-bit
Audio: English / DTS-HD Master Audio / 2.0 / 48 kHz / 1754 kbps / 24-bit (DTS Core: 2.0 / 48 kHz / 1509 kbps / 24-bit)




Thanks to the original uploader