Tags
Language
Tags
June 2024
Su Mo Tu We Th Fr Sa
26 27 28 29 30 31 1
2 3 4 5 6 7 8
9 10 11 12 13 14 15
16 17 18 19 20 21 22
23 24 25 26 27 28 29
30 1 2 3 4 5 6

Riccardo Chailly - The Symphony Edition (55CD Box Set, 2019) Part4

Posted By: Discograf_man
Riccardo Chailly - The Symphony Edition (55CD Box Set, 2019) Part4

Riccardo Chailly - The Symphony Edition (55CD Box Set, 2019) Part4
EAC Rip | APE (*image+.cue+.log) | Run Time: 10:59:33 | 2,65 Gb | Covers 104 Mb
Genre: Classical | Label: Decca

• 55 CD original jacket, original couplings collection celebrating Maestro Riccardo Chailly’s 40 years on Decca
• Includes complete cycles of Beethoven, Brahms (x2), Schumann (x2), Bruckner and Mahler
• Featuring the orchestras with whom Chailly has been most closely associated: the Gewandhausorchester, the Royal Concertgebouw, and the Deutsches Symphonie-Orchester Berlin

HIGHLIGHTS
• Includes the award-winning Beethoven and Brahms cycles from Leipzig and critically-acclaimed reference cycles of Mahler and Bruckner from Amsterdam
• Schumann’s symphonies with both the Royal Concertgebouw Orchestra and, in Mahler’s orchestrations, the Leipzig Gewandhaus Orchestra
• The sonically spectacular Messiaen TurangalîlaSymphonie with Jean-Yves Thibaudet
• Zemlinsky’s rare early Symphony in B Flat plus the Lyric Symphony (originally released in Decca’s Entartete Musik series)
• Cesar Franck’s Symphony in D minor and Symphonic Variations with Jorge Bolet as soloist
• Mendelssohn 2 ‘Lobgesang’ from his inaugural concerts as Music Director of the Gewandhaus (Mendelssohn’s own orchestra) using the composer’s original published score (the first conductor to record this version) & the late-analogue recording in the revised version with the London Philharmonic: first released in 1980 on Philips LP
• Mendelssohn 3 ‘Scottish’ with the Leipzig Gewandhaus Orchestra in the 1842 London version” & in the revised more familiar score with the London Symphony Orchestra
• Berio’s Sinfonia, recorded in the presence of the composer himself
Riccardo Chailly - The Symphony Edition (55CD Box Set, 2019) Part4

Contents:

CD31 MAHLER: Symphony No.4 · BERG: Seven Early Songs [Royal Concertgebouw Orchestra]
CD32 MAHLER: Symphony No.5 [Royal Concertgebouw Orchestra]
CD33 MAHLER: Symphony No.6 [Royal Concertgebouw Orchestra]
CD34-35 DIEPENBROCK: Im grossen Schweigen · MAHLER: Symphony No.7 [Royal Concertgebouw Orchestra]
CD36 Symphony No.8 “Symphony of a Thousand” [Royal Concertgebouw Orchestra]
CD37-38 MAHLER: Symphony No.9 [Royal Concertgebouw Orchestra]
CD39 MAHLER: Symphony No.10 (Ed. Cooke) [Radio-Symphonie-Orchester Berlin]
CD40 MENDELSSOHN: Symphony No.2 “Lobgesang” [London Philharmonic Orchestra & Choir]

Riccardo Chailly - The Symphony Edition (55CD Box Set, 2019) Part4


Disco: 31
1. 1. Bedächtig. Nicht eilen (Critical Edition: Karl Fussl & Reinhold Kubik) - Royal Concertgebouw Orchestra, Riccardo Chailly
2. 2. In gemächlicher Bewegung. Ohne Hast (Critical Edition: Karl Fussl & Reinhold Kubik) - Royal Concertgebouw Orchestra, Riccardo Chailly
3. 3. Ruhevoll (Critical Edition: Karl Fussl & Reinhold Kubik) - Royal Concertgebouw Orchestra, Riccardo Chailly
4. 4. Sehr behaglich (Critical Edition: Karl Fussl & Reinhold Kubik) - Barbara Bonney, Royal Concertgebouw Orchestra, Riccardo Chailly
5. 1. Nacht (Original Version) - Barbara Bonney, Royal Concertgebouw Orchestra, Riccardo Chailly
6. 2. Schilflied (Original Version) - Barbara Bonney, Royal Concertgebouw Orchestra, Riccardo Chailly
7. 3. Die Nachtigall (Original Version) - Barbara Bonney, Royal Concertgebouw Orchestra, Riccardo Chailly
8. 4. Traumgekrönt (Original Version) - Barbara Bonney, Royal Concertgebouw Orchestra, Riccardo Chailly
9. 5. Im Zimmer (Original Version) - Barbara Bonney, Royal Concertgebouw Orchestra, Riccardo Chailly
10. 6. Liebesode (Original Version) - Barbara Bonney, Royal Concertgebouw Orchestra, Riccardo Chailly
11. 7. Sommertage (Original Version) - Barbara Bonney, Royal Concertgebouw Orchestra, Riccardo Chailly

Disco: 32
1. 1. Trauermarsch In gemessenem Schritt. Streng. Wie ein Kondukt - Plötzlich schneller. Leidenschaftlich. Wild - Tempo I) - Peter Masseurs, Royal Concertgebouw Orchestra, Riccardo Chailly
2. 2. Stürmisch bewegt Mit größter Vehemenz - Bedeutend langsamer - Tempo I subito (Original Version) - Royal Concertgebouw Orchestra, Riccardo Chailly
3. 3. Scherzo Kräftig, nicht zu schnell (Original Version) - Jakob Slagter, Royal Concertgebouw Orchestra, Riccardo Chailly
4. 4. Adagietto Sehr langsam (Original Version) - Royal Concertgebouw Orchestra, Riccardo Chailly
5. 5. Rondo-Finale Allegro (Original Version) - Royal Concertgebouw Orchestra, Riccardo Chailly

Disco: 33
1. 1. Allegro energico, ma non troppo. Heftig aber Markig (Original Version) - Royal Concertgebouw Orchestra, Riccardo Chailly
2. 2. Scherzo Wuchtig (Original Version) - Royal Concertgebouw Orchestra, Riccardo Chailly
3. 3. Andante moderato (Original Version) - Royal Concertgebouw Orchestra, Riccardo Chailly
4. 4. Finale Allegro moderato (Original Version) - Royal Concertgebouw Orchestra, Riccardo Chailly

Disco: 34
1. Im grossen Schweigen RC67 - Hkan Hagegrd, Royal Concertgebouw Orchestra, Riccardo Chailly
2. 1. Langsam - Allegro (Original Version) - Royal Concertgebouw Orchestra, Riccardo Chailly

Disco: 35
1. 2. Nachtmusik Allegro moderato (Original Version) - Royal Concertgebouw Orchestra, Riccardo Chailly
2. 3. Scherzo (Original Version) - Royal Concertgebouw Orchestra, Riccardo Chailly
3. 4. Nachtmusik Andante amoroso (Original Version) - Royal Concertgebouw Orchestra, Riccardo Chailly
4. 5. Rondo - Finale Allegro ordinario - Allegro moderato ma energico (Original Version) - Royal Concertgebouw Orchestra, Riccardo Chailly

Disco: 36
1. "Veni creator spiritus" (Pt. 1: Hymnus "Veni creator spiritus") - Netherlands Radio Choir, Prague Philharmonic Chorus, Royal Concertgebouw Orchestra, Riccardo Chailly
2. "Imple superna gratia" (Pt. 1: Hymnus "Veni creator spiritus") - Jane Eaglen, Anne Schwanewilms, Ruth Ziesak, Sara Fulgoni, Anna Larsson, Ben Heppner, Peter Mattei, Jan-Hendrik Rootering, Netherlands Radio Choir, Prague Philharmonic Chorus, Royal Concertgebouw Orchestra, Riccardo Chailly
3. "Infirma nostri corporis" (Pt. 1: Hymnus "Veni creator spiritus") - Jane Eaglen, Anne Schwanewilms, Ruth Ziesak, Sara Fulgoni, Anna Larsson, Ben Heppner, Peter Mattei, Jan-Hendrik Rootering, Vesko Eshkenazy, Netherlands Radio Choir, Prague Philharmonic Chorus, Royal Concertgebouw Orchestra, Riccardo Chailly
4. "Accende lumen sensibus" (Pt. 1: Hymnus "Veni creator spiritus") - Jane Eaglen, Anne Schwanewilms, Ruth Ziesak, Sara Fulgoni, Anna Larsson, Ben Heppner, Peter Mattei, Jan-Hendrik Rootering, Netherlands Radio Choir, Prague Philharmonic Chorus, Jongens en meisjes van het Kathedrale Koor St.Bavo, Haarlem, Jongenskoor Van Het Sacramentskoor, Breda, Royal Concertgebouw Orchestra, Riccardo Chailly
5. "Veni, Creator…Da gaudiorum praemia" (Pt. 1: Hymnus "Veni creator spiritus") - Jane Eaglen, Anne Schwanewilms, Ruth Ziesak, Sara Fulgoni, Anna Larsson, Ben Heppner, Peter Mattei, Jan-Hendrik Rootering, Netherlands Radio Choir, Prague Philharmonic Chorus, Jongens en meisjes van het Kathedrale Koor St.Bavo, Haarlem, Jongenskoor Van Het Sacramentskoor, Breda, Royal Concertgebouw Orchestra, Riccardo Chailly
6. "Gloria sit Patri Domino" (Pt. 1: Hymnus "Veni creator spiritus") - Jane Eaglen, Anne Schwanewilms, Ruth Ziesak, Sara Fulgoni, Anna Larsson, Ben Heppner, Peter Mattei, Jan-Hendrik Rootering, Netherlands Radio Choir, Prague Philharmonic Chorus, Jongens en meisjes van het Kathedrale Koor St.Bavo, Haarlem, Jongenskoor Van Het Sacramentskoor, Breda, Royal Concertgebouw Orchestra, Riccardo Chailly
7. Poco adagio: Waldung, sie schwankt heran (Part Two: Final scene from Goethe's "Faust") - Netherlands Radio Choir, Prague Philharmonic Chorus, Royal Concertgebouw Orchestra, Riccardo Chailly
8. "Ewiger Wonnebrand" (Part Two: Final scene from Goethe's "Faust") - Peter Mattei, Royal Concertgebouw Orchestra, Riccardo Chailly
9. "Wie Felsenabgrund mir zu Füßen" (Part Two: Final scene from Goethe's "Faust") - Jan-Hendrik Rootering, Royal Concertgebouw Orchestra, Riccardo Chailly
10. "Gerettet ist das edle Glied" (Part Two: Final scene from Goethe's "Faust") - Anne Schwanewilms, Ben Heppner, Vesko Eshkenazy, Netherlands Radio Choir, Prague Philharmonic Chorus, Jongens en meisjes van het Kathedrale Koor St.Bavo, Haarlem, Jongenskoor Van Het Sacramentskoor, Breda, Royal Concertgebouw Orchestra, Riccardo Chailly
11. "Uns bleibt ein Erdenrest" (Part Two: Final scene from Goethe's "Faust") - Sara Fulgoni, Ben Heppner, Vesko Eshkenazy, Netherlands Radio Choir, Prague Philharmonic Chorus, Royal Concertgebouw Orchestra, Riccardo Chailly
12. "Höchste Herrscherin der Welt" (Part Two: Final scene from Goethe's "Faust") - Ben Heppner, Vesko Eshkenazy, Netherlands Radio Choir, Prague Philharmonic Chorus, Royal Concertgebouw Orchestra, Riccardo Chailly
13. "Dir, der Unberührbaren" - "Du schwebst zu Höhen" (Part Two: Final scene from Goethe's "Faust") - Anne Schwanewilms, Vesko Eshkenazy, Netherlands Radio Choir, Prague Philharmonic Chorus, Royal Concertgebouw Orchestra, Riccardo Chailly
14. "Bei der Liebe, die den Füßen" (Part Two: Final scene from Goethe's "Faust") - Jane Eaglen, Sara Fulgoni, Anna Larsson, Vesko Eshkenazy, Royal Concertgebouw Orchestra, Riccardo Chailly
15. "Neige, neige, du Ohnegleiche" (Part Two: Final scene from Goethe's "Faust") - Anne Schwanewilms, Ruth Ziesak, Netherlands Radio Choir, Jongens en meisjes van het Kathedrale Koor St.Bavo, Haarlem, Jongenskoor van het Kathedrale Koor St. Bavo, Royal Concertgebouw Orchestra, Riccardo Chailly
16. "Komm! Komm!" (Part Two: Final scene from Goethe's "Faust") - Ruth Ziesak, Netherlands Radio Choir, Royal Concertgebouw Orchestra, Riccardo Chailly
17. "Blicket auf zum Retterblick" (Part Two: Final scene from Goethe's "Faust") - Jane Eaglen, Anne Schwanewilms, Sara Fulgoni, Anna Larsson, Ben Heppner, Jongens en meisjes van het Kathedrale Koor St.Bavo, Haarlem, Jongenskoor Van Het Sacramentskoor, Breda, Royal Concertgebouw Orchestra, Riccardo Chailly
18. "Alles Vergängliche" (Part Two: Final scene from Goethe's "Faust") - Jane Eaglen, Anne Schwanewilms, Ruth Ziesak, Sara Fulgoni, Anna Larsson, Ben Heppner, Peter Mattei, Jan-Hendrik Rootering, Netherlands Chamber Choir, Prague Philharmonic Chorus, Jongens en meisjes van het Kathedrale Koor St.Bavo, Haarlem, Jongenskoor Van Het Sacramentskoor, Breda, Royal Concertgebouw Orchestra, Riccardo Chailly

Disco: 37
1. 1. Satz (Original Version) - Royal Concertgebouw Orchestra, Riccardo Chailly

Disco: 38
1. 2. Satz (Original Version) - Royal Concertgebouw Orchestra, Riccardo Chailly
2. 3. Satz (Original Version) - Royal Concertgebouw Orchestra, Riccardo Chailly
3. 4. Satz (Original Version) - Royal Concertgebouw Orchestra, Riccardo Chailly

Disco: 39
1. 1. Adagio (Ed. Deryck Cooke) - Radio-Symphonie-Orchester Berlin, Riccardo Chailly
2. 2. Scherzo (Ed. Deryck Cooke) - Radio-Symphonie-Orchester Berlin, Riccardo Chailly
3. 3. Purgatorio (Ed. Deryck Cooke) - Radio-Symphonie-Orchester Berlin, Riccardo Chailly
4. 4. Scherzo (Ed. Deryck Cooke) - Radio-Symphonie-Orchester Berlin, Riccardo Chailly
5. 5. Finale (Ed. Deryck Cooke) - Radio-Symphonie-Orchester Berlin, Riccardo Chailly

Disco: 40
1. 1a. Sinfonia: Maestoso con moto (Original Version) - Gewandhausorchester Leipzig, Riccardo Chailly
2. 1. Sinfonia: Allegro (Original Version) - Gewandhausorchester Leipzig, Riccardo Chailly
3. 1b. Sinfonia: Allegretto un poco agitato (Original Version) - Gewandhausorchester Leipzig, Riccardo Chailly
4. 1c. Sinfonia: Adagio religioso (Original Version) - Gewandhausorchester Leipzig, Riccardo Chailly
5. 2. "Alles was Odem hat, lobe den Herrn" - "Lobe den Herrn, meine Seele" (Original Version) - GewandhausChor, Chor der Oper Leipzig, Gewandhausorchester Leipzig, Riccardo Chailly
6. 3a. "Saget es, die ihr erlöst seid" (Original Version) - Anne Schwanewilms, GewandhausChor, Chor der Oper Leipzig, Gewandhausorchester Leipzig, Riccardo Chailly
7. 3b. "Er zählet unsre Tränen" (Original Version) - Peter Seiffert, Gewandhausorchester Leipzig, Riccardo Chailly
8. 4. "Sagt es, die ihr erlöset seid" (Original Version) - GewandhausChor, Chor der Oper Leipzig, Gewandhausorchester Leipzig, Riccardo Chailly
9. 5. "Ich harrete des Herrn" (Original Version) - Anne Schwanewilms, Petra-Maria Schnitzer, Gewandhausorchester Leipzig, Riccardo Chailly
10. 6. "Stricke des Todes hatten uns umfangen" (Original Version) - Peter Seiffert, Gewandhausorchester Leipzig, Riccardo Chailly
11. 7. "Die Nacht ist vergangen" (Original Version) - GewandhausChor, Chor der Oper Leipzig, Gewandhausorchester Leipzig, Riccardo Chailly
12. 8. "Nun danket alle Gott" - "Lob, Ehr' und Preis sei Gott" (Original Version) - GewandhausChor, Chor der Oper Leipzig, Gewandhausorchester Leipzig, Riccardo Chailly
13. 9. "Drum sing ich mit meinem Liede ewig" (Original Version) - Peter Seiffert, Gewandhausorchester Leipzig, Riccardo Chailly
14. 10. "Ihr Völker, bringet her dem Herrn Ehre und Macht" (Original Version) - GewandhausChor, Chor der Oper Leipzig, Gewandhausorchester Leipzig, Riccardo Chailly


Exact Audio Copy V1.1 from 23. June 2015

EAC extraction logfile from 14. January 2019, 12:18

Riccardo Chailly/ RCO / CD31 - Mahler - Symphony No.4 & Berg

Used drive : HL-DT-STBD-RE WH16NS40 Adapter: 1 ID: 0

Read mode : Secure
Utilize accurate stream : Yes
Defeat audio cache : Yes
Make use of C2 pointers : No

Read offset correction : 6
Overread into Lead-In and Lead-Out : No
Fill up missing offset samples with silence : Yes
Delete leading and trailing silent blocks : No
Null samples used in CRC calculations : Yes
Used interface : Native Win32 interface for Win NT & 2000

Used output format : Internal WAV Routines
Sample format : 44.100 Hz; 16 Bit; Stereo


TOC of the extracted CD

Track | Start | Length | Start sector | End sector
––––––––––––––––––––––––––––-
1 | 0:00.00 | 18:13.01 | 0 | 81975
2 | 18:13.01 | 9:40.02 | 81976 | 125477
3 | 27:53.03 | 20:39.26 | 125478 | 218428
4 | 48:32.29 | 9:52.49 | 218429 | 262877
5 | 58:25.03 | 3:48.14 | 262878 | 279991
6 | 62:13.17 | 1:59.38 | 279992 | 288954
7 | 64:12.55 | 2:12.62 | 288955 | 298916
8 | 66:25.42 | 2:25.44 | 298917 | 309835
9 | 68:51.11 | 1:17.64 | 309836 | 315674
10 | 70:09.00 | 1:47.46 | 315675 | 323745
11 | 71:56.46 | 1:56.74 | 323746 | 332519


Range status and errors

Selected range

Filename C:\[Riccardo Chailly]\CD31\CD31 - Mahler - Symphony No.4 & Berg.wav

Peak level 100.0 %
Extraction speed 5.2 X
Range quality 100.0 %
Copy CRC E5133497
Copy OK

No errors occurred


AccurateRip summary

Track 1 cannot be verified as accurate (confidence 25) [E0617C05], AccurateRip returned [60A6DDF6] (AR v2)
Track 2 cannot be verified as accurate (confidence 26) [50127BE3], AccurateRip returned [B020E64D] (AR v2)
Track 3 cannot be verified as accurate (confidence 26) [7476F77C], AccurateRip returned [154A39F5] (AR v2)
Track 4 cannot be verified as accurate (confidence 26) [F1E70E31], AccurateRip returned [F2574A9B] (AR v2)
Track 5 cannot be verified as accurate (confidence 26) [E6E5983B], AccurateRip returned [B51FF9A3] (AR v2)
Track 6 cannot be verified as accurate (confidence 26) [5AE2DB5B], AccurateRip returned [6487A6C2] (AR v2)
Track 7 cannot be verified as accurate (confidence 27) [8EA6D8CA], AccurateRip returned [4FC50914] (AR v2)
Track 8 cannot be verified as accurate (confidence 26) [B575967F], AccurateRip returned [DD27DBD9] (AR v2)
Track 9 cannot be verified as accurate (confidence 26) [DBE75B70], AccurateRip returned [0B6BAE5F] (AR v2)
Track 10 cannot be verified as accurate (confidence 26) [38C61CC8], AccurateRip returned [915E3620] (AR v2)
Track 11 cannot be verified as accurate (confidence 26) [1B5338BF], AccurateRip returned [7540B360] (AR v2)

No tracks could be verified as accurate
You may have a different pressing from the one(s) in the database

End of status report

–– CUETools DB Plugin V2.1.6

[CTDB TOCID: flS2lEbx.xnEJh3eZj_oTpvqiDs-] found
Submit result: flS2lEbx.xnEJh3eZj_oTpvqiDs- has been confirmed
Track | CTDB Status
1 | (42/43) Accurately ripped
2 | (42/43) Accurately ripped
3 | (42/43) Accurately ripped
4 | (42/43) Accurately ripped
5 | (42/43) Accurately ripped
6 | (42/43) Accurately ripped
7 | (42/43) Accurately ripped
8 | (42/43) Accurately ripped
9 | (42/43) Accurately ripped
10 | (42/43) Accurately ripped
11 | (42/43) Accurately ripped


––––––––––––––––––––––––––––––

Exact Audio Copy V1.1 from 23. June 2015

EAC extraction logfile from 14. January 2019, 12:19

Riccardo Chailly/ RCO / CD31 - Mahler - Symphony No.4 & Berg

Used drive : HL-DT-STBD-RE WH16NS40 Adapter: 1 ID: 0

Read mode : Secure
Utilize accurate stream : Yes
Defeat audio cache : Yes
Make use of C2 pointers : No

Read offset correction : 6
Overread into Lead-In and Lead-Out : No
Fill up missing offset samples with silence : Yes
Delete leading and trailing silent blocks : No
Null samples used in CRC calculations : Yes
Used interface : Native Win32 interface for Win NT & 2000

Used output format : Internal WAV Routines
Sample format : 44.100 Hz; 16 Bit; Stereo


TOC of the extracted CD

Track | Start | Length | Start sector | End sector
––––––––––––––––––––––––––––-
1 | 0:00.00 | 18:13.01 | 0 | 81975
2 | 18:13.01 | 9:40.02 | 81976 | 125477
3 | 27:53.03 | 20:39.26 | 125478 | 218428
4 | 48:32.29 | 9:52.49 | 218429 | 262877
5 | 58:25.03 | 3:48.14 | 262878 | 279991
6 | 62:13.17 | 1:59.38 | 279992 | 288954
7 | 64:12.55 | 2:12.62 | 288955 | 298916
8 | 66:25.42 | 2:25.44 | 298917 | 309835
9 | 68:51.11 | 1:17.64 | 309836 | 315674
10 | 70:09.00 | 1:47.46 | 315675 | 323745
11 | 71:56.46 | 1:56.74 | 323746 | 332519


Range status and errors

Selected range

Filename C:\[Riccardo Chailly]\CD31\CD31 - Mahler - Symphony No.4 & Berg.wav

Peak level 100.0 %
Extraction speed 5.2 X
Range quality 100.0 %
Copy CRC E5133497
Copy OK

No errors occurred


AccurateRip summary

Track 1 cannot be verified as accurate (confidence 25) [E0617C05], AccurateRip returned [60A6DDF6] (AR v2)
Track 2 cannot be verified as accurate (confidence 26) [50127BE3], AccurateRip returned [B020E64D] (AR v2)
Track 3 cannot be verified as accurate (confidence 26) [7476F77C], AccurateRip returned [154A39F5] (AR v2)
Track 4 cannot be verified as accurate (confidence 26) [F1E70E31], AccurateRip returned [F2574A9B] (AR v2)
Track 5 cannot be verified as accurate (confidence 26) [E6E5983B], AccurateRip returned [B51FF9A3] (AR v2)
Track 6 cannot be verified as accurate (confidence 26) [5AE2DB5B], AccurateRip returned [6487A6C2] (AR v2)
Track 7 cannot be verified as accurate (confidence 27) [8EA6D8CA], AccurateRip returned [4FC50914] (AR v2)
Track 8 cannot be verified as accurate (confidence 26) [B575967F], AccurateRip returned [DD27DBD9] (AR v2)
Track 9 cannot be verified as accurate (confidence 26) [DBE75B70], AccurateRip returned [0B6BAE5F] (AR v2)
Track 10 cannot be verified as accurate (confidence 26) [38C61CC8], AccurateRip returned [915E3620] (AR v2)
Track 11 cannot be verified as accurate (confidence 26) [1B5338BF], AccurateRip returned [7540B360] (AR v2)

No tracks could be verified as accurate
You may have a different pressing from the one(s) in the database

End of status report

–– CUETools DB Plugin V2.1.6

[CTDB TOCID: flS2lEbx.xnEJh3eZj_oTpvqiDs-] found
Submit result: flS2lEbx.xnEJh3eZj_oTpvqiDs- has been confirmed
Track | CTDB Status
1 | (42/43) Accurately ripped
2 | (42/43) Accurately ripped
3 | (42/43) Accurately ripped
4 | (42/43) Accurately ripped
5 | (42/43) Accurately ripped
6 | (42/43) Accurately ripped
7 | (42/43) Accurately ripped
8 | (42/43) Accurately ripped
9 | (42/43) Accurately ripped
10 | (42/43) Accurately ripped
11 | (42/43) Accurately ripped

===============================================

Exact Audio Copy V1.1 from 23. June 2015

EAC extraction logfile from 14. January 2019, 13:05

Riccardo Chailly/ RCO / CD32 - Mahler - Symphony No.5

Used drive : HL-DT-STBD-RE WH16NS40 Adapter: 1 ID: 0

Read mode : Secure
Utilize accurate stream : Yes
Defeat audio cache : Yes
Make use of C2 pointers : No

Read offset correction : 6
Overread into Lead-In and Lead-Out : No
Fill up missing offset samples with silence : Yes
Delete leading and trailing silent blocks : No
Null samples used in CRC calculations : Yes
Used interface : Native Win32 interface for Win NT & 2000

Used output format : Internal WAV Routines
Sample format : 44.100 Hz; 16 Bit; Stereo


TOC of the extracted CD

Track | Start | Length | Start sector | End sector
––––––––––––––––––––––––––––-
1 | 0:00.00 | 12:52.07 | 0 | 57906
2 | 12:52.07 | 15:12.05 | 57907 | 126311
3 | 28:04.12 | 17:55.23 | 126312 | 206959
4 | 45:59.35 | 10:19.60 | 206960 | 253444
5 | 56:19.20 | 15:26.52 | 253445 | 322946


Range status and errors

Selected range

Filename C:\[Riccardo Chailly]\CD32\CD32 - Mahler - Symphony No.5.wav

Peak level 100.0 %
Extraction speed 5.1 X
Range quality 100.0 %
Copy CRC 0193FCF2
Copy OK

No errors occurred


AccurateRip summary

Track 1 accurately ripped (confidence 49) [06F61DDB] (AR v2)
Track 2 accurately ripped (confidence 49) [1F31C1F6] (AR v2)
Track 3 accurately ripped (confidence 48) [CFD4DE13] (AR v2)
Track 4 accurately ripped (confidence 48) [C13FA74D] (AR v2)
Track 5 accurately ripped (confidence 46) [0C66DFF2] (AR v2)

All tracks accurately ripped

End of status report

–– CUETools DB Plugin V2.1.6

[CTDB TOCID: D4kLTqbhK8SsBzAGgXDqAgO_sI4-] found
Submit result: D4kLTqbhK8SsBzAGgXDqAgO_sI4- has been confirmed
Track | CTDB Status
1 | (261/285) Accurately ripped
2 | (262/285) Accurately ripped
3 | (263/285) Accurately ripped
4 | (262/285) Accurately ripped
5 | (258/285) Accurately ripped


––––––––––––––––––––––––––––––

Exact Audio Copy V1.1 from 23. June 2015

EAC extraction logfile from 14. January 2019, 13:05

Riccardo Chailly/ RCO / CD32 - Mahler - Symphony No.5

Used drive : HL-DT-STBD-RE WH16NS40 Adapter: 1 ID: 0

Read mode : Secure
Utilize accurate stream : Yes
Defeat audio cache : Yes
Make use of C2 pointers : No

Read offset correction : 6
Overread into Lead-In and Lead-Out : No
Fill up missing offset samples with silence : Yes
Delete leading and trailing silent blocks : No
Null samples used in CRC calculations : Yes
Used interface : Native Win32 interface for Win NT & 2000

Used output format : Internal WAV Routines
Sample format : 44.100 Hz; 16 Bit; Stereo


TOC of the extracted CD

Track | Start | Length | Start sector | End sector
––––––––––––––––––––––––––––-
1 | 0:00.00 | 12:52.07 | 0 | 57906
2 | 12:52.07 | 15:12.05 | 57907 | 126311
3 | 28:04.12 | 17:55.23 | 126312 | 206959
4 | 45:59.35 | 10:19.60 | 206960 | 253444
5 | 56:19.20 | 15:26.52 | 253445 | 322946


Range status and errors

Selected range

Filename C:\[Riccardo Chailly]\CD32\CD32 - Mahler - Symphony No.5.wav

Peak level 100.0 %
Extraction speed 5.1 X
Range quality 100.0 %
Copy CRC 0193FCF2
Copy OK

No errors occurred


AccurateRip summary

Track 1 accurately ripped (confidence 49) [06F61DDB] (AR v2)
Track 2 accurately ripped (confidence 49) [1F31C1F6] (AR v2)
Track 3 accurately ripped (confidence 48) [CFD4DE13] (AR v2)
Track 4 accurately ripped (confidence 48) [C13FA74D] (AR v2)
Track 5 accurately ripped (confidence 46) [0C66DFF2] (AR v2)

All tracks accurately ripped

End of status report

–– CUETools DB Plugin V2.1.6

[CTDB TOCID: D4kLTqbhK8SsBzAGgXDqAgO_sI4-] found
Submit result: D4kLTqbhK8SsBzAGgXDqAgO_sI4- has been confirmed
Track | CTDB Status
1 | (261/285) Accurately ripped
2 | (262/285) Accurately ripped
3 | (263/285) Accurately ripped
4 | (262/285) Accurately ripped
5 | (258/285) Accurately ripped

===============================================

Exact Audio Copy V1.1 from 23. June 2015

EAC extraction logfile from 14. January 2019, 13:57

Riccardo Chailly/ RCO / CD33 - Mahler - Symphony No.6

Used drive : HL-DT-STBD-RE WH16NS40 Adapter: 1 ID: 0

Read mode : Secure
Utilize accurate stream : Yes
Defeat audio cache : Yes
Make use of C2 pointers : No

Read offset correction : 6
Overread into Lead-In and Lead-Out : No
Fill up missing offset samples with silence : Yes
Delete leading and trailing silent blocks : No
Null samples used in CRC calculations : Yes
Used interface : Native Win32 interface for Win NT & 2000

Used output format : Internal WAV Routines
Sample format : 44.100 Hz; 16 Bit; Stereo


TOC of the extracted CD

Track | Start | Length | Start sector | End sector
––––––––––––––––––––––––––––-
1 | 0:00.00 | 25:35.22 | 0 | 115146
2 | 25:35.22 | 13:20.52 | 115147 | 175198
3 | 38:55.74 | 14:42.61 | 175199 | 241409
4 | 53:38.60 | 30:59.23 | 241410 | 380857


Range status and errors

Selected range

Filename C:\[Riccardo Chailly]\CD33\CD33 - Mahler - Symphony No.6.wav

Peak level 98.8 %
Extraction speed 4.0 X
Range quality 100.0 %
Copy CRC 5FCF80CC
Copy OK

No errors occurred


AccurateRip summary

Track 1 not present in database
Track 2 not present in database
Track 3 not present in database
Track 4 not present in database

None of the tracks are present in the AccurateRip database

End of status report

–– CUETools DB Plugin V2.1.6

[CTDB TOCID: Xx0xrriLFPc1dEGLjXFe7WaSDhM-] found
Submit result: Xx0xrriLFPc1dEGLjXFe7WaSDhM- has been confirmed
Track | CTDB Status
1 | (2/2) Accurately ripped
2 | (2/2) Accurately ripped
3 | (2/2) Accurately ripped
4 | (2/2) Accurately ripped


––––––––––––––––––––––––––––––

Exact Audio Copy V1.1 from 23. June 2015

EAC extraction logfile from 14. January 2019, 13:57

Riccardo Chailly/ RCO / CD33 - Mahler - Symphony No.6

Used drive : HL-DT-STBD-RE WH16NS40 Adapter: 1 ID: 0

Read mode : Secure
Utilize accurate stream : Yes
Defeat audio cache : Yes
Make use of C2 pointers : No

Read offset correction : 6
Overread into Lead-In and Lead-Out : No
Fill up missing offset samples with silence : Yes
Delete leading and trailing silent blocks : No
Null samples used in CRC calculations : Yes
Used interface : Native Win32 interface for Win NT & 2000

Used output format : Internal WAV Routines
Sample format : 44.100 Hz; 16 Bit; Stereo


TOC of the extracted CD

Track | Start | Length | Start sector | End sector
––––––––––––––––––––––––––––-
1 | 0:00.00 | 25:35.22 | 0 | 115146
2 | 25:35.22 | 13:20.52 | 115147 | 175198
3 | 38:55.74 | 14:42.61 | 175199 | 241409
4 | 53:38.60 | 30:59.23 | 241410 | 380857


Range status and errors

Selected range

Filename C:\[Riccardo Chailly]\CD33\CD33 - Mahler - Symphony No.6.wav

Peak level 98.8 %
Extraction speed 4.0 X
Range quality 100.0 %
Copy CRC 5FCF80CC
Copy OK

No errors occurred


AccurateRip summary

Track 1 not present in database
Track 2 not present in database
Track 3 not present in database
Track 4 not present in database

None of the tracks are present in the AccurateRip database

End of status report

–– CUETools DB Plugin V2.1.6

[CTDB TOCID: Xx0xrriLFPc1dEGLjXFe7WaSDhM-] found
Submit result: Xx0xrriLFPc1dEGLjXFe7WaSDhM- has been confirmed
Track | CTDB Status
1 | (2/2) Accurately ripped
2 | (2/2) Accurately ripped
3 | (2/2) Accurately ripped
4 | (2/2) Accurately ripped


All 10 log files included…